  0
SECTION
  2
HEADER
  9
$ACADVER
  1
AC1015
  9
$ACADMAINTVER
 70
    20
  9
$DWGCODEPAGE
  3
ANSI_1252
  9
$INSBASE
 10
0.0
 20
0.0
 30
0.0
  9
$EXTMIN
 10
-478.7805653881824
 20
-63.32711294038472
 30
0.0
  9
$EXTMAX
 10
1420.086126764175
 20
2413.388512953814
 30
0.0
  9
$LIMMIN
 10
0.0
 20
0.0
  9
$LIMMAX
 10
420.0
 20
297.0
  9
$ORTHOMODE
 70
     0
  9
$REGENMODE
 70
     1
  9
$FILLMODE
 70
     1
  9
$QTEXTMODE
 70
     0
  9
$MIRRTEXT
 70
     1
  9
$LTSCALE
 40
1.0
  9
$ATTMODE
 70
     1
  9
$TEXTSIZE
 40
2.5
  9
$TRACEWID
 40
1.0
  9
$TEXTSTYLE
  7
Standard
  9
$CLAYER
  8
Quotature
  9
$CELTYPE
  6
PUNTO2
  9
$CECOLOR
 62
     5
  9
$CELTSCALE
 40
1.0
  9
$DISPSILH
 70
     0
  9
$DIMSCALE
 40
1.0
  9
$DIMASZ
 40
2.5
  9
$DIMEXO
 40
0.625
  9
$DIMDLI
 40
3.75
  9
$DIMRND
 40
0.0
  9
$DIMDLE
 40
0.0
  9
$DIMEXE
 40
1.25
  9
$DIMTP
 40
0.0
  9
$DIMTM
 40
0.0
  9
$DIMTXT
 40
2.5
  9
$DIMCEN
 40
2.5
  9
$DIMTSZ
 40
0.0
  9
$DIMTOL
 70
     0
  9
$DIMLIM
 70
     0
  9
$DIMTIH
 70
     0
  9
$DIMTOH
 70
     0
  9
$DIMSE1
 70
     0
  9
$DIMSE2
 70
     0
  9
$DIMTAD
 70
     1
  9
$DIMZIN
 70
     8
  9
$DIMBLK
  1

  9
$DIMASO
 70
     1
  9
$DIMSHO
 70
     1
  9
$DIMPOST
  1

  9
$DIMAPOST
  1

  9
$DIMALT
 70
     0
  9
$DIMALTD
 70
     3
  9
$DIMALTF
 40
0.03937007874016
  9
$DIMLFAC
 40
1.0
  9
$DIMTOFL
 70
     1
  9
$DIMTVP
 40
0.0
  9
$DIMTIX
 70
     0
  9
$DIMSOXD
 70
     0
  9
$DIMSAH
 70
     0
  9
$DIMBLK1
  1

  9
$DIMBLK2
  1

  9
$DIMSTYLE
  2
ISO-25
  9
$DIMCLRD
 70
     0
  9
$DIMCLRE
 70
     0
  9
$DIMCLRT
 70
     0
  9
$DIMTFAC
 40
1.0
  9
$DIMGAP
 40
0.625
  9
$DIMJUST
 70
     0
  9
$DIMSD1
 70
     0
  9
$DIMSD2
 70
     0
  9
$DIMTOLJ
 70
     0
  9
$DIMTZIN
 70
     8
  9
$DIMALTZ
 70
     0
  9
$DIMALTTZ
 70
     0
  9
$DIMUPT
 70
     0
  9
$DIMDEC
 70
     2
  9
$DIMTDEC
 70
     2
  9
$DIMALTU
 70
     2
  9
$DIMALTTD
 70
     3
  9
$DIMTXSTY
  7
Standard
  9
$DIMAUNIT
 70
     0
  9
$DIMADEC
 70
     0
  9
$DIMALTRND
 40
0.0
  9
$DIMAZIN
 70
     0
  9
$DIMDSEP
 70
    44
  9
$DIMATFIT
 70
     3
  9
$DIMFRAC
 70
     0
  9
$DIMLDRBLK
  1

  9
$DIMLUNIT
 70
     2
  9
$DIMLWD
 70
    -2
  9
$DIMLWE
 70
    -2
  9
$DIMTMOVE
 70
     0
  9
$LUNITS
 70
     2
  9
$LUPREC
 70
     4
  9
$SKETCHINC
 40
1.0
  9
$FILLETRAD
 40
10.0
  9
$AUNITS
 70
     0
  9
$AUPREC
 70
     0
  9
$MENU
  1
.
  9
$ELEVATION
 40
0.0
  9
$PELEVATION
 40
0.0
  9
$THICKNESS
 40
0.0
  9
$LIMCHECK
 70
     0
  9
$CHAMFERA
 40
10.0
  9
$CHAMFERB
 40
10.0
  9
$CHAMFERC
 40
20.0
  9
$CHAMFERD
 40
0.0
  9
$SKPOLY
 70
     0
  9
$TDCREATE
 40
2453791.570187489
  9
$TDUCREATE
 40
2453791.528520822
  9
$TDUPDATE
 40
2453811.445007350
  9
$TDUUPDATE
 40
2453811.403340683
  9
$TDINDWG
 40
0.1175335185
  9
$TDUSRTIMER
 40
0.1175331713
  9
$USRTIMER
 70
     1
  9
$ANGBASE
 50
0.0
  9
$ANGDIR
 70
     0
  9
$PDMODE
 70
     0
  9
$PDSIZE
 40
0.0
  9
$PLINEWID
 40
0.0
  9
$SPLFRAME
 70
     0
  9
$SPLINETYPE
 70
     6
  9
$SPLINESEGS
 70
     8
  9
$HANDSEED
  5
17E3
  9
$SURFTAB1
 70
     6
  9
$SURFTAB2
 70
     6
  9
$SURFTYPE
 70
     6
  9
$SURFU
 70
     6
  9
$SURFV
 70
     6
  9
$UCSBASE
  2

  9
$UCSNAME
  2

  9
$UCSORG
 10
0.0
 20
0.0
 30
0.0
  9
$UCSXDIR
 10
1.0
 20
0.0
 30
0.0
  9
$UCSYDIR
 10
0.0
 20
1.0
 30
0.0
  9
$UCSORTHOREF
  2

  9
$UCSORTHOVIEW
 70
     0
  9
$UCSORGTOP
 10
0.0
 20
0.0
 30
0.0
  9
$UCSORGBOTTOM
 10
0.0
 20
0.0
 30
0.0
  9
$UCSORGLEFT
 10
0.0
 20
0.0
 30
0.0
  9
$UCSORGRIGHT
 10
0.0
 20
0.0
 30
0.0
  9
$UCSORGFRONT
 10
0.0
 20
0.0
 30
0.0
  9
$UCSORGBACK
 10
0.0
 20
0.0
 30
0.0
  9
$PUCSBASE
  2

  9
$PUCSNAME
  2

  9
$PUCSORG
 10
0.0
 20
0.0
 30
0.0
  9
$PUCSXDIR
 10
1.0
 20
0.0
 30
0.0
  9
$PUCSYDIR
 10
0.0
 20
1.0
 30
0.0
  9
$PUCSORTHOREF
  2

  9
$PUCSORTHOVIEW
 70
     0
  9
$PUCSORGTOP
 10
0.0
 20
0.0
 30
0.0
  9
$PUCSORGBOTTOM
 10
0.0
 20
0.0
 30
0.0
  9
$PUCSORGLEFT
 10
0.0
 20
0.0
 30
0.0
  9
$PUCSORGRIGHT
 10
0.0
 20
0.0
 30
0.0
  9
$PUCSORGFRONT
 10
0.0
 20
0.0
 30
0.0
  9
$PUCSORGBACK
 10
0.0
 20
0.0
 30
0.0
  9
$USERI1
 70
     0
  9
$USERI2
 70
     0
  9
$USERI3
 70
     0
  9
$USERI4
 70
     0
  9
$USERI5
 70
     0
  9
$USERR1
 40
0.0
  9
$USERR2
 40
0.0
  9
$USERR3
 40
0.0
  9
$USERR4
 40
0.0
  9
$USERR5
 40
0.0
  9
$WORLDVIEW
 70
     1
  9
$SHADEDGE
 70
     3
  9
$SHADEDIF
 70
    70
  9
$TILEMODE
 70
     1
  9
$MAXACTVP
 70
    64
  9
$PINSBASE
 10
0.0
 20
0.0
 30
0.0
  9
$PLIMCHECK
 70
     0
  9
$PEXTMIN
 10
1.000000000000000E+20
 20
1.000000000000000E+20
 30
1.000000000000000E+20
  9
$PEXTMAX
 10
-1.000000000000000E+20
 20
-1.000000000000000E+20
 30
-1.000000000000000E+20
  9
$PLIMMIN
 10
0.0
 20
0.0
  9
$PLIMMAX
 10
420.0
 20
297.0
  9
$UNITMODE
 70
     0
  9
$VISRETAIN
 70
     1
  9
$PLINEGEN
 70
     0
  9
$PSLTSCALE
 70
     1
  9
$TREEDEPTH
 70
  3020
  9
$CMLSTYLE
  2
Standard
  9
$CMLJUST
 70
     0
  9
$CMLSCALE
 40
20.0
  9
$PROXYGRAPHICS
 70
     1
  9
$MEASUREMENT
 70
     1
  9
$CELWEIGHT
370
     9
  9
$ENDCAPS
280
     0
  9
$JOINSTYLE
280
     0
  9
$LWDISPLAY
290
     0
  9
$INSUNITS
 70
     4
  9
$HYPERLINKBASE
  1

  9
$STYLESHEET
  1

  9
$XEDIT
290
     1
  9
$CEPSNTYPE
380
     0
  9
$PSTYLEMODE
290
     1
  9
$FINGERPRINTGUID
  2
{57C3249C-387A-4CED-AE97-68776FC09190}
  9
$VERSIONGUID
  2
{0387963D-6882-48EF-8CFC-9847E9924BEF}
  9
$EXTNAMES
290
     1
  9
$PSVPSCALE
 40
0.0
  9
$OLESTARTUP
290
     0
  0
ENDSEC
  0
SECTION
  2
CLASSES
  0
CLASS
  1
ACDBDICTIONARYWDFLT
  2
AcDbDictionaryWithDefault
  3
ObjectDBX Classes
 90
        0
280
     0
281
     0
  0
CLASS
  1
ACDBPLACEHOLDER
  2
AcDbPlaceHolder
  3
ObjectDBX Classes
 90
        0
280
     0
281
     0
  0
CLASS
  1
LAYOUT
  2
AcDbLayout
  3
ObjectDBX Classes
 90
        0
280
     0
281
     0
  0
CLASS
  1
TABLESTYLE
  2
AcDbTableStyle
  3
ObjectDBX Classes
 90
     2047
280
     0
281
     0
  0
CLASS
  1
ACME_DOCUMENT
  2
AcMeDbDoc
  3
AcMeServices
 90
        0
280
     0
281
     0
  0
CLASS
  1
AMGSETTINGSOBJ
  2
AmgSettingsObj
  3
"AcadM|Product Description: AutoCAD Mechanical 2000|Company: Autodesk"
 90
        0
280
     0
281
     0
  0
CLASS
  1
ACMESCOPE
  2
AcMeScope
  3
AcMeServices
 90
        0
280
     0
281
     0
  0
CLASS
  1
ACMECOMMANDHISTORY
  2
AcMeCommandHistory
  3
AcMeServices
 90
        0
280
     0
281
     0
  0
CLASS
  1
ACIMSYSVARMAN
  2
AcImSysVarManager
  3
AcMeServices
 90
        0
280
     0
281
     0
  0
CLASS
  1
ACIMINTSYSVAR
  2
AcImIntSysVar
  3
AcMeServices
 90
        0
280
     0
281
     0
  0
CLASS
  1
ACMEDRAWINGMAN
  2
AcMeDrawingMan
  3
AcMeServices
 90
        0
280
     0
281
     0
  0
CLASS
  1
ACMEVIEW
  2
AcMeView
  3
AcMeServices
 90
        0
280
     0
281
     0
  0
CLASS
  1
ACDBENTITYCACHE
  2
AcMeEntityCache
  3
AcMeServices
 90
        0
280
     0
281
     0
  0
CLASS
  1
GSMANAGER
  2
AcMeGSManager
  3
AcMeServices
 90
        0
280
     0
281
     0
  0
CLASS
  1
AMDTINTERNALREACTOR
  2
AmdtInternalReactor
  3
AcMeServices
 90
        0
280
     0
281
     0
  0
CLASS
  1
ACMESTATEMGR
  2
AcMeStateMgr
  3
AcMeServices
 90
        0
280
     0
281
     0
  0
CLASS
  1
ACGREFMASTER
  2
AcGrefMaster
  3
AcAttribServices
 90
        0
280
     0
281
     0
  0
CLASS
  1
AM_DRAWING_MGR
  2
AcDmDwgMgr
  3
AcMechDwgViewMgmt
 90
        0
280
     0
281
     0
  0
CLASS
  1
AM_DWG_DOCUMENT
  2
AcDmDwgDocument
  3
AcMechDwgViewMgmt
 90
        0
280
     0
281
     0
  0
CLASS
  1
AM_DWG_SHEET
  2
AcDmSheet
  3
AcMechDwgViewMgmt
 90
        0
280
     0
281
     0
  0
CLASS
  1
AM_VIEWDIMPARMAP
  2
AcDmViewDimParMap
  3
AcMechDwgViewMgmt
 90
        0
280
     0
281
     0
  0
CLASS
  1
ACIMREALSYSVAR
  2
AcImRealSysVar
  3
AcMeServices
 90
        0
280
     0
281
     0
  0
CLASS
  1
AM_DWGMGR_NAME
  2
AcDmDwgMgrName
  3
AcMechDwgViewMgmt
 90
        0
280
     0
281
     0
  0
CLASS
  1
ACME_DATABASE
  2
AcMeDbDatabase
  3
AcMeServices
 90
        0
280
     0
281
     0
  0
CLASS
  1
ACRFINSADJUSTERMGR
  2
AcRfInsAdjusterMgr
  3
AcMeServices
 90
        0
280
     0
281
     0
  0
CLASS
  1
ACGREFACADMASTER
  2
AcGrefacadMaster
  3
AcGrefServices
 90
        0
280
     0
281
     0
  0
CLASS
  1
AMDTMENUSTATEMGR
  2
AmdtMenuStateMgr
  3
McadcomServices
 90
        0
280
     0
281
     0
  0
CLASS
  1
AMDTMCOMMENUSTATE
  2
AmdtMcomMenuState
  3
McadcomServices
 90
        0
280
     0
281
     0
  0
CLASS
  1
AMIMASTER
  2
AmiMaster
  3
AmiServices
 90
        0
280
     0
281
     0
  0
CLASS
  1
MAPIAMMOUDLE
  2
MApiAmModule
  3
MApiAmServices
 90
        0
280
     0
281
     0
  0
CLASS
  1
ACIMSTRSYSVAR
  2
AcImStrSysVar
  3
AcMeServices
 90
        0
280
     0
281
     0
  0
CLASS
  1
AMDTADMENUSTATE
  2
AmdtAdMenuState
  3
DesignerServices
 90
        0
280
     0
281
     0
  0
CLASS
  1
ADAPPL
  2
AcAdAppl
  3
DesignerServices
 90
        0
280
     0
281
     0
  0
CLASS
  1
DEPMGR
  2
AcAdDepMgr
  3
DesignerServices
 90
        0
280
     0
281
     0
  0
CLASS
  1
PARAMMGR
  2
AcAdParamMgr
  3
DesignerServices
 90
        0
280
     0
281
     0
  0
CLASS
  1
PARAMSCOPE
  2
AcAdParamScope
  3
DesignerServices
 90
        0
280
     0
281
     0
  0
CLASS
  1
NAMEDAPPL
  2
AcAdNamedAppl
  3
DesignerServices
 90
        0
280
     0
281
     0
  0
CLASS
  1
AMDTDMMENUSTATE
  2
AmdtDmMenuState
  3
AcMechDwgViewMgmt
 90
        0
280
     0
281
     0
  0
CLASS
  1
AMDTAMMENUSTATE
  2
AmdtAmMenuState
  3
DesignerAssemblies
 90
        0
280
     0
281
     0
  0
CLASS
  1
ACAMPROJECT
  2
AcAmProject
  3
DesignerAssemblies
 90
        0
280
     0
281
     0
  0
CLASS
  1
ACAMGRCOMPDEF
  2
AcAmGrCompDef
  3
DesignerAssemblies
 90
        0
280
     0
281
     0
  0
CLASS
  1
ACCMCONTEXT
  2
AcCmContext
  3
DesignerAssemblies
 90
        0
280
     0
281
     0
  0
CLASS
  1
ACAMCOMPDEF
  2
AcAmCompDef
  3
DesignerAssemblies
 90
        0
280
     0
281
     0
  0
CLASS
  1
ACAMCOMPDEFMGR
  2
AcAmCompDefMgr
  3
DesignerAssemblies
 90
        0
280
     0
281
     0
  0
CLASS
  1
AMCONTEXTMGR
  2
AcAmContextMgr
  3
DesignerAssemblies
 90
        0
280
     0
281
     0
  0
CLASS
  1
ACAMCONTEXTMODELER
  2
AcAmContextModeler
  3
DesignerAssemblies
 90
        0
280
     0
281
     0
  0
CLASS
  1
ACMDATADICTIONARY
  2
AcmDataDictionary
  3
"AcmSymBB|Product Description: AutoCAD Mechanical 2004 DX|Company: Autodesk"
 90
        0
280
     0
281
     0
  0
CLASS
  1
CATALOGSTATE
  2
AcAmCatalogState
  3
DesignerAssemblies
 90
        0
280
     0
281
     0
  0
CLASS
  1
ACAMGRCOMPDEFSET
  2
AcAmGrCompDefSet
  3
DesignerAssemblies
 90
        0
280
     0
281
     0
  0
CLASS
  1
AMDTBROWSERDBTAB
  2
AmdtBrowserDbTab
  3
McadcomServices
 90
        0
280
     0
281
     0
  0
CLASS
  1
CBROWSERAPPOBJECT
  2
CBrowserAppObject
  3
McadcomServices
 90
        0
280
     0
281
     0
  0
CLASS
  1
DM_PLACEHOLDER
  2
AcDmSelsetPlaceholder
  3
AcMechDwgViewMgmt
 90
        0
280
     0
281
     0
  0
CLASS
  1
ACMSTANDARDISO
  2
AcmStandardISO
  3
"Amdt_StdImp|Product Description: AutoCAD Mechanical 2004 DX|Company: Autodesk"
 90
        0
280
     0
281
     0
  0
CLASS
  1
AMGOBJPROPCFG
  2
AmgObjPropCfg
  3
"AmgLay|Product Description: AutoCAD Mechanical 2000|Company: Autodesk"
 90
        1
280
     0
281
     0
  0
CLASS
  1
AMDTEDGESTANDARDISO13715
  2
AmdtEdgeStdISO13715
  3
"Amdt_StdImp|Product Description: AutoCAD Mechanical 2004 DX|Company: Autodesk"
 90
        0
280
     0
281
     0
  0
CLASS
  1
ACMSURFSTANDARDISO
  2
AcmSurfTextStdISO
  3
"Amdt_StdImp|Product Description: AutoCAD Mechanical 2004 DX|Company: Autodesk"
 90
        0
280
     0
281
     0
  0
CLASS
  1
ACMFCFSTANDARDISO
  2
AcmFCFStdISO
  3
"Amdt_StdImp|Product Description: AutoCAD Mechanical 2004 DX|Company: Autodesk"
 90
        0
280
     0
281
     0
  0
CLASS
  1
ACMWELDSTANDARDISO
  2
AcmWeldingStdISO
  3
"Amdt_StdImp|Product Description: AutoCAD Mechanical 2004 DX|Company: Autodesk"
 90
        0
280
     0
281
     0
  0
CLASS
  1
ACMIDSTANDARDISO
  2
AcmIdStdISO
  3
"Amdt_StdImp|Product Description: AutoCAD Mechanical 2004 DX|Company: Autodesk"
 90
        0
280
     0
281
     0
  0
CLASS
  1
ACMDATUMSTANDARDISO
  2
AcmDatumStdISO
  3
"Amdt_StdImp|Product Description: AutoCAD Mechanical 2004 DX|Company: Autodesk"
 90
        0
280
     0
281
     0
  0
CLASS
  1
ACMBOMSTANDARDISO
  2
AcmBOMStdISO
  3
"Amdt_StdImp|Product Description: AutoCAD Mechanical 2004 DX|Company: Autodesk"
 90
        0
280
     0
281
     0
  0
CLASS
  1
ACMDETAILSTANDARDISO
  2
AmdtDetailSymStdISO
  3
"Amdt_StdImp|Product Description: AutoCAD Mechanical 2004 DX|Company: Autodesk"
 90
        0
280
     0
281
     0
  0
CLASS
  1
ACMSECTIONSTANDARDISO
  2
AmdtSectionSymStdISO
  3
"Amdt_StdImp|Product Description: AutoCAD Mechanical 2004 DX|Company: Autodesk"
 90
        0
280
     0
281
     0
  0
CLASS
  1
ACMCENTERLINESTANDARDISO
  2
AmdtCenterLineStdISO
  3
"Amdt_StdImp|Product Description: AutoCAD Mechanical 2004 DX|Company: Autodesk"
 90
        0
280
     0
281
     0
  0
CLASS
  1
ACMTHREADLINESTANDARDISO
  2
AmdtThreadLineStdISO
  3
"Amdt_StdImp|Product Description: AutoCAD Mechanical 2004 DX|Company: Autodesk"
 90
        0
280
     0
281
     0
  0
CLASS
  1
ACMNOTESTANDARDISO
  2
AmdtNoteStdISO
  3
"Amdt_StdImp|Product Description: AutoCAD Mechanical 2004 DX|Company: Autodesk"
 90
        0
280
     0
281
     0
  0
CLASS
  1
AMDTNOTETEMPLATEDB
  2
AmdtNoteTemplateDB
  3
AMDT_STDIMP_MODULE_NAME
 90
        0
280
     0
281
     0
  0
CLASS
  1
ACAMGLAYSTD
  2
AcAmgLayStd
  3
"AcAmgLayStd|Product Description: AutoCAD Mechanical 2000|Company: Autodesk"
 90
        0
280
     0
281
     0
  0
CLASS
  1
ACAMGDIMSTD
  2
AcAmgDimStd
  3
"AcAmgDimStd|Product Description: AutoCAD Mechanical 2000|Company: Autodesk"
 90
        0
280
     0
281
     0
  0
CLASS
  1
ACAMGHOLECHARTSTDISO
  2
AcAmgHoleChartStdISO
  3
ACMSYMBB_MODULE_NAME
 90
        0
280
     0
281
     0
  0
CLASS
  1
ACAMGTITLESTD
  2
AcAmgTitleStd
  3
"TITLEAPP"
 90
        0
280
     0
281
     0
  0
CLASS
  1
ACAMGFILTERDAT
  2
AcAmgFilterDat
  3
"AcadM|Product Description: AutoCAD Mechanical 2000|Company: Autodesk"
 90
        0
280
     0
281
     0
  0
CLASS
  1
DICTIONARYVAR
  2
AcDbDictionaryVar
  3
ObjectDBX Classes
 90
        0
280
     0
281
     0
  0
ENDSEC
  0
SECTION
  2
TABLES
  0
TABLE
  2
VPORT
  5
8
330
0
100
AcDbSymbolTable
 70
     3
  0
VPORT
  5
17DB
330
8
100
AcDbSymbolTableRecord
100
AcDbViewportTableRecord
  2
*Active
 70
     0
 10
0.0
 20
0.0
 11
1.0
 21
1.0
 12
740.0895925870386
 22
548.5258646299157
 13
0.0
 23
0.0
 14
10.0
 24
10.0
 15
10.0
 25
10.0
 16
0.0
 26
0.0
 36
1.0
 17
0.0
 27
0.0
 37
0.0
 40
1911.566024977946
 41
1.805695142378559
 42
50.0
 43
0.0
 44
0.0
 50
0.0
 51
0.0
 71
     0
 72
   100
 73
     1
 74
     3
 75
     0
 76
     0
 77
     0
 78
     0
281
     0
 65
     1
110
0.0
120
0.0
130
0.0
111
1.0
121
0.0
131
0.0
112
0.0
122
1.0
132
0.0
 79
     0
146
0.0
  0
ENDTAB
  0
TABLE
  2
LTYPE
  5
5
330
0
100
AcDbSymbolTable
 70
    15
  0
LTYPE
  5
14
330
5
100
AcDbSymbolTableRecord
100
AcDbLinetypeTableRecord
  2
ByBlock
 70
     0
  3

 72
    65
 73
     0
 40
0.0
  0
LTYPE
  5
15
330
5
100
AcDbSymbolTableRecord
100
AcDbLinetypeTableRecord
  2
ByLayer
 70
     0
  3

 72
    65
 73
     0
 40
0.0
  0
LTYPE
  5
16
330
5
100
AcDbSymbolTableRecord
100
AcDbLinetypeTableRecord
  2
Continuous
 70
     0
  3
Solid line
 72
    65
 73
     0
 40
0.0
  0
LTYPE
  5
380
330
5
100
AcDbSymbolTableRecord
100
AcDbLinetypeTableRecord
  2
PUNTO2
 70
     0
  3
Punto (.5x) ...................................
 72
    65
 73
     2
 40
3.174999999999999
 49
0.0
 74
     0
 49
-3.174999999999999
 74
     0
  0
LTYPE
  5
1754
330
5
100
AcDbSymbolTableRecord
100
AcDbLinetypeTableRecord
  2
HIDDEN
 70
     0
  3
Hidden __ __ __ __ __ __ __ __ __ __ __ __ __ _
 72
    65
 73
     2
 40
9.524999999999998
 49
6.349999999999999
 74
     0
 49
-3.174999999999999
 74
     0
  0
LTYPE
  5
1755
330
5
100
AcDbSymbolTableRecord
100
AcDbLinetypeTableRecord
  2
PHANTOM2
 70
     0
  3
Phantom (.5x) ___ _ _ ___ _ _ ___ _ _ ___ _ _
 72
    65
 73
     6
 40
31.75
 49
15.875
 74
     0
 49
-3.174999999999999
 74
     0
 49
3.174999999999999
 74
     0
 49
-3.174999999999999
 74
     0
 49
3.174999999999999
 74
     0
 49
-3.174999999999999
 74
     0
  0
LTYPE
  5
1756
330
5
100
AcDbSymbolTableRecord
100
AcDbLinetypeTableRecord
  2
CENTER
 70
     0
  3
Center ____ _ ____ _ ____ _ ____ _ ____ _ ____
 72
    65
 73
     4
 40
50.8
 49
31.75
 74
     0
 49
-6.349999999999999
 74
     0
 49
6.349999999999999
 74
     0
 49
-6.349999999999999
 74
     0
  0
LTYPE
  5
178A
330
5
100
AcDbSymbolTableRecord
100
AcDbLinetypeTableRecord
  2
AM_ISO02W050
 70
     0
  3
__ __ __ __ __ __ __ __ __ __ __ __ __ __ __
 72
    65
 73
     2
 40
7.5
 49
6.0
 74
     0
 49
-1.5
 74
     0
  0
LTYPE
  5
178B
330
5
100
AcDbSymbolTableRecord
100
AcDbLinetypeTableRecord
  2
AM_ISO08W050
 70
     0
  3
____ . ____ . ____ . ____ . ____ . ____ . ____
 72
    65
 73
     4
 40
18.0
 49
12.0
 74
     0
 49
-1.5
 74
     0
 49
3.0
 74
     0
 49
-1.5
 74
     0
  0
LTYPE
  5
178C
330
5
100
AcDbSymbolTableRecord
100
AcDbLinetypeTableRecord
  2
AM_ISO09W050
 70
     0
  3
_____ . . _____ . . _____ . . ____ .. ____
 72
    65
 73
     6
 40
22.5
 49
12.0
 74
     0
 49
-1.5
 74
     0
 49
3.0
 74
     0
 49
-1.5
 74
     0
 49
3.0
 74
     0
 49
-1.5
 74
     0
  0
LTYPE
  5
178D
330
5
100
AcDbSymbolTableRecord
100
AcDbLinetypeTableRecord
  2
Amconstr
 70
     0
  3
_______________________
 72
    65
 73
     2
 40
9999.0
 49
9999.0
 74
     0
 49
0.0
 74
     0
  0
LTYPE
  5
178E
330
5
100
AcDbSymbolTableRecord
100
AcDbLinetypeTableRecord
  2
AM_ISO08W050x2
 70
     0
  3
__ . __ . __ . __ . __ . __
 72
    65
 73
     4
 40
9.0
 49
6.0
 74
     0
 49
-0.75
 74
     0
 49
1.5
 74
     0
 49
-0.75
 74
     0
  0
LTYPE
  5
178F
330
5
100
AcDbSymbolTableRecord
100
AcDbLinetypeTableRecord
  2
AM_ISO02W050x2
 70
     0
  3
 _ _ _ _ _ _ _ _ _ _ _ _
 72
    65
 73
     2
 40
3.75
 49
3.0
 74
     0
 49
-0.75
 74
     0
  0
LTYPE
  5
1792
330
5
100
AcDbSymbolTableRecord
100
AcDbLinetypeTableRecord
  2
Amzigzag
 70
     0
  3
/\/-/\/-/\/-/\/-/\/-/\/
 72
    65
 73
     2
 40
11.0001
 49
0.0001
 74
     4
 75
   136
340
1791
 46
0.04
 50
0.0
 44
0.0
 45
0.0
 49
-11.0
 74
     0
  0
LTYPE
  5
17A1
330
5
100
AcDbSymbolTableRecord
100
AcDbLinetypeTableRecord
  2
ACISOWELD
 70
     0
  3
_ _ _ _ _
 72
    65
 73
     2
 40
2.0
 49
2.0
 74
     0
 49
-1.0
 74
     0
  0
LTYPE
  5
17A2
330
5
100
AcDbSymbolTableRecord
100
AcDbLinetypeTableRecord
  2
ACISOTGB
 70
     0
  3
__ . . __ . .
 72
    65
 73
     6
 40
9.0
 49
4.0
 74
     0
 49
-1.0
 74
     0
 49
1.0
 74
     0
 49
-1.0
 74
     0
 49
1.0
 74
     0
 49
-1.0
 74
     0
  0
LTYPE
  5
17A3
330
5
100
AcDbSymbolTableRecord
100
AcDbLinetypeTableRecord
  2
ACISOTGL
 70
     0
  3
_ _ _ _ _
 72
    65
 73
     2
 40
3.0
 49
2.0
 74
     0
 49
-1.0
 74
     0
  0
ENDTAB
  0
TABLE
  2
LAYER
  5
2
330
0
100
AcDbSymbolTable
 70
     3
  0
LAYER
  5
10
330
2
100
AcDbSymbolTableRecord
100
AcDbLayerTableRecord
  2
0
 70
     0
 62
     7
  6
Continuous
370
    -3
390
F
  0
LAYER
  5
63
330
2
100
AcDbSymbolTableRecord
100
AcDbLayerTableRecord
  2
Defpoints
 70
     0
 62
     7
  6
Continuous
290
     0
370
    -3
390
F
  0
LAYER
  5
51F
330
2
100
AcDbSymbolTableRecord
100
AcDbLayerTableRecord
  2
Quotature
 70
     0
 62
     7
  6
Continuous
370
    -3
390
F
  0
ENDTAB
  0
TABLE
  2
STYLE
  5
3
330
0
100
AcDbSymbolTable
 70
     5
  0
STYLE
  5
11
330
3
100
AcDbSymbolTableRecord
100
AcDbTextStyleTableRecord
  2
Standard
 70
     0
 40
0.0
 41
1.0
 50
0.0
 71
     0
 42
2.5
  3
txt
  4

  0
STYLE
  5
37F
330
3
100
AcDbSymbolTableRecord
100
AcDbTextStyleTableRecord
  2

 70
     1
 40
0.0
 41
1.0
 50
0.0
 71
     0
 42
2.5
  3
ltypeshp.shx
  4

  0
STYLE
  5
1791
330
3
100
AcDbSymbolTableRecord
100
AcDbTextStyleTableRecord
  2

 70
     1
 40
0.0
 41
1.0
 50
0.0
 71
     0
 42
2.5
  3
genltshp.shx
  4

  0
STYLE
  5
1793
330
3
100
AcDbSymbolTableRecord
100
AcDbTextStyleTableRecord
  2
ACISOTS
 70
     0
 40
1.0
 41
1.0
 50
0.0
 71
     0
 42
2.5
  3
isocp.shx
  4

  0
STYLE
  5
17A0
330
3
100
AcDbSymbolTableRecord
100
AcDbTextStyleTableRecord
  2
ACISOGDT
 70
     0
 40
0.0
 41
1.0
 50
0.0
 71
     0
 42
2.5
  3
AMGDT
  4

  0
ENDTAB
  0
TABLE
  2
VIEW
  5
6
330
0
100
AcDbSymbolTable
 70
     0
  0
ENDTAB
  0
TABLE
  2
UCS
  5
7
330
0
100
AcDbSymbolTable
 70
     0
  0
ENDTAB
  0
TABLE
  2
APPID
  5
9
330
0
100
AcDbSymbolTable
 70
    10
  0
APPID
  5
12
330
9
100
AcDbSymbolTableRecord
100
AcDbRegAppTableRecord
  2
ACAD
 70
     0
  0
APPID
  5
1725
330
9
100
AcDbSymbolTableRecord
100
AcDbRegAppTableRecord
  2
MCAD_NO_VIS
 70
     0
  0
APPID
  5
1726
330
9
100
AcDbSymbolTableRecord
100
AcDbRegAppTableRecord
  2
ACAD_TEMP_GRAPHIC
 70
     0
  0
APPID
  5
1758
330
9
100
AcDbSymbolTableRecord
100
AcDbRegAppTableRecord
  2
AD_DRAW
 70
     0
  0
APPID
  5
175B
330
9
100
AcDbSymbolTableRecord
100
AcDbRegAppTableRecord
  2
ACATTRIBSERVICES
 70
     0
  0
APPID
  5
177B
330
9
100
AcDbSymbolTableRecord
100
AcDbRegAppTableRecord
  2
DESIGNERASSEMBLIES
 70
     0
  0
APPID
  5
1781
330
9
100
AcDbSymbolTableRecord
100
AcDbRegAppTableRecord
  2
ACADM_DIM_EDIT
 70
     0
  0
APPID
  5
1782
330
9
100
AcDbSymbolTableRecord
100
AcDbRegAppTableRecord
  2
AMDT_DM_ADJ
 70
     0
  0
APPID
  5
17AF
330
9
100
AcDbSymbolTableRecord
100
AcDbRegAppTableRecord
  2
ACAD_DSTYLE_DIMARC_LENGTH_SYMBOL
 70
     0
  0
APPID
  5
17B0
330
9
100
AcDbSymbolTableRecord
100
AcDbRegAppTableRecord
  2
ACAD_DSTYLE_DIMJOGGED_JOGANGLE_SYMBOL
 70
     0
  0
ENDTAB
  0
TABLE
  2
DIMSTYLE
  5
A
330
0
100
AcDbSymbolTable
 70
     8
100
AcDbDimStyleTable
 71
     1
340
27
  0
DIMSTYLE
105
27
102
{ACAD_REACTORS
330
5B0
330
5CA
330
5E4
330
5F1
330
5FE
330
9DE
330
63F
330
A0F
330
618
330
60B
330
57C
330
589
330
562
330
548
330
56F
330
6CE
330
6A7
330
555
330
C5E
330
C9F
330
DDD
330
DAC
330
DEA
330
E1E
330
DF7
330
E2B
330
F23
330
105D
330
161E
330
C06
330
F79
330
F50
330
596
330
6B4
330
C85
330
1611
330
15F7
330
1604
330
1029
330
1036
102
}
330
A
100
AcDbSymbolTableRecord
100
AcDbDimStyleTableRecord
  2
ISO-25
 70
     0
 41
2.5
 42
0.625
 43
3.75
 44
1.25
 73
     0
 74
     0
 77
     1
 78
     8
140
2.5
141
2.5
143
0.03937007874016
147
0.625
171
     3
172
     1
271
     2
272
     2
274
     3
278
    44
283
     0
284
     8
340
11
  0
DIMSTYLE
105
17AE
330
A
100
AcDbSymbolTableRecord
100
AcDbDimStyleTableRecord
  2
AM_ISO
 70
     0
  4
"
 41
2.5
 42
1.0
 43
10.0
 44
1.0
 47
0.1
 48
0.1
 73
     0
 74
     0
 77
     1
 78
     8
 79
     2
140
3.5
141
0.0
143
0.0393701
146
0.71
147
1.5
172
     1
176
   256
177
   256
178
     2
271
     2
272
     3
274
     4
283
     0
284
     8
340
11
371
    -1
372
    -1
1001
ACAD_DSTYLE_DIMARC_LENGTH_SYMBOL
1070
   379
1070
     1
1001
ACAD_DSTYLE_DIMJOGGED_JOGANGLE_SYMBOL
1070
   384
1040
0.7853981633974483
  0
DIMSTYLE
105
17B7
330
A
100
AcDbSymbolTableRecord
100
AcDbDimStyleTableRecord
  2
AM_ISO$3
 70
     0
  4
"
 41
2.5
 42
1.0
 43
10.0
 44
1.0
 47
0.1
 48
0.1
 73
     0
 77
     1
 78
     8
 79
     2
140
3.5
141
0.0
143
0.0393701
146
0.71
147
1.5
176
   256
177
   256
178
     2
271
     2
272
     3
274
     4
283
     0
284
     8
288
     1
289
     0
340
11
371
    -1
372
    -1
1001
ACAD_DSTYLE_DIMARC_LENGTH_SYMBOL
1070
   379
1070
     1
1001
ACAD_DSTYLE_DIMJOGGED_JOGANGLE_SYMBOL
1070
   384
1040
0.7853981633974483
  0
DIMSTYLE
105
17BA
330
A
100
AcDbSymbolTableRecord
100
AcDbDimStyleTableRecord
  2
AM_ISO$4
 70
     0
  4
"
 41
2.5
 42
1.0
 43
10.0
 44
1.0
 47
0.1
 48
0.1
 73
     0
 77
     1
 78
     8
 79
     2
140
3.5
141
0.0
143
0.0393701
146
0.71
147
1.5
176
   256
177
   256
178
     2
271
     2
272
     3
274
     4
283
     0
284
     8
288
     1
289
     0
340
11
371
    -1
372
    -1
1001
ACAD_DSTYLE_DIMARC_LENGTH_SYMBOL
1070
   379
1070
     1
1001
ACAD_DSTYLE_DIMJOGGED_JOGANGLE_SYMBOL
1070
   384
1040
0.7853981633974483
  0
DIMSTYLE
105
17BD
330
A
100
AcDbSymbolTableRecord
100
AcDbDimStyleTableRecord
  2
AM_ISO$6
 70
     0
  4
"
 41
2.5
 42
1.0
 43
10.0
 44
1.0
 47
0.1
 48
0.1
 73
     0
 74
     0
 78
     8
 79
     2
140
3.5
141
0.0
143
0.0393701
146
0.71
147
1.5
172
     1
176
   256
177
   256
178
     2
271
     2
272
     3
274
     4
283
     0
284
     8
340
11
371
    -1
372
    -1
1001
ACAD_DSTYLE_DIMARC_LENGTH_SYMBOL
1070
   379
1070
     1
1001
ACAD_DSTYLE_DIMJOGGED_JOGANGLE_SYMBOL
1070
   384
1040
0.7853981633974483
  0
DIMSTYLE
105
17C0
330
A
100
AcDbSymbolTableRecord
100
AcDbDimStyleTableRecord
  2
AM_ISO$7
 70
     0
  4
"
 41
2.5
 42
1.0
 43
10.0
 44
1.0
 47
0.1
 48
0.1
 73
     0
 74
     0
 77
     1
 78
     8
 79
     2
140
5.0
141
0.0
143
0.0393701
146
0.71
147
1.5
172
     1
176
   256
177
   256
178
     2
271
     2
272
     3
274
     4
283
     0
284
     8
340
11
371
    -1
372
    -1
1001
ACAD_DSTYLE_DIMARC_LENGTH_SYMBOL
1070
   379
1070
     1
1001
ACAD_DSTYLE_DIMJOGGED_JOGANGLE_SYMBOL
1070
   384
1040
0.7853981633974483
  0
DIMSTYLE
105
17C3
330
A
100
AcDbSymbolTableRecord
100
AcDbDimStyleTableRecord
  2
AM_ISO$SF
 70
     0
  4
"
 41
2.5
 42
1.0
 43
10.0
 44
1.0
 47
0.1
 48
0.1
 73
     0
 74
     0
 75
     1
 76
     1
 77
     1
 78
     8
 79
     2
140
3.5
141
0.0
143
0.0393701
146
0.71
147
1.5
172
     1
176
   256
177
   256
178
     2
271
     2
272
     3
274
     4
283
     0
284
     8
340
11
371
    -1
372
    -1
1001
ACAD_DSTYLE_DIMARC_LENGTH_SYMBOL
1070
   379
1070
     1
1001
ACAD_DSTYLE_DIMJOGGED_JOGANGLE_SYMBOL
1070
   384
1040
0.7853981633974483
  0
DIMSTYLE
105
17CA
330
A
100
AcDbSymbolTableRecord
100
AcDbDimStyleTableRecord
  2
AM_ISO$SH
 70
     0
  4
"
 41
2.5
 42
1.0
 43
10.0
 44
1.0
 47
0.1
 48
0.1
 73
     0
 74
     0
 75
     1
 76
     1
 77
     1
 78
     8
 79
     2
140
3.5
141
0.0
143
0.0393701
144
2.0
146
0.71
147
1.5
172
     1
173
     1
176
   256
177
   256
178
     2
271
     2
272
     3
274
     4
283
     0
284
     8
340
11
343
17C4
371
    -1
372
    -1
1001
ACAD_DSTYLE_DIMARC_LENGTH_SYMBOL
1070
   379
1070
     1
1001
ACAD_DSTYLE_DIMJOGGED_JOGANGLE_SYMBOL
1070
   384
1040
0.7853981633974483
  0
ENDTAB
  0
TABLE
  2
BLOCK_RECORD
  5
1
330
0
100
AcDbSymbolTable
 70
    45
  0
BLOCK_RECORD
  5
1F
330
1
100
AcDbSymbolTableRecord
100
AcDbBlockTableRecord
  2
*Model_Space
340
22
  0
BLOCK_RECORD
  5
1B
330
1
100
AcDbSymbolTableRecord
100
AcDbBlockTableRecord
  2
*Paper_Space
340
1E
  0
BLOCK_RECORD
  5
23
330
1
100
AcDbSymbolTableRecord
100
AcDbBlockTableRecord
  2
*Paper_Space0
340
26
  0
BLOCK_RECORD
  5
549
330
1
100
AcDbSymbolTableRecord
100
AcDbBlockTableRecord
  2
*D1
340
0
  0
BLOCK_RECORD
  5
556
330
1
100
AcDbSymbolTableRecord
100
AcDbBlockTableRecord
  2
*D2
340
0
  0
BLOCK_RECORD
  5
563
330
1
100
AcDbSymbolTableRecord
100
AcDbBlockTableRecord
  2
*D3
340
0
  0
BLOCK_RECORD
  5
570
330
1
100
AcDbSymbolTableRecord
100
AcDbBlockTableRecord
  2
*D4
340
0
  0
BLOCK_RECORD
  5
57D
330
1
100
AcDbSymbolTableRecord
100
AcDbBlockTableRecord
  2
*D5
340
0
  0
BLOCK_RECORD
  5
58A
330
1
100
AcDbSymbolTableRecord
100
AcDbBlockTableRecord
  2
*D6
340
0
  0
BLOCK_RECORD
  5
597
330
1
100
AcDbSymbolTableRecord
100
AcDbBlockTableRecord
  2
*D7
340
0
  0
BLOCK_RECORD
  5
5B1
330
1
100
AcDbSymbolTableRecord
100
AcDbBlockTableRecord
  2
*D8
340
0
  0
BLOCK_RECORD
  5
5CB
330
1
100
AcDbSymbolTableRecord
100
AcDbBlockTableRecord
  2
*D9
340
0
  0
BLOCK_RECORD
  5
5E5
330
1
100
AcDbSymbolTableRecord
100
AcDbBlockTableRecord
  2
*D10
340
0
  0
BLOCK_RECORD
  5
5F2
330
1
100
AcDbSymbolTableRecord
100
AcDbBlockTableRecord
  2
*D11
340
0
  0
BLOCK_RECORD
  5
5FF
330
1
100
AcDbSymbolTableRecord
100
AcDbBlockTableRecord
  2
*D12
340
0
  0
BLOCK_RECORD
  5
60C
330
1
100
AcDbSymbolTableRecord
100
AcDbBlockTableRecord
  2
*D13
340
0
  0
BLOCK_RECORD
  5
619
330
1
100
AcDbSymbolTableRecord
100
AcDbBlockTableRecord
  2
*D14
340
0
  0
BLOCK_RECORD
  5
640
330
1
100
AcDbSymbolTableRecord
100
AcDbBlockTableRecord
  2
*D15
340
0
  0
BLOCK_RECORD
  5
6A8
330
1
100
AcDbSymbolTableRecord
100
AcDbBlockTableRecord
  2
*D16
340
0
  0
BLOCK_RECORD
  5
6B5
330
1
100
AcDbSymbolTableRecord
100
AcDbBlockTableRecord
  2
*D17
340
0
  0
BLOCK_RECORD
  5
6CF
330
1
100
AcDbSymbolTableRecord
100
AcDbBlockTableRecord
  2
*D18
340
0
  0
BLOCK_RECORD
  5
9DF
330
1
100
AcDbSymbolTableRecord
100
AcDbBlockTableRecord
  2
*D19
340
0
  0
BLOCK_RECORD
  5
A10
330
1
100
AcDbSymbolTableRecord
100
AcDbBlockTableRecord
  2
*D20
340
0
  0
BLOCK_RECORD
  5
C07
330
1
100
AcDbSymbolTableRecord
100
AcDbBlockTableRecord
  2
*D21
340
0
  0
BLOCK_RECORD
  5
C5F
330
1
100
AcDbSymbolTableRecord
100
AcDbBlockTableRecord
  2
*D22
340
0
  0
BLOCK_RECORD
  5
C86
330
1
100
AcDbSymbolTableRecord
100
AcDbBlockTableRecord
  2
*D23
340
0
  0
BLOCK_RECORD
  5
CA0
330
1
100
AcDbSymbolTableRecord
100
AcDbBlockTableRecord
  2
*D24
340
0
  0
BLOCK_RECORD
  5
DAD
330
1
100
AcDbSymbolTableRecord
100
AcDbBlockTableRecord
  2
*D25
340
0
  0
BLOCK_RECORD
  5
DDE
330
1
100
AcDbSymbolTableRecord
100
AcDbBlockTableRecord
  2
*D26
340
0
  0
BLOCK_RECORD
  5
DEB
330
1
100
AcDbSymbolTableRecord
100
AcDbBlockTableRecord
  2
*D27
340
0
  0
BLOCK_RECORD
  5
DF8
330
1
100
AcDbSymbolTableRecord
100
AcDbBlockTableRecord
  2
*D28
340
0
  0
BLOCK_RECORD
  5
E1F
330
1
100
AcDbSymbolTableRecord
100
AcDbBlockTableRecord
  2
*D29
340
0
  0
BLOCK_RECORD
  5
E2C
330
1
100
AcDbSymbolTableRecord
100
AcDbBlockTableRecord
  2
*D30
340
0
  0
BLOCK_RECORD
  5
F24
330
1
100
AcDbSymbolTableRecord
100
AcDbBlockTableRecord
  2
*D31
340
0
  0
BLOCK_RECORD
  5
F51
330
1
100
AcDbSymbolTableRecord
100
AcDbBlockTableRecord
  2
*D32
340
0
  0
BLOCK_RECORD
  5
F7A
330
1
100
AcDbSymbolTableRecord
100
AcDbBlockTableRecord
  2
*D33
340
0
  0
BLOCK_RECORD
  5
102A
330
1
100
AcDbSymbolTableRecord
100
AcDbBlockTableRecord
  2
*D36
340
0
  0
BLOCK_RECORD
  5
1037
330
1
100
AcDbSymbolTableRecord
100
AcDbBlockTableRecord
  2
*D37
340
0
  0
BLOCK_RECORD
  5
105E
330
1
100
AcDbSymbolTableRecord
100
AcDbBlockTableRecord
  2
*D38
340
0
  0
BLOCK_RECORD
  5
15F8
330
1
100
AcDbSymbolTableRecord
100
AcDbBlockTableRecord
  2
*D39
340
0
  0
BLOCK_RECORD
  5
1605
330
1
100
AcDbSymbolTableRecord
100
AcDbBlockTableRecord
  2
*D40
340
0
  0
BLOCK_RECORD
  5
1612
330
1
100
AcDbSymbolTableRecord
100
AcDbBlockTableRecord
  2
*D41
340
0
  0
BLOCK_RECORD
  5
161F
330
1
100
AcDbSymbolTableRecord
100
AcDbBlockTableRecord
  2
*D42
340
0
  0
BLOCK_RECORD
  5
17C4
330
1
100
AcDbSymbolTableRecord
100
AcDbBlockTableRecord
  2
GENAXEH
340
0
  0
ENDTAB
  0
ENDSEC
  0
SECTION
  2
BLOCKS
  0
BLOCK
  5
20
330
1F
100
AcDbEntity
  8
0
100
AcDbBlockBegin
  2
*Model_Space
 70
     0
 10
0.0
 20
0.0
 30
0.0
  3
*Model_Space
  1

  0
ENDBLK
  5
21
330
1F
100
AcDbEntity
  8
0
100
AcDbBlockEnd
  0
BLOCK
  5
1C
330
1B
100
AcDbEntity
 67
     1
  8
0
100
AcDbBlockBegin
  2
*Paper_Space
 70
     0
 10
0.0
 20
0.0
 30
0.0
  3
*Paper_Space
  1

  0
ENDBLK
  5
1D
330
1B
100
AcDbEntity
 67
     1
  8
0
100
AcDbBlockEnd
  0
BLOCK
  5
24
330
23
100
AcDbEntity
 67
     1
  8
0
100
AcDbBlockBegin
  2
*Paper_Space0
 70
     0
 10
0.0
 20
0.0
 30
0.0
  3
*Paper_Space0
  1

  0
ENDBLK
  5
25
330
23
100
AcDbEntity
 67
     1
  8
0
100
AcDbBlockEnd
  0
BLOCK
  5
553
330
549
100
AcDbEntity
  8
0
 62
     5
370
     5
100
AcDbBlockBegin
  2
*D1
 70
     1
 10
0.0
 20
0.0
 30
0.0
  3
*D1
  1

  0
LINE
  5
1596
330
549
100
AcDbEntity
  8
Quotature
  6
PUNTO2
 62
     0
370
    -2
100
AcDbLine
 10
766.6167382254683
 20
359.2082876977115
 30
0.0
 11
738.3975527683932
 21
359.2082876977115
 31
0.0
  0
LINE
  5
1597
330
549
100
AcDbEntity
  8
Quotature
  6
PUNTO2
 62
     0
370
    -2
100
AcDbLine
 10
766.6167382254683
 20
259.2082876977115
 30
0.0
 11
738.3975527683932
 21
259.2082876977115
 31
0.0
  0
LINE
  5
1598
330
549
100
AcDbEntity
  8
Quotature
  6
PUNTO2
 62
     0
370
    -2
100
AcDbLine
 10
739.6475527683932
 20
356.7082876977115
 30
0.0
 11
739.6475527683932
 21
261.7082876977115
 31
0.0
  0
SOLID
  5
1599
330
549
100
AcDbEntity
  8
Quotature
  6
PUNTO2
 62
     0
370
     9
100
AcDbTrace
 10
739.2308861017266
 20
356.7082876977115
 30
0.0
 11
740.0642194350598
 21
356.7082876977115
 31
0.0
 12
739.6475527683932
 22
359.2082876977115
 32
0.0
 13
739.6475527683932
 23
359.2082876977115
 33
0.0
  0
SOLID
  5
159A
330
549
100
AcDbEntity
  8
Quotature
  6
PUNTO2
 62
     0
370
     9
100
AcDbTrace
 10
739.2308861017266
 20
261.7082876977115
 30
0.0
 11
740.0642194350598
 21
261.7082876977115
 31
0.0
 12
739.6475527683932
 22
259.2082876977115
 32
0.0
 13
739.6475527683932
 23
259.2082876977115
 33
0.0
  0
MTEXT
  5
159B
330
549
100
AcDbEntity
  8
Quotature
  6
PUNTO2
 62
     0
370
    13
100
AcDbMText
 10
733.022552768393
 20
309.2082876977116
 30
0.0
 40
12.0
 41
0.0
 71
     5
 72
     1
  1
100
 11
0.0000000000000001
 21
1.0
 31
0.0
 73
     1
 44
1.0
1001
ACAD
1000
MTEXTBEGIN
1070
    73
1070
     1
1070
    44
1040
1.0
1070
    74
1070
     0
1000
MTEXTEND
  0
POINT
  5
159C
330
549
100
AcDbEntity
  8
Defpoints
  6
PUNTO2
 62
     0
370
     9
100
AcDbPoint
 10
767.2417382254683
 20
359.2082876977115
 30
0.0
  0
POINT
  5
159D
330
549
100
AcDbEntity
  8
Defpoints
  6
PUNTO2
 62
     0
370
     9
100
AcDbPoint
 10
767.2417382254683
 20
259.2082876977115
 30
0.0
  0
POINT
  5
159E
330
549
100
AcDbEntity
  8
Defpoints
  6
PUNTO2
 62
     0
370
     9
100
AcDbPoint
 10
739.6475527683932
 20
259.2082876977115
 30
0.0
  0
ENDBLK
  5
554
330
549
100
AcDbEntity
  8
0
 62
     5
370
     5
100
AcDbBlockEnd
  0
BLOCK
  5
560
330
556
100
AcDbEntity
  8
0
 62
     5
370
     5
100
AcDbBlockBegin
  2
*D2
 70
     1
 10
0.0
 20
0.0
 30
0.0
  3
*D2
  1

  0
LINE
  5
15BA
330
556
100
AcDbEntity
  8
Quotature
  6
PUNTO2
 62
     0
370
    -2
100
AcDbLine
 10
817.2417382254684
 20
508.5832876977114
 30
0.0
 11
817.2417382254684
 21
450.8876003757039
 31
0.0
  0
LINE
  5
15BB
330
556
100
AcDbEntity
  8
Quotature
  6
PUNTO2
 62
     0
370
    -2
100
AcDbLine
 10
967.2417382254684
 20
508.5832876977114
 30
0.0
 11
967.2417382254684
 21
450.8876003757039
 31
0.0
  0
LINE
  5
15BC
330
556
100
AcDbEntity
  8
Quotature
  6
PUNTO2
 62
     0
370
    -2
100
AcDbLine
 10
819.7417382254682
 20
452.1376003757039
 30
0.0
 11
964.7417382254683
 21
452.1376003757039
 31
0.0
  0
SOLID
  5
15BD
330
556
100
AcDbEntity
  8
Quotature
  6
PUNTO2
 62
     0
370
     9
100
AcDbTrace
 10
819.7417382254682
 20
452.5542670423705
 30
0.0
 11
819.7417382254682
 21
451.7209337090371
 31
0.0
 12
817.2417382254684
 22
452.1376003757039
 32
0.0
 13
817.2417382254684
 23
452.1376003757039
 33
0.0
  0
SOLID
  5
15BE
330
556
100
AcDbEntity
  8
Quotature
  6
PUNTO2
 62
     0
370
     9
100
AcDbTrace
 10
964.7417382254683
 20
452.5542670423705
 30
0.0
 11
964.7417382254683
 21
451.7209337090371
 31
0.0
 12
967.2417382254684
 22
452.1376003757039
 32
0.0
 13
967.2417382254684
 23
452.1376003757039
 33
0.0
  0
MTEXT
  5
15BF
330
556
100
AcDbEntity
  8
Quotature
  6
PUNTO2
 62
     0
370
    13
100
AcDbMText
 10
892.2417382254684
 20
458.7626003757038
 30
0.0
 40
12.0
 41
0.0
 71
     5
 72
     1
  1
150
 73
     1
 44
1.0
1001
ACAD
1000
MTEXTBEGIN
1070
    73
1070
     1
1070
    44
1040
1.0
1070
    74
1070
     0
1000
MTEXTEND
  0
POINT
  5
15C0
330
556
100
AcDbEntity
  8
Defpoints
  6
PUNTO2
 62
     0
370
     9
100
AcDbPoint
 10
817.2417382254684
 20
509.2082876977115
 30
0.0
  0
POINT
  5
15C1
330
556
100
AcDbEntity
  8
Defpoints
  6
PUNTO2
 62
     0
370
     9
100
AcDbPoint
 10
967.2417382254684
 20
509.2082876977115
 30
0.0
  0
POINT
  5
15C2
330
556
100
AcDbEntity
  8
Defpoints
  6
PUNTO2
 62
     0
370
     9
100
AcDbPoint
 10
967.2417382254684
 20
452.1376003757039
 30
0.0
  0
ENDBLK
  5
561
330
556
100
AcDbEntity
  8
0
 62
     5
370
     5
100
AcDbBlockEnd
  0
BLOCK
  5
56D
330
563
100
AcDbEntity
  8
0
 62
     5
370
     5
100
AcDbBlockBegin
  2
*D3
 70
     1
 10
0.0
 20
0.0
 30
0.0
  3
*D3
  1

  0
LINE
  5
1557
330
563
100
AcDbEntity
  8
Quotature
  6
PUNTO2
 62
     0
370
    -2
100
AcDbLine
 10
816.6167382254682
 20
509.2082876977115
 30
0.0
 11
797.8905606584663
 21
509.2082876977115
 31
0.0
  0
LINE
  5
1558
330
563
100
AcDbEntity
  8
Quotature
  6
PUNTO2
 62
     0
370
    -2
100
AcDbLine
 10
816.6167382254682
 20
359.2082876977115
 30
0.0
 11
797.8905606584663
 21
359.2082876977115
 31
0.0
  0
LINE
  5
1559
330
563
100
AcDbEntity
  8
Quotature
  6
PUNTO2
 62
     0
370
    -2
100
AcDbLine
 10
799.1405606584663
 20
506.7082876977115
 30
0.0
 11
799.1405606584663
 21
361.7082876977115
 31
0.0
  0
SOLID
  5
155A
330
563
100
AcDbEntity
  8
Quotature
  6
PUNTO2
 62
     0
370
     9
100
AcDbTrace
 10
798.7238939917997
 20
506.7082876977115
 30
0.0
 11
799.557227325133
 21
506.7082876977115
 31
0.0
 12
799.1405606584663
 22
509.2082876977115
 32
0.0
 13
799.1405606584663
 23
509.2082876977115
 33
0.0
  0
SOLID
  5
155B
330
563
100
AcDbEntity
  8
Quotature
  6
PUNTO2
 62
     0
370
     9
100
AcDbTrace
 10
798.7238939917997
 20
361.7082876977115
 30
0.0
 11
799.557227325133
 21
361.7082876977115
 31
0.0
 12
799.1405606584663
 22
359.2082876977115
 32
0.0
 13
799.1405606584663
 23
359.2082876977115
 33
0.0
  0
MTEXT
  5
155C
330
563
100
AcDbEntity
  8
Quotature
  6
PUNTO2
 62
     0
370
    13
100
AcDbMText
 10
792.5155606584662
 20
434.2082876977116
 30
0.0
 40
12.0
 41
0.0
 71
     5
 72
     1
  1
150
 11
0.0000000000000001
 21
1.0
 31
0.0
 73
     1
 44
1.0
1001
ACAD
1000
MTEXTBEGIN
1070
    73
1070
     1
1070
    44
1040
1.0
1070
    74
1070
     0
1000
MTEXTEND
  0
POINT
  5
155D
330
563
100
AcDbEntity
  8
Defpoints
  6
PUNTO2
 62
     0
370
     9
100
AcDbPoint
 10
817.2417382254684
 20
509.2082876977115
 30
0.0
  0
POINT
  5
155E
330
563
100
AcDbEntity
  8
Defpoints
  6
PUNTO2
 62
     0
370
     9
100
AcDbPoint
 10
817.2417382254684
 20
359.2082876977115
 30
0.0
  0
POINT
  5
155F
330
563
100
AcDbEntity
  8
Defpoints
  6
PUNTO2
 62
     0
370
     9
100
AcDbPoint
 10
799.1405606584663
 20
359.2082876977115
 30
0.0
  0
ENDBLK
  5
56E
330
563
100
AcDbEntity
  8
0
 62
     5
370
     5
100
AcDbBlockEnd
  0
BLOCK
  5
57A
330
570
100
AcDbEntity
  8
0
 62
     5
370
     5
100
AcDbBlockBegin
  2
*D4
 70
     1
 10
0.0
 20
0.0
 30
0.0
  3
*D4
  1

  0
LINE
  5
159F
330
570
100
AcDbEntity
  8
Quotature
  6
PUNTO2
 62
     0
370
    -2
100
AcDbLine
 10
1017.241738225468
 20
359.8332876977115
 30
0.0
 11
1017.241738225468
 21
372.4183348197687
 31
0.0
  0
LINE
  5
15A0
330
570
100
AcDbEntity
  8
Quotature
  6
PUNTO2
 62
     0
370
    -2
100
AcDbLine
 10
967.2417382254684
 20
359.8332876977115
 30
0.0
 11
967.2417382254684
 21
372.4183348197687
 31
0.0
  0
LINE
  5
15A1
330
570
100
AcDbEntity
  8
Quotature
  6
PUNTO2
 62
     0
370
    -2
100
AcDbLine
 10
1014.741738225468
 20
371.1683348197687
 30
0.0
 11
969.7417382254682
 21
371.1683348197687
 31
0.0
  0
SOLID
  5
15A2
330
570
100
AcDbEntity
  8
Quotature
  6
PUNTO2
 62
     0
370
     9
100
AcDbTrace
 10
1014.741738225468
 20
371.5850014864354
 30
0.0
 11
1014.741738225468
 21
370.751668153102
 31
0.0
 12
1017.241738225468
 22
371.1683348197687
 32
0.0
 13
1017.241738225468
 23
371.1683348197687
 33
0.0
  0
SOLID
  5
15A3
330
570
100
AcDbEntity
  8
Quotature
  6
PUNTO2
 62
     0
370
     9
100
AcDbTrace
 10
969.7417382254682
 20
371.5850014864354
 30
0.0
 11
969.7417382254682
 21
370.751668153102
 31
0.0
 12
967.2417382254684
 22
371.1683348197687
 32
0.0
 13
967.2417382254684
 23
371.1683348197687
 33
0.0
  0
MTEXT
  5
15A4
330
570
100
AcDbEntity
  8
Quotature
  6
PUNTO2
 62
     0
370
    13
100
AcDbMText
 10
992.2417382254684
 20
377.7933348197687
 30
0.0
 40
12.0
 41
0.0
 71
     5
 72
     1
  1
50
 73
     1
 44
1.0
1001
ACAD
1000
MTEXTBEGIN
1070
    73
1070
     1
1070
    44
1040
1.0
1070
    74
1070
     0
1000
MTEXTEND
  0
POINT
  5
15A5
330
570
100
AcDbEntity
  8
Defpoints
  6
PUNTO2
 62
     0
370
     9
100
AcDbPoint
 10
1017.241738225468
 20
359.2082876977115
 30
0.0
  0
POINT
  5
15A6
330
570
100
AcDbEntity
  8
Defpoints
  6
PUNTO2
 62
     0
370
     9
100
AcDbPoint
 10
967.2417382254684
 20
359.2082876977115
 30
0.0
  0
POINT
  5
15A7
330
570
100
AcDbEntity
  8
Defpoints
  6
PUNTO2
 62
     0
370
     9
100
AcDbPoint
 10
967.2417382254684
 20
371.1683348197687
 30
0.0
  0
ENDBLK
  5
57B
330
570
100
AcDbEntity
  8
0
 62
     5
370
     5
100
AcDbBlockEnd
  0
BLOCK
  5
587
330
57D
100
AcDbEntity
  8
0
 62
     5
370
     5
100
AcDbBlockBegin
  2
*D5
 70
     1
 10
0.0
 20
0.0
 30
0.0
  3
*D5
  1

  0
LINE
  5
158D
330
57D
100
AcDbEntity
  8
Quotature
  6
PUNTO2
 62
     0
370
    -2
100
AcDbLine
 10
1017.241738225468
 20
258.5832876977115
 30
0.0
 11
1017.241738225468
 21
237.7336030087757
 31
0.0
  0
LINE
  5
158E
330
57D
100
AcDbEntity
  8
Quotature
  6
PUNTO2
 62
     0
370
    -2
100
AcDbLine
 10
767.2417382254683
 20
258.5832876977115
 30
0.0
 11
767.2417382254683
 21
237.7336030087757
 31
0.0
  0
LINE
  5
158F
330
57D
100
AcDbEntity
  8
Quotature
  6
PUNTO2
 62
     0
370
    -2
100
AcDbLine
 10
1014.741738225468
 20
238.9836030087757
 30
0.0
 11
769.7417382254683
 21
238.9836030087757
 31
0.0
  0
SOLID
  5
1590
330
57D
100
AcDbEntity
  8
Quotature
  6
PUNTO2
 62
     0
370
     9
100
AcDbTrace
 10
1014.741738225468
 20
239.4002696754424
 30
0.0
 11
1014.741738225468
 21
238.5669363421091
 31
0.0
 12
1017.241738225468
 22
238.9836030087757
 32
0.0
 13
1017.241738225468
 23
238.9836030087757
 33
0.0
  0
SOLID
  5
1591
330
57D
100
AcDbEntity
  8
Quotature
  6
PUNTO2
 62
     0
370
     9
100
AcDbTrace
 10
769.7417382254683
 20
239.4002696754424
 30
0.0
 11
769.7417382254683
 21
238.5669363421091
 31
0.0
 12
767.2417382254683
 22
238.9836030087757
 32
0.0
 13
767.2417382254683
 23
238.9836030087757
 33
0.0
  0
MTEXT
  5
1592
330
57D
100
AcDbEntity
  8
Quotature
  6
PUNTO2
 62
     0
370
    13
100
AcDbMText
 10
892.2417382254684
 20
245.6086030087757
 30
0.0
 40
12.0
 41
0.0
 71
     5
 72
     1
  1
250
 73
     1
 44
1.0
1001
ACAD
1000
MTEXTBEGIN
1070
    73
1070
     1
1070
    44
1040
1.0
1070
    74
1070
     0
1000
MTEXTEND
  0
POINT
  5
1593
330
57D
100
AcDbEntity
  8
Defpoints
  6
PUNTO2
 62
     0
370
     9
100
AcDbPoint
 10
1017.241738225468
 20
259.2082876977115
 30
0.0
  0
POINT
  5
1594
330
57D
100
AcDbEntity
  8
Defpoints
  6
PUNTO2
 62
     0
370
     9
100
AcDbPoint
 10
767.2417382254683
 20
259.2082876977115
 30
0.0
  0
POINT
  5
1595
330
57D
100
AcDbEntity
  8
Defpoints
  6
PUNTO2
 62
     0
370
     9
100
AcDbPoint
 10
767.2417382254683
 20
238.9836030087757
 30
0.0
  0
ENDBLK
  5
588
330
57D
100
AcDbEntity
  8
0
 62
     5
370
     5
100
AcDbBlockEnd
  0
BLOCK
  5
594
330
58A
100
AcDbEntity
  8
0
 62
     5
370
     5
100
AcDbBlockBegin
  2
*D6
 70
     1
 10
0.0
 20
0.0
 30
0.0
  3
*D6
  1

  0
LINE
  5
154E
330
58A
100
AcDbEntity
  8
Quotature
  6
PUNTO2
 62
     0
370
    -2
100
AcDbLine
 10
967.8667382254683
 20
509.2082876977115
 30
0.0
 11
1031.782462117903
 21
509.2082876977115
 31
0.0
  0
LINE
  5
154F
330
58A
100
AcDbEntity
  8
Quotature
  6
PUNTO2
 62
     0
370
    -2
100
AcDbLine
 10
1017.866738225468
 20
259.2082876977115
 30
0.0
 11
1031.782462117903
 21
259.2082876977115
 31
0.0
  0
LINE
  5
1550
330
58A
100
AcDbEntity
  8
Quotature
  6
PUNTO2
 62
     0
370
    -2
100
AcDbLine
 10
1030.532462117903
 20
506.7082876977115
 30
0.0
 11
1030.532462117903
 21
261.7082876977115
 31
0.0
  0
SOLID
  5
1551
330
58A
100
AcDbEntity
  8
Quotature
  6
PUNTO2
 62
     0
370
     9
100
AcDbTrace
 10
1030.115795451236
 20
506.7082876977115
 30
0.0
 11
1030.94912878457
 21
506.7082876977115
 31
0.0
 12
1030.532462117903
 22
509.2082876977115
 32
0.0
 13
1030.532462117903
 23
509.2082876977115
 33
0.0
  0
SOLID
  5
1552
330
58A
100
AcDbEntity
  8
Quotature
  6
PUNTO2
 62
     0
370
     9
100
AcDbTrace
 10
1030.115795451236
 20
261.7082876977115
 30
0.0
 11
1030.94912878457
 21
261.7082876977115
 31
0.0
 12
1030.532462117903
 22
259.2082876977115
 32
0.0
 13
1030.532462117903
 23
259.2082876977115
 33
0.0
  0
MTEXT
  5
1553
330
58A
100
AcDbEntity
  8
Quotature
  6
PUNTO2
 62
     0
370
    13
100
AcDbMText
 10
1023.907462117903
 20
384.2082876977117
 30
0.0
 40
12.0
 41
0.0
 71
     5
 72
     1
  1
250
 11
0.0000000000000001
 21
1.0
 31
0.0
 73
     1
 44
1.0
1001
ACAD
1000
MTEXTBEGIN
1070
    73
1070
     1
1070
    44
1040
1.0
1070
    74
1070
     0
1000
MTEXTEND
  0
POINT
  5
1554
330
58A
100
AcDbEntity
  8
Defpoints
  6
PUNTO2
 62
     0
370
     9
100
AcDbPoint
 10
967.2417382254684
 20
509.2082876977115
 30
0.0
  0
POINT
  5
1555
330
58A
100
AcDbEntity
  8
Defpoints
  6
PUNTO2
 62
     0
370
     9
100
AcDbPoint
 10
1017.241738225468
 20
259.2082876977115
 30
0.0
  0
POINT
  5
1556
330
58A
100
AcDbEntity
  8
Defpoints
  6
PUNTO2
 62
     0
370
     9
100
AcDbPoint
 10
1030.532462117903
 20
259.2082876977115
 30
0.0
  0
ENDBLK
  5
595
330
58A
100
AcDbEntity
  8
0
 62
     5
370
     5
100
AcDbBlockEnd
  0
BLOCK
  5
5A1
330
597
100
AcDbEntity
  8
0
 62
     5
370
     5
100
AcDbBlockBegin
  2
*D7
 70
     1
 10
0.0
 20
0.0
 30
0.0
  3
*D7
  1

  0
LINE
  5
16A9
330
597
100
AcDbEntity
  8
Quotature
  6
PUNTO2
 62
     0
370
    -2
100
AcDbLine
 10
817.3712261351868
 20
826.7032256650997
 30
0.0
 11
817.3712261351868
 21
841.4091692808201
 31
0.0
  0
LINE
  5
16AA
330
597
100
AcDbEntity
  8
Quotature
  6
PUNTO2
 62
     0
370
    -2
100
AcDbLine
 10
857.3712261351866
 20
826.7032256650997
 30
0.0
 11
857.3712261351866
 21
841.4091692808201
 31
0.0
  0
LINE
  5
16AB
330
597
100
AcDbEntity
  8
Quotature
  6
PUNTO2
 62
     0
370
    -2
100
AcDbLine
 10
819.8712261351868
 20
840.1591692808201
 30
0.0
 11
854.8712261351866
 21
840.1591692808201
 31
0.0
  0
SOLID
  5
16AC
330
597
100
AcDbEntity
  8
Quotature
  6
PUNTO2
 62
     0
370
     9
100
AcDbTrace
 10
819.8712261351868
 20
840.5758359474868
 30
0.0
 11
819.8712261351868
 21
839.7425026141535
 31
0.0
 12
817.3712261351868
 22
840.1591692808201
 32
0.0
 13
817.3712261351868
 23
840.1591692808201
 33
0.0
  0
SOLID
  5
16AD
330
597
100
AcDbEntity
  8
Quotature
  6
PUNTO2
 62
     0
370
     9
100
AcDbTrace
 10
854.8712261351866
 20
840.5758359474868
 30
0.0
 11
854.8712261351866
 21
839.7425026141535
 31
0.0
 12
857.3712261351866
 22
840.1591692808201
 32
0.0
 13
857.3712261351866
 23
840.1591692808201
 33
0.0
  0
MTEXT
  5
16AE
330
597
100
AcDbEntity
  8
Quotature
  6
PUNTO2
 62
     0
370
     9
100
AcDbMText
 10
837.3712261351867
 20
846.7841692808201
 30
0.0
 40
12.0
 41
0.0
 71
     5
 72
     1
  1
40
 73
     1
 44
1.0
1001
ACAD
1000
MTEXTBEGIN
1070
    73
1070
     1
1070
    44
1040
1.0
1070
    74
1070
     0
1000
MTEXTEND
  0
POINT
  5
16AF
330
597
100
AcDbEntity
  8
Defpoints
  6
PUNTO2
 62
     0
370
     9
100
AcDbPoint
 10
817.3712261351868
 20
826.0782256650998
 30
0.0
  0
POINT
  5
16B0
330
597
100
AcDbEntity
  8
Defpoints
  6
PUNTO2
 62
     0
370
     9
100
AcDbPoint
 10
857.3712261351866
 20
826.0782256650998
 30
0.0
  0
POINT
  5
16B1
330
597
100
AcDbEntity
  8
Defpoints
  6
PUNTO2
 62
     0
370
     9
100
AcDbPoint
 10
857.3712261351866
 20
840.1591692808201
 30
0.0
  0
ENDBLK
  5
5A2
330
597
100
AcDbEntity
  8
0
 62
     5
370
     5
100
AcDbBlockEnd
  0
BLOCK
  5
5BB
330
5B1
100
AcDbEntity
  8
0
 62
     5
370
     5
100
AcDbBlockBegin
  2
*D8
 70
     1
 10
0.0
 20
0.0
 30
0.0
  3
*D8
  1

  0
LINE
  5
15C3
330
5B1
100
AcDbEntity
  8
Quotature
  6
PUNTO2
 62
     0
370
    -2
100
AcDbLine
 10
1257.6887644387
 20
521.0849578023982
 30
0.0
 11
1257.6887644387
 21
527.7874601104224
 31
0.0
  0
LINE
  5
15C4
330
5B1
100
AcDbEntity
  8
Quotature
  6
PUNTO2
 62
     0
370
    -2
100
AcDbLine
 10
1407.6887644387
 20
521.0849578023982
 30
0.0
 11
1407.6887644387
 21
527.7874601104224
 31
0.0
  0
LINE
  5
15C5
330
5B1
100
AcDbEntity
  8
Quotature
  6
PUNTO2
 62
     0
370
    -2
100
AcDbLine
 10
1260.1887644387
 20
526.5374601104224
 30
0.0
 11
1405.1887644387
 21
526.5374601104224
 31
0.0
  0
SOLID
  5
15C6
330
5B1
100
AcDbEntity
  8
Quotature
  6
PUNTO2
 62
     0
370
     9
100
AcDbTrace
 10
1260.1887644387
 20
526.9541267770891
 30
0.0
 11
1260.1887644387
 21
526.1207934437558
 31
0.0
 12
1257.6887644387
 22
526.5374601104224
 32
0.0
 13
1257.6887644387
 23
526.5374601104224
 33
0.0
  0
SOLID
  5
15C7
330
5B1
100
AcDbEntity
  8
Quotature
  6
PUNTO2
 62
     0
370
     9
100
AcDbTrace
 10
1405.1887644387
 20
526.9541267770891
 30
0.0
 11
1405.1887644387
 21
526.1207934437558
 31
0.0
 12
1407.6887644387
 22
526.5374601104224
 32
0.0
 13
1407.6887644387
 23
526.5374601104224
 33
0.0
  0
MTEXT
  5
15C8
330
5B1
100
AcDbEntity
  8
Quotature
  6
PUNTO2
 62
     0
370
    13
100
AcDbMText
 10
1332.6887644387
 20
533.1624601104224
 30
0.0
 40
12.0
 41
0.0
 71
     5
 72
     1
  1
150
 73
     1
 44
1.0
1001
ACAD
1000
MTEXTBEGIN
1070
    73
1070
     1
1070
    44
1040
1.0
1070
    74
1070
     0
1000
MTEXTEND
  0
POINT
  5
15C9
330
5B1
100
AcDbEntity
  8
Defpoints
  6
PUNTO2
 62
     0
370
     9
100
AcDbPoint
 10
1257.6887644387
 20
520.4599578023983
 30
0.0
  0
POINT
  5
15CA
330
5B1
100
AcDbEntity
  8
Defpoints
  6
PUNTO2
 62
     0
370
     9
100
AcDbPoint
 10
1407.6887644387
 20
520.4599578023983
 30
0.0
  0
POINT
  5
15CB
330
5B1
100
AcDbEntity
  8
Defpoints
  6
PUNTO2
 62
     0
370
     9
100
AcDbPoint
 10
1407.6887644387
 20
526.5374601104224
 30
0.0
  0
ENDBLK
  5
5BC
330
5B1
100
AcDbEntity
  8
0
 62
     5
370
     5
100
AcDbBlockEnd
  0
BLOCK
  5
5D5
330
5CB
100
AcDbEntity
  8
0
 62
     5
370
     5
100
AcDbBlockBegin
  2
*D9
 70
     1
 10
0.0
 20
0.0
 30
0.0
  3
*D9
  1

  0
LINE
  5
1545
330
5CB
100
AcDbEntity
  8
Quotature
  6
PUNTO2
 62
     0
370
    -2
100
AcDbLine
 10
1408.3137644387
 20
270.4599578023983
 30
0.0
 11
1420.086126764175
 21
270.4599578023983
 31
0.0
  0
LINE
  5
1546
330
5CB
100
AcDbEntity
  8
Quotature
  6
PUNTO2
 62
     0
370
    -2
100
AcDbLine
 10
1408.3137644387
 20
520.4599578023983
 30
0.0
 11
1420.086126764175
 21
520.4599578023983
 31
0.0
  0
LINE
  5
1547
330
5CB
100
AcDbEntity
  8
Quotature
  6
PUNTO2
 62
     0
370
    -2
100
AcDbLine
 10
1418.836126764175
 20
272.9599578023983
 30
0.0
 11
1418.836126764175
 21
517.9599578023982
 31
0.0
  0
SOLID
  5
1548
330
5CB
100
AcDbEntity
  8
Quotature
  6
PUNTO2
 62
     0
370
     9
100
AcDbTrace
 10
1418.419460097508
 20
272.9599578023983
 30
0.0
 11
1419.252793430841
 21
272.9599578023983
 31
0.0
 12
1418.836126764175
 22
270.4599578023983
 32
0.0
 13
1418.836126764175
 23
270.4599578023983
 33
0.0
  0
SOLID
  5
1549
330
5CB
100
AcDbEntity
  8
Quotature
  6
PUNTO2
 62
     0
370
     9
100
AcDbTrace
 10
1418.419460097508
 20
517.9599578023982
 30
0.0
 11
1419.252793430842
 21
517.9599578023982
 31
0.0
 12
1418.836126764175
 22
520.4599578023983
 32
0.0
 13
1418.836126764175
 23
520.4599578023983
 33
0.0
  0
MTEXT
  5
154A
330
5CB
100
AcDbEntity
  8
Quotature
  6
PUNTO2
 62
     0
370
    13
100
AcDbMText
 10
1412.211126764175
 20
395.4599578023985
 30
0.0
 40
12.0
 41
0.0
 71
     5
 72
     1
  1
250
 11
0.0000000000000001
 21
1.0
 31
0.0
 73
     1
 44
1.0
1001
ACAD
1000
MTEXTBEGIN
1070
    73
1070
     1
1070
    44
1040
1.0
1070
    74
1070
     0
1000
MTEXTEND
  0
POINT
  5
154B
330
5CB
100
AcDbEntity
  8
Defpoints
  6
PUNTO2
 62
     0
370
     9
100
AcDbPoint
 10
1407.6887644387
 20
270.4599578023983
 30
0.0
  0
POINT
  5
154C
330
5CB
100
AcDbEntity
  8
Defpoints
  6
PUNTO2
 62
     0
370
     9
100
AcDbPoint
 10
1407.6887644387
 20
520.4599578023983
 30
0.0
  0
POINT
  5
154D
330
5CB
100
AcDbEntity
  8
Defpoints
  6
PUNTO2
 62
     0
370
     9
100
AcDbPoint
 10
1418.836126764175
 20
520.4599578023983
 30
0.0
  0
ENDBLK
  5
5D6
330
5CB
100
AcDbEntity
  8
0
 62
     5
370
     5
100
AcDbBlockEnd
  0
BLOCK
  5
5EF
330
5E5
100
AcDbEntity
  8
0
 62
     5
370
     5
100
AcDbBlockBegin
  2
*D10
 70
     1
 10
0.0
 20
0.0
 30
0.0
  3
*D10
  1

  0
LINE
  5
15B1
330
5E5
100
AcDbEntity
  8
Quotature
  6
PUNTO2
 62
     0
370
    -2
100
AcDbLine
 10
677.5640746303281
 20
690.0158447998293
 30
0.0
 11
694.1806601963319
 21
690.0158447998293
 31
0.0
  0
LINE
  5
15B2
330
5E5
100
AcDbEntity
  8
Quotature
  6
PUNTO2
 62
     0
370
    -2
100
AcDbLine
 10
677.5640746303281
 20
590.0158447998292
 30
0.0
 11
694.1806601963319
 21
590.0158447998292
 31
0.0
  0
LINE
  5
15B3
330
5E5
100
AcDbEntity
  8
Quotature
  6
PUNTO2
 62
     0
370
    -2
100
AcDbLine
 10
692.9306601963319
 20
687.5158447998293
 30
0.0
 11
692.9306601963319
 21
592.5158447998293
 31
0.0
  0
SOLID
  5
15B4
330
5E5
100
AcDbEntity
  8
Quotature
  6
PUNTO2
 62
     0
370
     9
100
AcDbTrace
 10
692.5139935296653
 20
687.5158447998293
 30
0.0
 11
693.3473268629986
 21
687.5158447998293
 31
0.0
 12
692.9306601963319
 22
690.0158447998293
 32
0.0
 13
692.9306601963319
 23
690.0158447998293
 33
0.0
  0
SOLID
  5
15B5
330
5E5
100
AcDbEntity
  8
Quotature
  6
PUNTO2
 62
     0
370
     9
100
AcDbTrace
 10
692.5139935296653
 20
592.5158447998293
 30
0.0
 11
693.3473268629986
 21
592.5158447998293
 31
0.0
 12
692.9306601963319
 22
590.0158447998292
 32
0.0
 13
692.9306601963319
 23
590.0158447998292
 33
0.0
  0
MTEXT
  5
15B6
330
5E5
100
AcDbEntity
  8
Quotature
  6
PUNTO2
 62
     0
370
    13
100
AcDbMText
 10
686.3056601963318
 20
640.0158447998294
 30
0.0
 40
12.0
 41
0.0
 71
     5
 72
     1
  1
100
 11
0.0000000000000001
 21
1.0
 31
0.0
 73
     1
 44
1.0
1001
ACAD
1000
MTEXTBEGIN
1070
    73
1070
     1
1070
    44
1040
1.0
1070
    74
1070
     0
1000
MTEXTEND
  0
POINT
  5
15B7
330
5E5
100
AcDbEntity
  8
Defpoints
  6
PUNTO2
 62
     0
370
     9
100
AcDbPoint
 10
676.9390746303281
 20
690.0158447998293
 30
0.0
  0
POINT
  5
15B8
330
5E5
100
AcDbEntity
  8
Defpoints
  6
PUNTO2
 62
     0
370
     9
100
AcDbPoint
 10
676.9390746303281
 20
590.0158447998292
 30
0.0
  0
POINT
  5
15B9
330
5E5
100
AcDbEntity
  8
Defpoints
  6
PUNTO2
 62
     0
370
     9
100
AcDbPoint
 10
692.9306601963319
 20
590.0158447998292
 30
0.0
  0
ENDBLK
  5
5F0
330
5E5
100
AcDbEntity
  8
0
 62
     5
370
     5
100
AcDbBlockEnd
  0
BLOCK
  5
5FC
330
5F2
100
AcDbEntity
  8
0
 62
     5
370
     5
100
AcDbBlockBegin
  2
*D11
 70
     1
 10
0.0
 20
0.0
 30
0.0
  3
*D11
  1

  0
LINE
  5
150F
330
5F2
100
AcDbEntity
  8
Quotature
  6
PUNTO2
 62
     0
370
    -2
100
AcDbLine
 10
-442.2644939805427
 20
600.0632384430495
 30
0.0
 11
-442.2644939805427
 21
608.3201945771705
 31
0.0
  0
LINE
  5
1510
330
5F2
100
AcDbEntity
  8
Quotature
  6
PUNTO2
 62
     0
370
    -2
100
AcDbLine
 10
57.73550601945726
 20
600.0632384430495
 30
0.0
 11
57.73550601945726
 21
608.3201945771705
 31
0.0
  0
LINE
  5
1511
330
5F2
100
AcDbEntity
  8
Quotature
  6
PUNTO2
 62
     0
370
    -2
100
AcDbLine
 10
-439.7644939805426
 20
607.0701945771705
 30
0.0
 11
55.23550601945726
 21
607.0701945771705
 31
0.0
  0
SOLID
  5
1512
330
5F2
100
AcDbEntity
  8
Quotature
  6
PUNTO2
 62
     0
370
     9
100
AcDbTrace
 10
-439.7644939805426
 20
607.4868612438371
 30
0.0
 11
-439.7644939805426
 21
606.6535279105038
 31
0.0
 12
-442.2644939805427
 22
607.0701945771705
 32
0.0
 13
-442.2644939805427
 23
607.0701945771705
 33
0.0
  0
SOLID
  5
1513
330
5F2
100
AcDbEntity
  8
Quotature
  6
PUNTO2
 62
     0
370
     9
100
AcDbTrace
 10
55.23550601945726
 20
607.4868612438371
 30
0.0
 11
55.23550601945726
 21
606.6535279105038
 31
0.0
 12
57.73550601945726
 22
607.0701945771705
 32
0.0
 13
57.73550601945726
 23
607.0701945771705
 33
0.0
  0
MTEXT
  5
1514
330
5F2
100
AcDbEntity
  8
Quotature
  6
PUNTO2
 62
     0
370
    13
100
AcDbMText
 10
-192.2644939805427
 20
613.6951945771705
 30
0.0
 40
12.0
 41
0.0
 71
     5
 72
     1
  1
500
 73
     1
 44
1.0
1001
ACAD
1000
MTEXTBEGIN
1070
    73
1070
     1
1070
    44
1040
1.0
1070
    74
1070
     0
1000
MTEXTEND
  0
POINT
  5
1515
330
5F2
100
AcDbEntity
  8
Defpoints
  6
PUNTO2
 62
     0
370
     9
100
AcDbPoint
 10
-442.2644939805427
 20
599.4382384430496
 30
0.0
  0
POINT
  5
1516
330
5F2
100
AcDbEntity
  8
Defpoints
  6
PUNTO2
 62
     0
370
     9
100
AcDbPoint
 10
57.73550601945726
 20
599.4382384430496
 30
0.0
  0
POINT
  5
1517
330
5F2
100
AcDbEntity
  8
Defpoints
  6
PUNTO2
 62
     0
370
     9
100
AcDbPoint
 10
57.73550601945726
 20
607.0701945771705
 30
0.0
  0
ENDBLK
  5
5FD
330
5F2
100
AcDbEntity
  8
0
 62
     5
370
     5
100
AcDbBlockEnd
  0
BLOCK
  5
609
330
5FF
100
AcDbEntity
  8
0
 62
     5
370
     5
100
AcDbBlockBegin
  2
*D12
 70
     1
 10
0.0
 20
0.0
 30
0.0
  3
*D12
  1

  0
LINE
  5
14E2
330
5FF
100
AcDbEntity
  8
Quotature
  6
PUNTO2
 62
     0
370
    -2
100
AcDbLine
 10
-442.8894939805426
 20
149.4382384430496
 30
0.0
 11
-467.4055653881824
 21
149.4382384430496
 31
0.0
  0
LINE
  5
14E3
330
5FF
100
AcDbEntity
  8
Quotature
  6
PUNTO2
 62
     0
370
    -2
100
AcDbLine
 10
-442.8894939805426
 20
599.4382384430496
 30
0.0
 11
-467.4055653881823
 21
599.4382384430496
 31
0.0
  0
LINE
  5
14E4
330
5FF
100
AcDbEntity
  8
Quotature
  6
PUNTO2
 62
     0
370
    -2
100
AcDbLine
 10
-466.1555653881824
 20
151.9382384430496
 30
0.0
 11
-466.1555653881824
 21
596.9382384430495
 31
0.0
  0
SOLID
  5
14E5
330
5FF
100
AcDbEntity
  8
Quotature
  6
PUNTO2
 62
     0
370
     9
100
AcDbTrace
 10
-466.5722320548491
 20
151.9382384430496
 30
0.0
 11
-465.7388987215157
 21
151.9382384430496
 31
0.0
 12
-466.1555653881824
 22
149.4382384430496
 32
0.0
 13
-466.1555653881824
 23
149.4382384430496
 33
0.0
  0
SOLID
  5
14E6
330
5FF
100
AcDbEntity
  8
Quotature
  6
PUNTO2
 62
     0
370
     9
100
AcDbTrace
 10
-466.572232054849
 20
596.9382384430495
 30
0.0
 11
-465.7388987215156
 21
596.9382384430495
 31
0.0
 12
-466.1555653881824
 22
599.4382384430496
 32
0.0
 13
-466.1555653881824
 23
599.4382384430496
 33
0.0
  0
MTEXT
  5
14E7
330
5FF
100
AcDbEntity
  8
Quotature
  6
PUNTO2
 62
     0
370
    13
100
AcDbMText
 10
-472.7805653881825
 20
374.4382384430496
 30
0.0
 40
12.0
 41
0.0
 71
     5
 72
     1
  1
450
 11
0.0000000000000001
 21
1.0
 31
0.0
 73
     1
 44
1.0
1001
ACAD
1000
MTEXTBEGIN
1070
    73
1070
     1
1070
    44
1040
1.0
1070
    74
1070
     0
1000
MTEXTEND
  0
POINT
  5
14E8
330
5FF
100
AcDbEntity
  8
Defpoints
  6
PUNTO2
 62
     0
370
     9
100
AcDbPoint
 10
-442.2644939805427
 20
149.4382384430496
 30
0.0
  0
POINT
  5
14E9
330
5FF
100
AcDbEntity
  8
Defpoints
  6
PUNTO2
 62
     0
370
     9
100
AcDbPoint
 10
-442.2644939805427
 20
599.4382384430496
 30
0.0
  0
POINT
  5
14EA
330
5FF
100
AcDbEntity
  8
Defpoints
  6
PUNTO2
 62
     0
370
     9
100
AcDbPoint
 10
-466.1555653881824
 20
599.4382384430496
 30
0.0
  0
ENDBLK
  5
60A
330
5FF
100
AcDbEntity
  8
0
 62
     5
370
     5
100
AcDbBlockEnd
  0
BLOCK
  5
616
330
60C
100
AcDbEntity
  8
0
 62
     5
370
     5
100
AcDbBlockBegin
  2
*D13
 70
     1
 10
0.0
 20
0.0
 30
0.0
  3
*D13
  1

  0
LINE
  5
157B
330
60C
100
AcDbEntity
  8
Quotature
  6
PUNTO2
 62
     0
370
    -2
100
AcDbLine
 10
867.5749121629191
 20
69.05851598031086
 30
0.0
 11
867.5749121629191
 21
37.57931926574372
 31
0.0
  0
LINE
  5
157C
330
60C
100
AcDbEntity
  8
Quotature
  6
PUNTO2
 62
     0
370
    -2
100
AcDbLine
 10
847.5749121629192
 20
69.05851598031086
 30
0.0
 11
847.5749121629192
 21
37.57931926574372
 31
0.0
  0
LINE
  5
157D
330
60C
100
AcDbEntity
  8
Quotature
  6
PUNTO2
 62
     0
370
    -2
100
AcDbLine
 10
865.0749121629191
 20
38.82931926574372
 30
0.0
 11
850.0749121629192
 21
38.82931926574372
 31
0.0
  0
SOLID
  5
157E
330
60C
100
AcDbEntity
  8
Quotature
  6
PUNTO2
 62
     0
370
     9
100
AcDbTrace
 10
865.0749121629191
 20
39.24598593241038
 30
0.0
 11
865.0749121629191
 21
38.41265259907706
 31
0.0
 12
867.5749121629191
 22
38.82931926574372
 32
0.0
 13
867.5749121629191
 23
38.82931926574372
 33
0.0
  0
SOLID
  5
157F
330
60C
100
AcDbEntity
  8
Quotature
  6
PUNTO2
 62
     0
370
     9
100
AcDbTrace
 10
850.0749121629192
 20
39.24598593241038
 30
0.0
 11
850.0749121629192
 21
38.41265259907706
 31
0.0
 12
847.5749121629192
 22
38.82931926574372
 32
0.0
 13
847.5749121629192
 23
38.82931926574372
 33
0.0
  0
MTEXT
  5
1580
330
60C
100
AcDbEntity
  8
Quotature
  6
PUNTO2
 62
     0
370
    13
100
AcDbMText
 10
857.5749121629192
 20
45.45431926574372
 30
0.0
 40
12.0
 41
0.0
 71
     5
 72
     1
  1
20
 73
     1
 44
1.0
1001
ACAD
1000
MTEXTBEGIN
1070
    73
1070
     1
1070
    44
1040
1.0
1070
    74
1070
     0
1000
MTEXTEND
  0
POINT
  5
1581
330
60C
100
AcDbEntity
  8
Defpoints
  6
PUNTO2
 62
     0
370
     9
100
AcDbPoint
 10
867.5749121629191
 20
69.68351598031086
 30
0.0
  0
POINT
  5
1582
330
60C
100
AcDbEntity
  8
Defpoints
  6
PUNTO2
 62
     0
370
     9
100
AcDbPoint
 10
847.5749121629192
 20
69.68351598031086
 30
0.0
  0
POINT
  5
1583
330
60C
100
AcDbEntity
  8
Defpoints
  6
PUNTO2
 62
     0
370
     9
100
AcDbPoint
 10
847.5749121629192
 20
38.82931926574372
 30
0.0
  0
ENDBLK
  5
617
330
60C
100
AcDbEntity
  8
0
 62
     5
370
     5
100
AcDbBlockEnd
  0
BLOCK
  5
623
330
619
100
AcDbEntity
  8
0
 62
     5
370
     5
100
AcDbBlockBegin
  2
*D14
 70
     1
 10
0.0
 20
0.0
 30
0.0
  3
*D14
  1

  0
LINE
  5
1584
330
619
100
AcDbEntity
  8
Quotature
  6
PUNTO2
 62
     0
370
    -2
100
AcDbLine
 10
846.9499121629192
 20
89.68351598031086
 30
0.0
 11
809.2560615839738
 21
89.68351598031086
 31
0.0
  0
LINE
  5
1585
330
619
100
AcDbEntity
  8
Quotature
  6
PUNTO2
 62
     0
370
    -2
100
AcDbLine
 10
846.9499121629192
 20
69.68351598031086
 30
0.0
 11
809.2560615839738
 21
69.68351598031086
 31
0.0
  0
LINE
  5
1586
330
619
100
AcDbEntity
  8
Quotature
  6
PUNTO2
 62
     0
370
    -2
100
AcDbLine
 10
810.5060615839738
 20
87.18351598031086
 30
0.0
 11
810.5060615839738
 21
72.18351598031086
 31
0.0
  0
SOLID
  5
1587
330
619
100
AcDbEntity
  8
Quotature
  6
PUNTO2
 62
     0
370
     9
100
AcDbTrace
 10
810.0893949173071
 20
87.18351598031086
 30
0.0
 11
810.9227282506404
 21
87.18351598031086
 31
0.0
 12
810.5060615839738
 22
89.68351598031086
 32
0.0
 13
810.5060615839738
 23
89.68351598031086
 33
0.0
  0
SOLID
  5
1588
330
619
100
AcDbEntity
  8
Quotature
  6
PUNTO2
 62
     0
370
     9
100
AcDbTrace
 10
810.0893949173071
 20
72.18351598031086
 30
0.0
 11
810.9227282506404
 21
72.18351598031086
 31
0.0
 12
810.5060615839738
 22
69.68351598031086
 32
0.0
 13
810.5060615839738
 23
69.68351598031086
 33
0.0
  0
MTEXT
  5
1589
330
619
100
AcDbEntity
  8
Quotature
  6
PUNTO2
 62
     0
370
    13
100
AcDbMText
 10
803.8810615839738
 20
79.683515980311
 30
0.0
 40
12.0
 41
0.0
 71
     5
 72
     1
  1
20
 11
0.0000000000000001
 21
1.0
 31
0.0
 73
     1
 44
1.0
1001
ACAD
1000
MTEXTBEGIN
1070
    73
1070
     1
1070
    44
1040
1.0
1070
    74
1070
     0
1000
MTEXTEND
  0
POINT
  5
158A
330
619
100
AcDbEntity
  8
Defpoints
  6
PUNTO2
 62
     0
370
     9
100
AcDbPoint
 10
847.5749121629192
 20
89.68351598031086
 30
0.0
  0
POINT
  5
158B
330
619
100
AcDbEntity
  8
Defpoints
  6
PUNTO2
 62
     0
370
     9
100
AcDbPoint
 10
847.5749121629192
 20
69.68351598031086
 30
0.0
  0
POINT
  5
158C
330
619
100
AcDbEntity
  8
Defpoints
  6
PUNTO2
 62
     0
370
     9
100
AcDbPoint
 10
810.5060615839738
 20
69.68351598031086
 30
0.0
  0
ENDBLK
  5
624
330
619
100
AcDbEntity
  8
0
 62
     5
370
     5
100
AcDbBlockEnd
  0
BLOCK
  5
64A
330
640
100
AcDbEntity
  8
0
 62
     5
370
     5
100
AcDbBlockBegin
  2
*D15
 70
     1
 10
0.0
 20
0.0
 30
0.0
  3
*D15
  1

  0
LINE
  5
1572
330
640
100
AcDbEntity
  8
Quotature
  6
PUNTO2
 62
     0
370
    -2
100
AcDbLine
 10
847.5749121629192
 20
90.30851598031086
 30
0.0
 11
847.5749121629192
 21
108.3373008471325
 31
0.0
  0
LINE
  5
1573
330
640
100
AcDbEntity
  8
Quotature
  6
PUNTO2
 62
     0
370
    -2
100
AcDbLine
 10
1347.574912162919
 20
90.30851598031086
 30
0.0
 11
1347.574912162919
 21
108.3373008471325
 31
0.0
  0
LINE
  5
1574
330
640
100
AcDbEntity
  8
Quotature
  6
PUNTO2
 62
     0
370
    -2
100
AcDbLine
 10
850.0749121629192
 20
107.0873008471325
 30
0.0
 11
1345.074912162919
 21
107.0873008471325
 31
0.0
  0
SOLID
  5
1575
330
640
100
AcDbEntity
  8
Quotature
  6
PUNTO2
 62
     0
370
     9
100
AcDbTrace
 10
850.0749121629192
 20
107.5039675137992
 30
0.0
 11
850.0749121629192
 21
106.6706341804658
 31
0.0
 12
847.5749121629192
 22
107.0873008471325
 32
0.0
 13
847.5749121629192
 23
107.0873008471325
 33
0.0
  0
SOLID
  5
1576
330
640
100
AcDbEntity
  8
Quotature
  6
PUNTO2
 62
     0
370
     9
100
AcDbTrace
 10
1345.074912162919
 20
107.5039675137992
 30
0.0
 11
1345.074912162919
 21
106.6706341804658
 31
0.0
 12
1347.574912162919
 22
107.0873008471325
 32
0.0
 13
1347.574912162919
 23
107.0873008471325
 33
0.0
  0
MTEXT
  5
1577
330
640
100
AcDbEntity
  8
Quotature
  6
PUNTO2
 62
     0
370
    13
100
AcDbMText
 10
1097.574912162919
 20
113.7123008471325
 30
0.0
 40
12.0
 41
0.0
 71
     5
 72
     1
  1
500
 73
     1
 44
1.0
1001
ACAD
1000
MTEXTBEGIN
1070
    73
1070
     1
1070
    44
1040
1.0
1070
    74
1070
     0
1000
MTEXTEND
  0
POINT
  5
1578
330
640
100
AcDbEntity
  8
Defpoints
  6
PUNTO2
 62
     0
370
     9
100
AcDbPoint
 10
847.5749121629192
 20
89.68351598031086
 30
0.0
  0
POINT
  5
1579
330
640
100
AcDbEntity
  8
Defpoints
  6
PUNTO2
 62
     0
370
     9
100
AcDbPoint
 10
1347.574912162919
 20
89.68351598031086
 30
0.0
  0
POINT
  5
157A
330
640
100
AcDbEntity
  8
Defpoints
  6
PUNTO2
 62
     0
370
     9
100
AcDbPoint
 10
1347.574912162919
 20
107.0873008471325
 30
0.0
  0
ENDBLK
  5
64B
330
640
100
AcDbEntity
  8
0
 62
     5
370
     5
100
AcDbBlockEnd
  0
BLOCK
  5
6B2
330
6A8
100
AcDbEntity
  8
0
 62
     5
370
     5
100
AcDbBlockBegin
  2
*D16
 70
     1
 10
0.0
 20
0.0
 30
0.0
  3
*D16
  1

  0
LINE
  5
14EB
330
6A8
100
AcDbEntity
  8
Quotature
  6
PUNTO2
 62
     0
370
    -2
100
AcDbLine
 10
592.8745380692592
 20
147.3592004247381
 30
0.0
 11
592.8745380692592
 21
131.7337129122933
 31
0.0
  0
LINE
  5
14EC
330
6A8
100
AcDbEntity
  8
Quotature
  6
PUNTO2
 62
     0
370
    -2
100
AcDbLine
 10
132.8745380692592
 20
147.3592004247381
 30
0.0
 11
132.8745380692592
 21
131.7337129122933
 31
0.0
  0
LINE
  5
14ED
330
6A8
100
AcDbEntity
  8
Quotature
  6
PUNTO2
 62
     0
370
    -2
100
AcDbLine
 10
590.3745380692591
 20
132.9837129122933
 30
0.0
 11
135.3745380692592
 21
132.9837129122933
 31
0.0
  0
SOLID
  5
14EE
330
6A8
100
AcDbEntity
  8
Quotature
  6
PUNTO2
 62
     0
370
     9
100
AcDbTrace
 10
590.3745380692591
 20
133.4003795789599
 30
0.0
 11
590.3745380692591
 21
132.5670462456266
 31
0.0
 12
592.8745380692592
 22
132.9837129122933
 32
0.0
 13
592.8745380692592
 23
132.9837129122933
 33
0.0
  0
SOLID
  5
14EF
330
6A8
100
AcDbEntity
  8
Quotature
  6
PUNTO2
 62
     0
370
     9
100
AcDbTrace
 10
135.3745380692592
 20
133.4003795789599
 30
0.0
 11
135.3745380692592
 21
132.5670462456266
 31
0.0
 12
132.8745380692592
 22
132.9837129122933
 32
0.0
 13
132.8745380692592
 23
132.9837129122933
 33
0.0
  0
MTEXT
  5
14F0
330
6A8
100
AcDbEntity
  8
Quotature
  6
PUNTO2
 62
     0
370
    13
100
AcDbMText
 10
362.8745380692592
 20
139.6087129122933
 30
0.0
 40
12.0
 41
0.0
 71
     5
 72
     1
  1
460
 73
     1
 44
1.0
1001
ACAD
1000
MTEXTBEGIN
1070
    73
1070
     1
1070
    44
1040
1.0
1070
    74
1070
     0
1000
MTEXTEND
  0
POINT
  5
14F1
330
6A8
100
AcDbEntity
  8
Defpoints
  6
PUNTO2
 62
     0
370
     9
100
AcDbPoint
 10
592.8745380692592
 20
147.9842004247381
 30
0.0
  0
POINT
  5
14F2
330
6A8
100
AcDbEntity
  8
Defpoints
  6
PUNTO2
 62
     0
370
     9
100
AcDbPoint
 10
132.8745380692592
 20
147.9842004247381
 30
0.0
  0
POINT
  5
14F3
330
6A8
100
AcDbEntity
  8
Defpoints
  6
PUNTO2
 62
     0
370
     9
100
AcDbPoint
 10
132.8745380692592
 20
132.9837129122933
 30
0.0
  0
ENDBLK
  5
6B3
330
6A8
100
AcDbEntity
  8
0
 62
     5
370
     5
100
AcDbBlockEnd
  0
BLOCK
  5
6BF
330
6B5
100
AcDbEntity
  8
0
 62
     5
370
     5
100
AcDbBlockBegin
  2
*D17
 70
     1
 10
0.0
 20
0.0
 30
0.0
  3
*D17
  1

  0
LINE
  5
16B2
330
6B5
100
AcDbEntity
  8
Quotature
  6
PUNTO2
 62
     0
370
    -2
100
AcDbLine
 10
593.4995380692591
 20
247.9842004247381
 30
0.0
 11
616.1910815631904
 21
247.9842004247381
 31
0.0
  0
LINE
  5
16B3
330
6B5
100
AcDbEntity
  8
Quotature
  6
PUNTO2
 62
     0
370
    -2
100
AcDbLine
 10
593.4995380692591
 20
147.9842004247381
 30
0.0
 11
616.1910815631904
 21
147.9842004247381
 31
0.0
  0
LINE
  5
16B4
330
6B5
100
AcDbEntity
  8
Quotature
  6
PUNTO2
 62
     0
370
    -2
100
AcDbLine
 10
614.9410815631904
 20
245.4842004247381
 30
0.0
 11
614.9410815631904
 21
150.4842004247381
 31
0.0
  0
SOLID
  5
16B5
330
6B5
100
AcDbEntity
  8
Quotature
  6
PUNTO2
 62
     0
370
     9
100
AcDbTrace
 10
614.5244148965238
 20
245.4842004247381
 30
0.0
 11
615.3577482298571
 21
245.4842004247381
 31
0.0
 12
614.9410815631904
 22
247.9842004247381
 32
0.0
 13
614.9410815631904
 23
247.9842004247381
 33
0.0
  0
SOLID
  5
16B6
330
6B5
100
AcDbEntity
  8
Quotature
  6
PUNTO2
 62
     0
370
     9
100
AcDbTrace
 10
614.5244148965238
 20
150.4842004247381
 30
0.0
 11
615.3577482298571
 21
150.4842004247381
 31
0.0
 12
614.9410815631904
 22
147.9842004247381
 32
0.0
 13
614.9410815631904
 23
147.9842004247381
 33
0.0
  0
MTEXT
  5
16B7
330
6B5
100
AcDbEntity
  8
Quotature
  6
PUNTO2
 62
     0
370
     9
100
AcDbMText
 10
608.3160815631904
 20
197.9842004247382
 30
0.0
 40
12.0
 41
0.0
 71
     5
 72
     1
  1
100
 11
0.0000000000000001
 21
1.0
 31
0.0
 73
     1
 44
1.0
1001
ACAD
1000
MTEXTBEGIN
1070
    73
1070
     1
1070
    44
1040
1.0
1070
    74
1070
     0
1000
MTEXTEND
  0
POINT
  5
16B8
330
6B5
100
AcDbEntity
  8
Defpoints
  6
PUNTO2
 62
     0
370
     9
100
AcDbPoint
 10
592.8745380692592
 20
247.9842004247381
 30
0.0
  0
POINT
  5
16B9
330
6B5
100
AcDbEntity
  8
Defpoints
  6
PUNTO2
 62
     0
370
     9
100
AcDbPoint
 10
592.8745380692592
 20
147.9842004247381
 30
0.0
  0
POINT
  5
16BA
330
6B5
100
AcDbEntity
  8
Defpoints
  6
PUNTO2
 62
     0
370
     9
100
AcDbPoint
 10
614.9410815631904
 20
147.9842004247381
 30
0.0
  0
ENDBLK
  5
6C0
330
6B5
100
AcDbEntity
  8
0
 62
     5
370
     5
100
AcDbBlockEnd
  0
BLOCK
  5
6D9
330
6CF
100
AcDbEntity
  8
0
 62
     5
370
     5
100
AcDbBlockBegin
  2
*D18
 70
     1
 10
0.0
 20
0.0
 30
0.0
  3
*D18
  1

  0
LINE
  5
14FD
330
6CF
100
AcDbEntity
  8
Quotature
  6
PUNTO2
 62
     0
370
    -2
100
AcDbLine
 10
592.8745380692592
 20
248.6092004247381
 30
0.0
 11
592.8745380692592
 21
259.3230351035754
 31
0.0
  0
LINE
  5
14FE
330
6CF
100
AcDbEntity
  8
Quotature
  6
PUNTO2
 62
     0
370
    -2
100
AcDbLine
 10
232.8745380692592
 20
248.6092004247381
 30
0.0
 11
232.8745380692592
 21
259.3230351035754
 31
0.0
  0
LINE
  5
14FF
330
6CF
100
AcDbEntity
  8
Quotature
  6
PUNTO2
 62
     0
370
    -2
100
AcDbLine
 10
590.3745380692591
 20
258.0730351035754
 30
0.0
 11
235.3745380692592
 21
258.0730351035754
 31
0.0
  0
SOLID
  5
1500
330
6CF
100
AcDbEntity
  8
Quotature
  6
PUNTO2
 62
     0
370
     9
100
AcDbTrace
 10
590.3745380692591
 20
258.4897017702421
 30
0.0
 11
590.3745380692591
 21
257.6563684369087
 31
0.0
 12
592.8745380692592
 22
258.0730351035754
 32
0.0
 13
592.8745380692592
 23
258.0730351035754
 33
0.0
  0
SOLID
  5
1501
330
6CF
100
AcDbEntity
  8
Quotature
  6
PUNTO2
 62
     0
370
     9
100
AcDbTrace
 10
235.3745380692592
 20
258.4897017702421
 30
0.0
 11
235.3745380692592
 21
257.6563684369087
 31
0.0
 12
232.8745380692592
 22
258.0730351035754
 32
0.0
 13
232.8745380692592
 23
258.0730351035754
 33
0.0
  0
MTEXT
  5
1502
330
6CF
100
AcDbEntity
  8
Quotature
  6
PUNTO2
 62
     0
370
    13
100
AcDbMText
 10
412.8745380692591
 20
264.6980351035754
 30
0.0
 40
12.0
 41
0.0
 71
     5
 72
     1
  1
360
 73
     1
 44
1.0
1001
ACAD
1000
MTEXTBEGIN
1070
    73
1070
     1
1070
    44
1040
1.0
1070
    74
1070
     0
1000
MTEXTEND
  0
POINT
  5
1503
330
6CF
100
AcDbEntity
  8
Defpoints
  6
PUNTO2
 62
     0
370
     9
100
AcDbPoint
 10
592.8745380692592
 20
247.9842004247381
 30
0.0
  0
POINT
  5
1504
330
6CF
100
AcDbEntity
  8
Defpoints
  6
PUNTO2
 62
     0
370
     9
100
AcDbPoint
 10
232.8745380692592
 20
247.9842004247381
 30
0.0
  0
POINT
  5
1505
330
6CF
100
AcDbEntity
  8
Defpoints
  6
PUNTO2
 62
     0
370
     9
100
AcDbPoint
 10
232.8745380692592
 20
258.0730351035754
 30
0.0
  0
ENDBLK
  5
6DA
330
6CF
100
AcDbEntity
  8
0
 62
     5
370
     5
100
AcDbBlockEnd
  0
BLOCK
  5
9E9
330
9DF
100
AcDbEntity
  8
0
 62
     5
370
     5
100
AcDbBlockBegin
  2
*D19
 70
     1
 10
0.0
 20
0.0
 30
0.0
  3
*D19
  1

  0
LINE
  5
1560
330
9DF
100
AcDbEntity
  8
Quotature
  6
PUNTO2
 62
     0
370
    -2
100
AcDbLine
 10
1328.199912162919
 20
-30.31648401968913
 30
0.0
 11
1380.617551609667
 21
-30.31648401968914
 31
0.0
  0
LINE
  5
1561
330
9DF
100
AcDbEntity
  8
Quotature
  6
PUNTO2
 62
     0
370
    -2
100
AcDbLine
 10
1348.199912162919
 20
89.68351598031086
 30
0.0
 11
1380.617551609667
 21
89.68351598031084
 31
0.0
  0
LINE
  5
1562
330
9DF
100
AcDbEntity
  8
Quotature
  6
PUNTO2
 62
     0
370
    -2
100
AcDbLine
 10
1379.367551609667
 20
-27.81648401968914
 30
0.0
 11
1379.367551609667
 21
87.18351598031084
 31
0.0
  0
SOLID
  5
1563
330
9DF
100
AcDbEntity
  8
Quotature
  6
PUNTO2
 62
     0
370
     9
100
AcDbTrace
 10
1378.950884943
 20
-27.81648401968914
 30
0.0
 11
1379.784218276334
 21
-27.81648401968914
 31
0.0
 12
1379.367551609667
 22
-30.31648401968914
 32
0.0
 13
1379.367551609667
 23
-30.31648401968914
 33
0.0
  0
SOLID
  5
1564
330
9DF
100
AcDbEntity
  8
Quotature
  6
PUNTO2
 62
     0
370
     9
100
AcDbTrace
 10
1378.950884943
 20
87.18351598031084
 30
0.0
 11
1379.784218276334
 21
87.18351598031084
 31
0.0
 12
1379.367551609667
 22
89.68351598031084
 32
0.0
 13
1379.367551609667
 23
89.68351598031084
 33
0.0
  0
MTEXT
  5
1565
330
9DF
100
AcDbEntity
  8
Quotature
  6
PUNTO2
 62
     0
370
    13
100
AcDbMText
 10
1372.742551609667
 20
29.68351598031107
 30
0.0
 40
12.0
 41
0.0
 71
     5
 72
     1
  1
120
 11
0.0000000000000001
 21
1.0
 31
0.0
 73
     1
 44
1.0
1001
ACAD
1000
MTEXTBEGIN
1070
    73
1070
     1
1070
    44
1040
1.0
1070
    74
1070
     0
1000
MTEXTEND
  0
POINT
  5
1566
330
9DF
100
AcDbEntity
  8
Defpoints
  6
PUNTO2
 62
     0
370
     9
100
AcDbPoint
 10
1327.574912162919
 20
-30.31648401968913
 30
0.0
  0
POINT
  5
1567
330
9DF
100
AcDbEntity
  8
Defpoints
  6
PUNTO2
 62
     0
370
     9
100
AcDbPoint
 10
1347.574912162919
 20
89.68351598031086
 30
0.0
  0
POINT
  5
1568
330
9DF
100
AcDbEntity
  8
Defpoints
  6
PUNTO2
 62
     0
370
     9
100
AcDbPoint
 10
1379.367551609667
 20
89.68351598031084
 30
0.0
  0
ENDBLK
  5
9EA
330
9DF
100
AcDbEntity
  8
0
 62
     5
370
     5
100
AcDbBlockEnd
  0
BLOCK
  5
A1A
330
A10
100
AcDbEntity
  8
0
 62
     5
370
     5
100
AcDbBlockBegin
  2
*D20
 70
     1
 10
0.0
 20
0.0
 30
0.0
  3
*D20
  1

  0
LINE
  5
1569
330
A10
100
AcDbEntity
  8
Quotature
  6
PUNTO2
 62
     0
370
    -2
100
AcDbLine
 10
867.5749121629191
 20
-30.94148401968907
 30
0.0
 11
867.5749121629191
 21
-63.32711294038472
 31
0.0
  0
LINE
  5
156A
330
A10
100
AcDbEntity
  8
Quotature
  6
PUNTO2
 62
     0
370
    -2
100
AcDbLine
 10
1327.574912162919
 20
-30.94148401968913
 30
0.0
 11
1327.574912162919
 21
-63.32711294038472
 31
0.0
  0
LINE
  5
156B
330
A10
100
AcDbEntity
  8
Quotature
  6
PUNTO2
 62
     0
370
    -2
100
AcDbLine
 10
870.0749121629192
 20
-62.07711294038472
 30
0.0
 11
1325.074912162919
 21
-62.07711294038472
 31
0.0
  0
SOLID
  5
156C
330
A10
100
AcDbEntity
  8
Quotature
  6
PUNTO2
 62
     0
370
     9
100
AcDbTrace
 10
870.0749121629192
 20
-61.66044627371806
 30
0.0
 11
870.0749121629192
 21
-62.49377960705139
 31
0.0
 12
867.5749121629191
 22
-62.07711294038472
 32
0.0
 13
867.5749121629191
 23
-62.07711294038472
 33
0.0
  0
SOLID
  5
156D
330
A10
100
AcDbEntity
  8
Quotature
  6
PUNTO2
 62
     0
370
     9
100
AcDbTrace
 10
1325.074912162919
 20
-61.66044627371806
 30
0.0
 11
1325.074912162919
 21
-62.49377960705139
 31
0.0
 12
1327.574912162919
 22
-62.07711294038472
 32
0.0
 13
1327.574912162919
 23
-62.07711294038472
 33
0.0
  0
MTEXT
  5
156E
330
A10
100
AcDbEntity
  8
Quotature
  6
PUNTO2
 62
     0
370
    13
100
AcDbMText
 10
1097.574912162919
 20
-55.45211294038472
 30
0.0
 40
12.0
 41
0.0
 71
     5
 72
     1
  1
460
 73
     1
 44
1.0
1001
ACAD
1000
MTEXTBEGIN
1070
    73
1070
     1
1070
    44
1040
1.0
1070
    74
1070
     0
1000
MTEXTEND
  0
POINT
  5
156F
330
A10
100
AcDbEntity
  8
Defpoints
  6
PUNTO2
 62
     0
370
     9
100
AcDbPoint
 10
867.5749121629191
 20
-30.31648401968907
 30
0.0
  0
POINT
  5
1570
330
A10
100
AcDbEntity
  8
Defpoints
  6
PUNTO2
 62
     0
370
     9
100
AcDbPoint
 10
1327.574912162919
 20
-30.31648401968913
 30
0.0
  0
POINT
  5
1571
330
A10
100
AcDbEntity
  8
Defpoints
  6
PUNTO2
 62
     0
370
     9
100
AcDbPoint
 10
1327.574912162919
 20
-62.07711294038472
 30
0.0
  0
ENDBLK
  5
A1B
330
A10
100
AcDbEntity
  8
0
 62
     5
370
     5
100
AcDbBlockEnd
  0
BLOCK
  5
C11
330
C07
100
AcDbEntity
  8
0
 62
     5
370
     5
100
AcDbBlockBegin
  2
*D21
 70
     1
 10
0.0
 20
0.0
 30
0.0
  3
*D21
  1

  0
LINE
  5
1673
330
C07
100
AcDbEntity
  8
Quotature
  6
PUNTO2
 62
     0
370
    -2
100
AcDbLine
 10
857.9962261351868
 20
826.0782256650998
 30
0.0
 11
900.2127935011314
 21
826.0782256650998
 31
0.0
  0
LINE
  5
1674
330
C07
100
AcDbEntity
  8
Quotature
  6
PUNTO2
 62
     0
370
    -2
100
AcDbLine
 10
857.9962261351868
 20
576.0782256650998
 30
0.0
 11
900.2127935011312
 21
576.0782256650998
 31
0.0
  0
LINE
  5
1675
330
C07
100
AcDbEntity
  8
Quotature
  6
PUNTO2
 62
     0
370
    -2
100
AcDbLine
 10
898.9627935011313
 20
823.5782256650997
 30
0.0
 11
898.9627935011313
 21
578.5782256650998
 31
0.0
  0
SOLID
  5
1676
330
C07
100
AcDbEntity
  8
Quotature
  6
PUNTO2
 62
     0
370
     9
100
AcDbTrace
 10
898.5461268344648
 20
823.5782256650997
 30
0.0
 11
899.3794601677979
 21
823.5782256650997
 31
0.0
 12
898.9627935011313
 22
826.0782256650998
 32
0.0
 13
898.9627935011313
 23
826.0782256650998
 33
0.0
  0
SOLID
  5
1677
330
C07
100
AcDbEntity
  8
Quotature
  6
PUNTO2
 62
     0
370
     9
100
AcDbTrace
 10
898.5461268344646
 20
578.5782256650998
 30
0.0
 11
899.3794601677979
 21
578.5782256650998
 31
0.0
 12
898.9627935011313
 22
576.0782256650998
 32
0.0
 13
898.9627935011313
 23
576.0782256650998
 33
0.0
  0
MTEXT
  5
1678
330
C07
100
AcDbEntity
  8
Quotature
  6
PUNTO2
 62
     0
370
     9
100
AcDbMText
 10
892.3377935011311
 20
701.0782256651
 30
0.0
 40
12.0
 41
0.0
 71
     5
 72
     1
  1
250
 11
0.0000000000000001
 21
1.0
 31
0.0
 73
     1
 44
1.0
1001
ACAD
1000
MTEXTBEGIN
1070
    73
1070
     1
1070
    44
1040
1.0
1070
    74
1070
     0
1000
MTEXTEND
  0
POINT
  5
1679
330
C07
100
AcDbEntity
  8
Defpoints
  6
PUNTO2
 62
     0
370
     9
100
AcDbPoint
 10
857.3712261351868
 20
826.0782256650998
 30
0.0
  0
POINT
  5
167A
330
C07
100
AcDbEntity
  8
Defpoints
  6
PUNTO2
 62
     0
370
     9
100
AcDbPoint
 10
857.3712261351868
 20
576.0782256650998
 30
0.0
  0
POINT
  5
167B
330
C07
100
AcDbEntity
  8
Defpoints
  6
PUNTO2
 62
     0
370
     9
100
AcDbPoint
 10
898.9627935011313
 20
576.0782256650998
 30
0.0
  0
ENDBLK
  5
C12
330
C07
100
AcDbEntity
  8
0
 62
     5
370
     5
100
AcDbBlockEnd
  0
BLOCK
  5
C69
330
C5F
100
AcDbEntity
  8
0
 62
     5
370
     5
100
AcDbBlockBegin
  2
*D22
 70
     1
 10
0.0
 20
0.0
 30
0.0
  3
*D22
  1

  0
LINE
  5
1518
330
C5F
100
AcDbEntity
  8
Quotature
  6
PUNTO2
 62
     0
370
    -2
100
AcDbLine
 10
232.8745380692592
 20
498.6092004247381
 30
0.0
 11
232.8745380692592
 21
534.5919709735985
 31
0.0
  0
LINE
  5
1519
330
C5F
100
AcDbEntity
  8
Quotature
  6
PUNTO2
 62
     0
370
    -2
100
AcDbLine
 10
132.8745380692592
 20
498.6092004247381
 30
0.0
 11
132.8745380692592
 21
534.5919709735985
 31
0.0
  0
LINE
  5
151A
330
C5F
100
AcDbEntity
  8
Quotature
  6
PUNTO2
 62
     0
370
    -2
100
AcDbLine
 10
230.3745380692592
 20
533.3419709735985
 30
0.0
 11
135.3745380692592
 21
533.3419709735985
 31
0.0
  0
SOLID
  5
151B
330
C5F
100
AcDbEntity
  8
Quotature
  6
PUNTO2
 62
     0
370
     9
100
AcDbTrace
 10
230.3745380692592
 20
533.7586376402652
 30
0.0
 11
230.3745380692592
 21
532.9253043069319
 31
0.0
 12
232.8745380692592
 22
533.3419709735985
 32
0.0
 13
232.8745380692592
 23
533.3419709735985
 33
0.0
  0
SOLID
  5
151C
330
C5F
100
AcDbEntity
  8
Quotature
  6
PUNTO2
 62
     0
370
     9
100
AcDbTrace
 10
135.3745380692592
 20
533.7586376402652
 30
0.0
 11
135.3745380692592
 21
532.9253043069319
 31
0.0
 12
132.8745380692592
 22
533.3419709735985
 32
0.0
 13
132.8745380692592
 23
533.3419709735985
 33
0.0
  0
MTEXT
  5
151D
330
C5F
100
AcDbEntity
  8
Quotature
  6
PUNTO2
 62
     0
370
    13
100
AcDbMText
 10
182.8745380692592
 20
539.9669709735985
 30
0.0
 40
12.0
 41
0.0
 71
     5
 72
     1
  1
100
 73
     1
 44
1.0
1001
ACAD
1000
MTEXTBEGIN
1070
    73
1070
     1
1070
    44
1040
1.0
1070
    74
1070
     0
1000
MTEXTEND
  0
POINT
  5
151E
330
C5F
100
AcDbEntity
  8
Defpoints
  6
PUNTO2
 62
     0
370
     9
100
AcDbPoint
 10
232.8745380692592
 20
497.984200424738
 30
0.0
  0
POINT
  5
151F
330
C5F
100
AcDbEntity
  8
Defpoints
  6
PUNTO2
 62
     0
370
     9
100
AcDbPoint
 10
132.8745380692592
 20
497.984200424738
 30
0.0
  0
POINT
  5
1520
330
C5F
100
AcDbEntity
  8
Defpoints
  6
PUNTO2
 62
     0
370
     9
100
AcDbPoint
 10
132.8745380692592
 20
533.3419709735985
 30
0.0
  0
ENDBLK
  5
C6A
330
C5F
100
AcDbEntity
  8
0
 62
     5
370
     5
100
AcDbBlockEnd
  0
BLOCK
  5
C90
330
C86
100
AcDbEntity
  8
0
 62
     5
370
     5
100
AcDbBlockBegin
  2
*D23
 70
     1
 10
0.0
 20
0.0
 30
0.0
  3
*D23
  1

  0
LINE
  5
16BB
330
C86
100
AcDbEntity
  8
Quotature
  6
PUNTO2
 62
     0
370
    -2
100
AcDbLine
 10
233.4995380692592
 20
497.984200424738
 30
0.0
 11
313.2443769056245
 21
497.984200424738
 31
0.0
  0
LINE
  5
16BC
330
C86
100
AcDbEntity
  8
Quotature
  6
PUNTO2
 62
     0
370
    -2
100
AcDbLine
 10
233.4995380692592
 20
247.9842004247381
 30
0.0
 11
313.2443769056245
 21
247.9842004247381
 31
0.0
  0
LINE
  5
16BD
330
C86
100
AcDbEntity
  8
Quotature
  6
PUNTO2
 62
     0
370
    -2
100
AcDbLine
 10
311.9943769056245
 20
495.4842004247381
 30
0.0
 11
311.9943769056245
 21
250.4842004247381
 31
0.0
  0
SOLID
  5
16BE
330
C86
100
AcDbEntity
  8
Quotature
  6
PUNTO2
 62
     0
370
     9
100
AcDbTrace
 10
311.5777102389578
 20
495.4842004247381
 30
0.0
 11
312.4110435722912
 21
495.4842004247381
 31
0.0
 12
311.9943769056245
 22
497.984200424738
 32
0.0
 13
311.9943769056245
 23
497.984200424738
 33
0.0
  0
SOLID
  5
16BF
330
C86
100
AcDbEntity
  8
Quotature
  6
PUNTO2
 62
     0
370
     9
100
AcDbTrace
 10
311.5777102389578
 20
250.4842004247381
 30
0.0
 11
312.4110435722911
 21
250.4842004247381
 31
0.0
 12
311.9943769056245
 22
247.9842004247381
 32
0.0
 13
311.9943769056245
 23
247.9842004247381
 33
0.0
  0
MTEXT
  5
16C0
330
C86
100
AcDbEntity
  8
Quotature
  6
PUNTO2
 62
     0
370
     9
100
AcDbMText
 10
305.3693769056244
 20
372.9842004247382
 30
0.0
 40
12.0
 41
0.0
 71
     5
 72
     1
  1
250
 11
0.0000000000000001
 21
1.0
 31
0.0
 73
     1
 44
1.0
1001
ACAD
1000
MTEXTBEGIN
1070
    73
1070
     1
1070
    44
1040
1.0
1070
    74
1070
     0
1000
MTEXTEND
  0
POINT
  5
16C1
330
C86
100
AcDbEntity
  8
Defpoints
  6
PUNTO2
 62
     0
370
     9
100
AcDbPoint
 10
232.8745380692592
 20
497.984200424738
 30
0.0
  0
POINT
  5
16C2
330
C86
100
AcDbEntity
  8
Defpoints
  6
PUNTO2
 62
     0
370
     9
100
AcDbPoint
 10
232.8745380692592
 20
247.9842004247381
 30
0.0
  0
POINT
  5
16C3
330
C86
100
AcDbEntity
  8
Defpoints
  6
PUNTO2
 62
     0
370
     9
100
AcDbPoint
 10
311.9943769056245
 20
247.9842004247381
 30
0.0
  0
ENDBLK
  5
C91
330
C86
100
AcDbEntity
  8
0
 62
     5
370
     5
100
AcDbBlockEnd
  0
BLOCK
  5
CAA
330
CA0
100
AcDbEntity
  8
0
 62
     5
370
     5
100
AcDbBlockBegin
  2
*D24
 70
     1
 10
0.0
 20
0.0
 30
0.0
  3
*D24
  1

  0
LINE
  5
14D0
330
CA0
100
AcDbEntity
  8
Quotature
  6
PUNTO2
 62
     0
370
    -2
100
AcDbLine
 10
132.2495380692592
 20
497.984200424738
 30
0.0
 11
98.95807549068926
 21
497.9842004247381
 31
0.0
  0
LINE
  5
14D1
330
CA0
100
AcDbEntity
  8
Quotature
  6
PUNTO2
 62
     0
370
    -2
100
AcDbLine
 10
132.2495380692592
 20
147.9842004247381
 30
0.0
 11
98.95807549068919
 21
147.9842004247381
 31
0.0
  0
LINE
  5
14D2
330
CA0
100
AcDbEntity
  8
Quotature
  6
PUNTO2
 62
     0
370
    -2
100
AcDbLine
 10
100.2080754906892
 20
495.4842004247381
 30
0.0
 11
100.2080754906891
 21
150.4842004247381
 31
0.0
  0
SOLID
  5
14D3
330
CA0
100
AcDbEntity
  8
Quotature
  6
PUNTO2
 62
     0
370
     9
100
AcDbTrace
 10
99.7914088240226
 20
495.4842004247381
 30
0.0
 11
100.6247421573559
 21
495.4842004247381
 31
0.0
 12
100.2080754906892
 22
497.9842004247381
 32
0.0
 13
100.2080754906892
 23
497.9842004247381
 33
0.0
  0
SOLID
  5
14D4
330
CA0
100
AcDbEntity
  8
Quotature
  6
PUNTO2
 62
     0
370
     9
100
AcDbTrace
 10
99.79140882402251
 20
150.4842004247381
 30
0.0
 11
100.6247421573558
 21
150.4842004247381
 31
0.0
 12
100.2080754906891
 22
147.9842004247381
 32
0.0
 13
100.2080754906891
 23
147.9842004247381
 33
0.0
  0
MTEXT
  5
14D5
330
CA0
100
AcDbEntity
  8
Quotature
  6
PUNTO2
 62
     0
370
    13
100
AcDbMText
 10
93.58307549068916
 20
322.9842004247382
 30
0.0
 40
12.0
 41
0.0
 71
     5
 72
     1
  1
350
 11
0.0000000000000001
 21
1.0
 31
0.0
 73
     1
 44
1.0
1001
ACAD
1000
MTEXTBEGIN
1070
    73
1070
     1
1070
    44
1040
1.0
1070
    74
1070
     0
1000
MTEXTEND
  0
POINT
  5
14D6
330
CA0
100
AcDbEntity
  8
Defpoints
  6
PUNTO2
 62
     0
370
     9
100
AcDbPoint
 10
132.8745380692592
 20
497.984200424738
 30
0.0
  0
POINT
  5
14D7
330
CA0
100
AcDbEntity
  8
Defpoints
  6
PUNTO2
 62
     0
370
     9
100
AcDbPoint
 10
132.8745380692592
 20
147.9842004247381
 30
0.0
  0
POINT
  5
14D8
330
CA0
100
AcDbEntity
  8
Defpoints
  6
PUNTO2
 62
     0
370
     9
100
AcDbPoint
 10
100.2080754906891
 20
147.9842004247381
 30
0.0
  0
ENDBLK
  5
CAB
330
CA0
100
AcDbEntity
  8
0
 62
     5
370
     5
100
AcDbBlockEnd
  0
BLOCK
  5
DB7
330
DAD
100
AcDbEntity
  8
0
 62
     1
100
AcDbBlockBegin
  2
*D25
 70
     1
 10
0.0
 20
0.0
 30
0.0
  3
*D25
  1

  0
LINE
  5
152A
330
DAD
100
AcDbEntity
  8
Quotature
  6
PUNTO2
 62
     0
370
    -2
100
AcDbLine
 10
-286.0120316737658
 20
958.4493680260161
 30
0.0
 11
-286.0120316737658
 21
1000.310429048743
 31
0.0
  0
LINE
  5
152B
330
DAD
100
AcDbEntity
  8
Quotature
  6
PUNTO2
 62
     0
370
    -2
100
AcDbLine
 10
213.9879683262343
 20
958.4493680260161
 30
0.0
 11
213.9879683262343
 21
1000.310429048743
 31
0.0
  0
LINE
  5
152C
330
DAD
100
AcDbEntity
  8
Quotature
  6
PUNTO2
 62
     0
370
    -2
100
AcDbLine
 10
-283.5120316737658
 20
999.0604290487427
 30
0.0
 11
211.4879683262343
 21
999.0604290487427
 31
0.0
  0
SOLID
  5
152D
330
DAD
100
AcDbEntity
  8
Quotature
  6
PUNTO2
 62
     0
370
     9
100
AcDbTrace
 10
-283.5120316737658
 20
999.4770957154093
 30
0.0
 11
-283.5120316737658
 21
998.643762382076
 31
0.0
 12
-286.0120316737658
 22
999.0604290487427
 32
0.0
 13
-286.0120316737658
 23
999.0604290487427
 33
0.0
  0
SOLID
  5
152E
330
DAD
100
AcDbEntity
  8
Quotature
  6
PUNTO2
 62
     0
370
     9
100
AcDbTrace
 10
211.4879683262343
 20
999.4770957154093
 30
0.0
 11
211.4879683262343
 21
998.643762382076
 31
0.0
 12
213.9879683262343
 22
999.0604290487427
 32
0.0
 13
213.9879683262343
 23
999.0604290487427
 33
0.0
  0
MTEXT
  5
152F
330
DAD
100
AcDbEntity
  8
Quotature
  6
PUNTO2
 62
     0
370
    13
100
AcDbMText
 10
-36.01203167376575
 20
1005.685429048742
 30
0.0
 40
12.0
 41
0.0
 71
     5
 72
     1
  1
500
 73
     1
 44
1.0
1001
ACAD
1000
MTEXTBEGIN
1070
    73
1070
     1
1070
    44
1040
1.0
1070
    74
1070
     0
1000
MTEXTEND
  0
POINT
  5
1530
330
DAD
100
AcDbEntity
  8
Defpoints
  6
PUNTO2
 62
     0
370
     9
100
AcDbPoint
 10
-286.0120316737658
 20
957.8243680260161
 30
0.0
  0
POINT
  5
1531
330
DAD
100
AcDbEntity
  8
Defpoints
  6
PUNTO2
 62
     0
370
     9
100
AcDbPoint
 10
213.9879683262343
 20
957.8243680260161
 30
0.0
  0
POINT
  5
1532
330
DAD
100
AcDbEntity
  8
Defpoints
  6
PUNTO2
 62
     0
370
     9
100
AcDbPoint
 10
213.9879683262343
 20
999.0604290487427
 30
0.0
  0
ENDBLK
  5
DB8
330
DAD
100
AcDbEntity
  8
0
 62
     1
100
AcDbBlockEnd
  0
BLOCK
  5
DE8
330
DDE
100
AcDbEntity
  8
0
 62
     1
100
AcDbBlockBegin
  2
*D26
 70
     1
 10
0.0
 20
0.0
 30
0.0
  3
*D26
  1

  0
LINE
  5
14B5
330
DDE
100
AcDbEntity
  8
Quotature
  6
PUNTO2
 62
     0
370
    -2
100
AcDbLine
 10
-306.6370316737657
 20
1187.824368026016
 30
0.0
 11
-335.2100681776691
 21
1187.824368026016
 31
0.0
  0
LINE
  5
14B6
330
DDE
100
AcDbEntity
  8
Quotature
  6
PUNTO2
 62
     0
370
    -2
100
AcDbLine
 10
-306.6370316737657
 20
837.8243680260162
 30
0.0
 11
-335.2100681776692
 21
837.8243680260162
 31
0.0
  0
LINE
  5
14B7
330
DDE
100
AcDbEntity
  8
Quotature
  6
PUNTO2
 62
     0
370
    -2
100
AcDbLine
 10
-333.9600681776691
 20
1185.324368026016
 30
0.0
 11
-333.9600681776692
 21
840.324368026016
 31
0.0
  0
SOLID
  5
14B8
330
DDE
100
AcDbEntity
  8
Quotature
  6
PUNTO2
 62
     0
370
     9
100
AcDbTrace
 10
-334.3767348443358
 20
1185.324368026016
 30
0.0
 11
-333.5434015110024
 21
1185.324368026016
 31
0.0
 12
-333.9600681776691
 22
1187.824368026016
 32
0.0
 13
-333.9600681776691
 23
1187.824368026016
 33
0.0
  0
SOLID
  5
14B9
330
DDE
100
AcDbEntity
  8
Quotature
  6
PUNTO2
 62
     0
370
     9
100
AcDbTrace
 10
-334.3767348443359
 20
840.324368026016
 30
0.0
 11
-333.5434015110025
 21
840.324368026016
 31
0.0
 12
-333.9600681776692
 22
837.8243680260162
 32
0.0
 13
-333.9600681776692
 23
837.8243680260162
 33
0.0
  0
MTEXT
  5
14BA
330
DDE
100
AcDbEntity
  8
Quotature
  6
PUNTO2
 62
     0
370
    13
100
AcDbMText
 10
-340.5850681776693
 20
1012.824368026016
 30
0.0
 40
12.0
 41
0.0
 71
     5
 72
     1
  1
350
 11
0.0000000000000001
 21
1.0
 31
0.0
 73
     1
 44
1.0
1001
ACAD
1000
MTEXTBEGIN
1070
    73
1070
     1
1070
    44
1040
1.0
1070
    74
1070
     0
1000
MTEXTEND
  0
POINT
  5
14BB
330
DDE
100
AcDbEntity
  8
Defpoints
  6
PUNTO2
 62
     0
370
     9
100
AcDbPoint
 10
-306.0120316737657
 20
1187.824368026016
 30
0.0
  0
POINT
  5
14BC
330
DDE
100
AcDbEntity
  8
Defpoints
  6
PUNTO2
 62
     0
370
     9
100
AcDbPoint
 10
-306.0120316737657
 20
837.8243680260162
 30
0.0
  0
POINT
  5
14BD
330
DDE
100
AcDbEntity
  8
Defpoints
  6
PUNTO2
 62
     0
370
     9
100
AcDbPoint
 10
-333.9600681776692
 20
837.8243680260162
 30
0.0
  0
ENDBLK
  5
DE9
330
DDE
100
AcDbEntity
  8
0
 62
     1
100
AcDbBlockEnd
  0
BLOCK
  5
DF5
330
DEB
100
AcDbEntity
  8
0
 62
     1
100
AcDbBlockBegin
  2
*D27
 70
     1
 10
0.0
 20
0.0
 30
0.0
  3
*D27
  1

  0
LINE
  5
14AC
330
DEB
100
AcDbEntity
  8
Quotature
  6
PUNTO2
 62
     0
370
    -2
100
AcDbLine
 10
213.3629683262343
 20
1187.824368026016
 30
0.0
 11
144.4251695111216
 21
1187.824368026016
 31
0.0
  0
LINE
  5
14AD
330
DEB
100
AcDbEntity
  8
Quotature
  6
PUNTO2
 62
     0
370
    -2
100
AcDbLine
 10
213.3629683262343
 20
937.8243680260162
 30
0.0
 11
144.4251695111215
 21
937.8243680260162
 31
0.0
  0
LINE
  5
14AE
330
DEB
100
AcDbEntity
  8
Quotature
  6
PUNTO2
 62
     0
370
    -2
100
AcDbLine
 10
145.6751695111216
 20
1185.324368026016
 30
0.0
 11
145.6751695111215
 21
940.324368026016
 31
0.0
  0
SOLID
  5
14AF
330
DEB
100
AcDbEntity
  8
Quotature
  6
PUNTO2
 62
     0
370
     9
100
AcDbTrace
 10
145.2585028444549
 20
1185.324368026016
 30
0.0
 11
146.0918361777882
 21
1185.324368026016
 31
0.0
 12
145.6751695111216
 22
1187.824368026016
 32
0.0
 13
145.6751695111216
 23
1187.824368026016
 33
0.0
  0
SOLID
  5
14B0
330
DEB
100
AcDbEntity
  8
Quotature
  6
PUNTO2
 62
     0
370
     9
100
AcDbTrace
 10
145.2585028444548
 20
940.324368026016
 30
0.0
 11
146.0918361777882
 21
940.324368026016
 31
0.0
 12
145.6751695111215
 22
937.8243680260162
 32
0.0
 13
145.6751695111215
 23
937.8243680260162
 33
0.0
  0
MTEXT
  5
14B1
330
DEB
100
AcDbEntity
  8
Quotature
  6
PUNTO2
 62
     0
370
    13
100
AcDbMText
 10
139.0501695111214
 20
1062.824368026016
 30
0.0
 40
12.0
 41
0.0
 71
     5
 72
     1
  1
250
 11
0.0000000000000001
 21
1.0
 31
0.0
 73
     1
 44
1.0
1001
ACAD
1000
MTEXTBEGIN
1070
    73
1070
     1
1070
    44
1040
1.0
1070
    74
1070
     0
1000
MTEXTEND
  0
POINT
  5
14B2
330
DEB
100
AcDbEntity
  8
Defpoints
  6
PUNTO2
 62
     0
370
     9
100
AcDbPoint
 10
213.9879683262343
 20
1187.824368026016
 30
0.0
  0
POINT
  5
14B3
330
DEB
100
AcDbEntity
  8
Defpoints
  6
PUNTO2
 62
     0
370
     9
100
AcDbPoint
 10
213.9879683262343
 20
937.8243680260162
 30
0.0
  0
POINT
  5
14B4
330
DEB
100
AcDbEntity
  8
Defpoints
  6
PUNTO2
 62
     0
370
     9
100
AcDbPoint
 10
145.6751695111215
 20
937.8243680260162
 30
0.0
  0
ENDBLK
  5
DF6
330
DEB
100
AcDbEntity
  8
0
 62
     1
100
AcDbBlockEnd
  0
BLOCK
  5
E02
330
DF8
100
AcDbEntity
  8
0
 62
     1
100
AcDbBlockBegin
  2
*D28
 70
     1
 10
0.0
 20
0.0
 30
0.0
  3
*D28
  1

  0
LINE
  5
1521
330
DF8
100
AcDbEntity
  8
Quotature
  6
PUNTO2
 62
     0
370
    -2
100
AcDbLine
 10
213.9879683262343
 20
958.4493680260161
 30
0.0
 11
213.9879683262343
 21
975.5230287934418
 31
0.0
  0
LINE
  5
1522
330
DF8
100
AcDbEntity
  8
Quotature
  6
PUNTO2
 62
     0
370
    -2
100
AcDbLine
 10
193.9879683262342
 20
958.4493680260161
 30
0.0
 11
193.9879683262342
 21
975.5230287934418
 31
0.0
  0
LINE
  5
1523
330
DF8
100
AcDbEntity
  8
Quotature
  6
PUNTO2
 62
     0
370
    -2
100
AcDbLine
 10
211.4879683262343
 20
974.2730287934419
 30
0.0
 11
196.4879683262342
 21
974.2730287934419
 31
0.0
  0
SOLID
  5
1524
330
DF8
100
AcDbEntity
  8
Quotature
  6
PUNTO2
 62
     0
370
     9
100
AcDbTrace
 10
211.4879683262343
 20
974.6896954601085
 30
0.0
 11
211.4879683262343
 21
973.8563621267752
 31
0.0
 12
213.9879683262343
 22
974.2730287934419
 32
0.0
 13
213.9879683262343
 23
974.2730287934419
 33
0.0
  0
SOLID
  5
1525
330
DF8
100
AcDbEntity
  8
Quotature
  6
PUNTO2
 62
     0
370
     9
100
AcDbTrace
 10
196.4879683262342
 20
974.6896954601085
 30
0.0
 11
196.4879683262342
 21
973.8563621267752
 31
0.0
 12
193.9879683262342
 22
974.2730287934419
 32
0.0
 13
193.9879683262342
 23
974.2730287934419
 33
0.0
  0
MTEXT
  5
1526
330
DF8
100
AcDbEntity
  8
Quotature
  6
PUNTO2
 62
     0
370
    13
100
AcDbMText
 10
203.9879683262343
 20
980.8980287934419
 30
0.0
 40
12.0
 41
0.0
 71
     5
 72
     1
  1
20
 73
     1
 44
1.0
1001
ACAD
1000
MTEXTBEGIN
1070
    73
1070
     1
1070
    44
1040
1.0
1070
    74
1070
     0
1000
MTEXTEND
  0
POINT
  5
1527
330
DF8
100
AcDbEntity
  8
Defpoints
  6
PUNTO2
 62
     0
370
     9
100
AcDbPoint
 10
213.9879683262343
 20
957.8243680260161
 30
0.0
  0
POINT
  5
1528
330
DF8
100
AcDbEntity
  8
Defpoints
  6
PUNTO2
 62
     0
370
     9
100
AcDbPoint
 10
193.9879683262342
 20
957.8243680260161
 30
0.0
  0
POINT
  5
1529
330
DF8
100
AcDbEntity
  8
Defpoints
  6
PUNTO2
 62
     0
370
     9
100
AcDbPoint
 10
193.9879683262342
 20
974.2730287934419
 30
0.0
  0
ENDBLK
  5
E03
330
DF8
100
AcDbEntity
  8
0
 62
     1
100
AcDbBlockEnd
  0
BLOCK
  5
E29
330
E1F
100
AcDbEntity
  8
0
 62
     1
100
AcDbBlockBegin
  2
*D29
 70
     1
 10
0.0
 20
0.0
 30
0.0
  3
*D29
  1

  0
LINE
  5
1533
330
E1F
100
AcDbEntity
  8
Quotature
  6
PUNTO2
 62
     0
370
    -2
100
AcDbLine
 10
193.3629683262342
 20
957.8243680260161
 30
0.0
 11
170.7393224160714
 21
957.8243680260161
 31
0.0
  0
LINE
  5
1534
330
E1F
100
AcDbEntity
  8
Quotature
  6
PUNTO2
 62
     0
370
    -2
100
AcDbLine
 10
193.3629683262342
 20
937.8243680260162
 30
0.0
 11
170.7393224160714
 21
937.8243680260162
 31
0.0
  0
LINE
  5
1535
330
E1F
100
AcDbEntity
  8
Quotature
  6
PUNTO2
 62
     0
370
    -2
100
AcDbLine
 10
171.9893224160714
 20
955.3243680260161
 30
0.0
 11
171.9893224160714
 21
940.324368026016
 31
0.0
  0
SOLID
  5
1536
330
E1F
100
AcDbEntity
  8
Quotature
  6
PUNTO2
 62
     0
370
     9
100
AcDbTrace
 10
171.5726557494048
 20
955.3243680260161
 30
0.0
 11
172.4059890827381
 21
955.3243680260161
 31
0.0
 12
171.9893224160714
 22
957.8243680260161
 32
0.0
 13
171.9893224160714
 23
957.8243680260161
 33
0.0
  0
SOLID
  5
1537
330
E1F
100
AcDbEntity
  8
Quotature
  6
PUNTO2
 62
     0
370
     9
100
AcDbTrace
 10
171.5726557494048
 20
940.324368026016
 30
0.0
 11
172.4059890827381
 21
940.324368026016
 31
0.0
 12
171.9893224160714
 22
937.8243680260162
 32
0.0
 13
171.9893224160714
 23
937.8243680260162
 33
0.0
  0
MTEXT
  5
1538
330
E1F
100
AcDbEntity
  8
Quotature
  6
PUNTO2
 62
     0
370
    13
100
AcDbMText
 10
165.3643224160713
 20
947.8243680260161
 30
0.0
 40
12.0
 41
0.0
 71
     5
 72
     1
  1
20
 11
0.0000000000000001
 21
1.0
 31
0.0
 73
     1
 44
1.0
1001
ACAD
1000
MTEXTBEGIN
1070
    73
1070
     1
1070
    44
1040
1.0
1070
    74
1070
     0
1000
MTEXTEND
  0
POINT
  5
1539
330
E1F
100
AcDbEntity
  8
Defpoints
  6
PUNTO2
 62
     0
370
     9
100
AcDbPoint
 10
193.9879683262342
 20
957.8243680260161
 30
0.0
  0
POINT
  5
153A
330
E1F
100
AcDbEntity
  8
Defpoints
  6
PUNTO2
 62
     0
370
     9
100
AcDbPoint
 10
193.9879683262342
 20
937.8243680260162
 30
0.0
  0
POINT
  5
153B
330
E1F
100
AcDbEntity
  8
Defpoints
  6
PUNTO2
 62
     0
370
     9
100
AcDbPoint
 10
171.9893224160714
 20
937.8243680260162
 30
0.0
  0
ENDBLK
  5
E2A
330
E1F
100
AcDbEntity
  8
0
 62
     1
100
AcDbBlockEnd
  0
BLOCK
  5
E36
330
E2C
100
AcDbEntity
  8
0
 62
     1
100
AcDbBlockBegin
  2
*D30
 70
     1
 10
0.0
 20
0.0
 30
0.0
  3
*D30
  1

  0
LINE
  5
153C
330
E2C
100
AcDbEntity
  8
Quotature
  6
PUNTO2
 62
     0
370
    -2
100
AcDbLine
 10
214.6129683262343
 20
957.8243680260161
 30
0.0
 11
266.5349537107632
 21
957.8243680260159
 31
0.0
  0
LINE
  5
153D
330
E2C
100
AcDbEntity
  8
Quotature
  6
PUNTO2
 62
     0
370
    -2
100
AcDbLine
 10
214.6129683262342
 20
837.8243680260162
 30
0.0
 11
266.5349537107632
 21
837.824368026016
 31
0.0
  0
LINE
  5
153E
330
E2C
100
AcDbEntity
  8
Quotature
  6
PUNTO2
 62
     0
370
    -2
100
AcDbLine
 10
265.2849537107632
 20
955.3243680260161
 30
0.0
 11
265.2849537107631
 21
840.324368026016
 31
0.0
  0
SOLID
  5
153F
330
E2C
100
AcDbEntity
  8
Quotature
  6
PUNTO2
 62
     0
370
     9
100
AcDbTrace
 10
264.8682870440965
 20
955.3243680260161
 30
0.0
 11
265.7016203774299
 21
955.3243680260161
 31
0.0
 12
265.2849537107632
 22
957.8243680260159
 32
0.0
 13
265.2849537107632
 23
957.8243680260159
 33
0.0
  0
SOLID
  5
1540
330
E2C
100
AcDbEntity
  8
Quotature
  6
PUNTO2
 62
     0
370
     9
100
AcDbTrace
 10
264.8682870440965
 20
840.324368026016
 30
0.0
 11
265.7016203774298
 21
840.324368026016
 31
0.0
 12
265.2849537107631
 22
837.824368026016
 32
0.0
 13
265.2849537107631
 23
837.824368026016
 33
0.0
  0
MTEXT
  5
1541
330
E2C
100
AcDbEntity
  8
Quotature
  6
PUNTO2
 62
     0
370
    13
100
AcDbMText
 10
258.659953710763
 20
897.8243680260161
 30
0.0
 40
12.0
 41
0.0
 71
     5
 72
     1
  1
120
 11
0.0000000000000001
 21
1.0
 31
0.0
 73
     1
 44
1.0
1001
ACAD
1000
MTEXTBEGIN
1070
    73
1070
     1
1070
    44
1040
1.0
1070
    74
1070
     0
1000
MTEXTEND
  0
POINT
  5
1542
330
E2C
100
AcDbEntity
  8
Defpoints
  6
PUNTO2
 62
     0
370
     9
100
AcDbPoint
 10
213.9879683262343
 20
957.8243680260161
 30
0.0
  0
POINT
  5
1543
330
E2C
100
AcDbEntity
  8
Defpoints
  6
PUNTO2
 62
     0
370
     9
100
AcDbPoint
 10
213.9879683262342
 20
837.8243680260162
 30
0.0
  0
POINT
  5
1544
330
E2C
100
AcDbEntity
  8
Defpoints
  6
PUNTO2
 62
     0
370
     9
100
AcDbPoint
 10
265.2849537107631
 20
837.824368026016
 30
0.0
  0
ENDBLK
  5
E37
330
E2C
100
AcDbEntity
  8
0
 62
     1
100
AcDbBlockEnd
  0
BLOCK
  5
F2E
330
F24
100
AcDbEntity
  8
0
 62
     5
370
     5
100
AcDbBlockBegin
  2
*D31
 70
     1
 10
0.0
 20
0.0
 30
0.0
  3
*D31
  1

  0
LINE
  5
1506
330
F24
100
AcDbEntity
  8
Quotature
  6
PUNTO2
 62
     0
370
    -2
100
AcDbLine
 10
-306.0120316737657
 20
837.199368026016
 30
0.0
 11
-306.0120316737657
 21
796.3677897880042
 31
0.0
  0
LINE
  5
1507
330
F24
100
AcDbEntity
  8
Quotature
  6
PUNTO2
 62
     0
370
    -2
100
AcDbLine
 10
233.9879683262342
 20
837.199368026016
 30
0.0
 11
233.9879683262342
 21
796.3677897880042
 31
0.0
  0
LINE
  5
1508
330
F24
100
AcDbEntity
  8
Quotature
  6
PUNTO2
 62
     0
370
    -2
100
AcDbLine
 10
-303.5120316737657
 20
797.6177897880043
 30
0.0
 11
231.4879683262343
 21
797.6177897880043
 31
0.0
  0
SOLID
  5
1509
330
F24
100
AcDbEntity
  8
Quotature
  6
PUNTO2
 62
     0
370
     9
100
AcDbTrace
 10
-303.5120316737657
 20
798.0344564546709
 30
0.0
 11
-303.5120316737657
 21
797.2011231213376
 31
0.0
 12
-306.0120316737657
 22
797.6177897880043
 32
0.0
 13
-306.0120316737657
 23
797.6177897880043
 33
0.0
  0
SOLID
  5
150A
330
F24
100
AcDbEntity
  8
Quotature
  6
PUNTO2
 62
     0
370
     9
100
AcDbTrace
 10
231.4879683262343
 20
798.0344564546709
 30
0.0
 11
231.4879683262343
 21
797.2011231213376
 31
0.0
 12
233.9879683262342
 22
797.6177897880043
 32
0.0
 13
233.9879683262342
 23
797.6177897880043
 33
0.0
  0
MTEXT
  5
150B
330
F24
100
AcDbEntity
  8
Quotature
  6
PUNTO2
 62
     0
370
    13
100
AcDbMText
 10
-36.01203167376572
 20
804.2427897880042
 30
0.0
 40
12.0
 41
0.0
 71
     5
 72
     1
  1
540
 73
     1
 44
1.0
1001
ACAD
1000
MTEXTBEGIN
1070
    73
1070
     1
1070
    44
1040
1.0
1070
    74
1070
     0
1000
MTEXTEND
  0
POINT
  5
150C
330
F24
100
AcDbEntity
  8
Defpoints
  6
PUNTO2
 62
     0
370
     9
100
AcDbPoint
 10
-306.0120316737657
 20
837.8243680260162
 30
0.0
  0
POINT
  5
150D
330
F24
100
AcDbEntity
  8
Defpoints
  6
PUNTO2
 62
     0
370
     9
100
AcDbPoint
 10
233.9879683262342
 20
837.8243680260162
 30
0.0
  0
POINT
  5
150E
330
F24
100
AcDbEntity
  8
Defpoints
  6
PUNTO2
 62
     0
370
     9
100
AcDbPoint
 10
233.9879683262342
 20
797.6177897880043
 30
0.0
  0
ENDBLK
  5
F2F
330
F24
100
AcDbEntity
  8
0
 62
     5
370
     5
100
AcDbBlockEnd
  0
BLOCK
  5
F5B
330
F51
100
AcDbEntity
  8
0
 62
     5
370
     5
100
AcDbBlockBegin
  2
*D32
 70
     1
 10
0.0
 20
0.0
 30
0.0
  3
*D32
  1

  0
LINE
  5
16A0
330
F51
100
AcDbEntity
  8
Quotature
  6
PUNTO2
 62
     0
370
    -2
100
AcDbLine
 10
676.9390746303281
 20
690.6408447998293
 30
0.0
 11
676.9390746303281
 21
751.292125562491
 31
0.0
  0
LINE
  5
16A1
330
F51
100
AcDbEntity
  8
Quotature
  6
PUNTO2
 62
     0
370
    -2
100
AcDbLine
 10
136.9390746303281
 20
690.6408447998293
 30
0.0
 11
136.9390746303281
 21
751.292125562491
 31
0.0
  0
LINE
  5
16A2
330
F51
100
AcDbEntity
  8
Quotature
  6
PUNTO2
 62
     0
370
    -2
100
AcDbLine
 10
674.4390746303281
 20
750.042125562491
 30
0.0
 11
139.4390746303281
 21
750.042125562491
 31
0.0
  0
SOLID
  5
16A3
330
F51
100
AcDbEntity
  8
Quotature
  6
PUNTO2
 62
     0
370
     9
100
AcDbTrace
 10
674.4390746303281
 20
750.4587922291577
 30
0.0
 11
674.4390746303281
 21
749.6254588958244
 31
0.0
 12
676.9390746303281
 22
750.042125562491
 32
0.0
 13
676.9390746303281
 23
750.042125562491
 33
0.0
  0
SOLID
  5
16A4
330
F51
100
AcDbEntity
  8
Quotature
  6
PUNTO2
 62
     0
370
     9
100
AcDbTrace
 10
139.4390746303281
 20
750.4587922291577
 30
0.0
 11
139.4390746303281
 21
749.6254588958244
 31
0.0
 12
136.9390746303281
 22
750.042125562491
 32
0.0
 13
136.9390746303281
 23
750.042125562491
 33
0.0
  0
MTEXT
  5
16A5
330
F51
100
AcDbEntity
  8
Quotature
  6
PUNTO2
 62
     0
370
     9
100
AcDbMText
 10
406.9390746303281
 20
756.667125562491
 30
0.0
 40
12.0
 41
0.0
 71
     5
 72
     1
  1
540
 73
     1
 44
1.0
1001
ACAD
1000
MTEXTBEGIN
1070
    73
1070
     1
1070
    44
1040
1.0
1070
    74
1070
     0
1000
MTEXTEND
  0
POINT
  5
16A6
330
F51
100
AcDbEntity
  8
Defpoints
  6
PUNTO2
 62
     0
370
     9
100
AcDbPoint
 10
676.9390746303281
 20
690.0158447998293
 30
0.0
  0
POINT
  5
16A7
330
F51
100
AcDbEntity
  8
Defpoints
  6
PUNTO2
 62
     0
370
     9
100
AcDbPoint
 10
136.9390746303281
 20
690.0158447998293
 30
0.0
  0
POINT
  5
16A8
330
F51
100
AcDbEntity
  8
Defpoints
  6
PUNTO2
 62
     0
370
     9
100
AcDbPoint
 10
136.9390746303281
 20
750.042125562491
 30
0.0
  0
ENDBLK
  5
F5C
330
F51
100
AcDbEntity
  8
0
 62
     5
370
     5
100
AcDbBlockEnd
  0
BLOCK
  5
F84
330
F7A
100
AcDbEntity
  8
0
 62
     5
370
     5
100
AcDbBlockBegin
  2
*D33
 70
     1
 10
0.0
 20
0.0
 30
0.0
  3
*D33
  1

  0
LINE
  5
1697
330
F7A
100
AcDbEntity
  8
Quotature
  6
PUNTO2
 62
     0
370
    -2
100
AcDbLine
 10
234.6129683262343
 20
1207.824368026016
 30
0.0
 11
308.270745060012
 21
1207.824368026016
 31
0.0
  0
LINE
  5
1698
330
F7A
100
AcDbEntity
  8
Quotature
  6
PUNTO2
 62
     0
370
    -2
100
AcDbLine
 10
213.9879683262343
 20
837.8243680260162
 30
0.0
 11
308.2707450600119
 21
837.824368026016
 31
0.0
  0
LINE
  5
1699
330
F7A
100
AcDbEntity
  8
Quotature
  6
PUNTO2
 62
     0
370
    -2
100
AcDbLine
 10
307.020745060012
 20
1205.324368026016
 30
0.0
 11
307.0207450600119
 21
840.324368026016
 31
0.0
  0
SOLID
  5
169A
330
F7A
100
AcDbEntity
  8
Quotature
  6
PUNTO2
 62
     0
370
     9
100
AcDbTrace
 10
306.6040783933453
 20
1205.324368026016
 30
0.0
 11
307.4374117266787
 21
1205.324368026016
 31
0.0
 12
307.020745060012
 22
1207.824368026016
 32
0.0
 13
307.020745060012
 23
1207.824368026016
 33
0.0
  0
SOLID
  5
169B
330
F7A
100
AcDbEntity
  8
Quotature
  6
PUNTO2
 62
     0
370
     9
100
AcDbTrace
 10
306.6040783933452
 20
840.324368026016
 30
0.0
 11
307.4374117266786
 21
840.324368026016
 31
0.0
 12
307.0207450600119
 22
837.824368026016
 32
0.0
 13
307.0207450600119
 23
837.824368026016
 33
0.0
  0
MTEXT
  5
169C
330
F7A
100
AcDbEntity
  8
Quotature
  6
PUNTO2
 62
     0
370
     9
100
AcDbMText
 10
300.3957450600118
 20
1022.824368026016
 30
0.0
 40
12.0
 41
0.0
 71
     5
 72
     1
  1
370
 11
0.0000000000000001
 21
1.0
 31
0.0
 73
     1
 44
1.0
1001
ACAD
1000
MTEXTBEGIN
1070
    73
1070
     1
1070
    44
1040
1.0
1070
    74
1070
     0
1000
MTEXTEND
  0
POINT
  5
169D
330
F7A
100
AcDbEntity
  8
Defpoints
  6
PUNTO2
 62
     0
370
     9
100
AcDbPoint
 10
233.9879683262343
 20
1207.824368026016
 30
0.0
  0
POINT
  5
169E
330
F7A
100
AcDbEntity
  8
Defpoints
  6
PUNTO2
 62
     0
370
     9
100
AcDbPoint
 10
213.3629683262343
 20
837.8243680260162
 30
0.0
  0
POINT
  5
169F
330
F7A
100
AcDbEntity
  8
Defpoints
  6
PUNTO2
 62
     0
370
     9
100
AcDbPoint
 10
307.0207450600119
 20
837.824368026016
 30
0.0
  0
ENDBLK
  5
F85
330
F7A
100
AcDbEntity
  8
0
 62
     5
370
     5
100
AcDbBlockEnd
  0
BLOCK
  5
1034
330
102A
100
AcDbEntity
  8
0
100
AcDbBlockBegin
  2
*D36
 70
     1
 10
0.0
 20
0.0
 30
0.0
  3
*D36
  1

  0
LINE
  5
1703
330
102A
100
AcDbEntity
  8
Quotature
  6
PUNTO2
 62
     0
370
    -2
100
AcDbLine
 10
422.9398251764114
 20
1268.143276341167
 30
0.0
 11
422.9398251764114
 21
1309.487170153842
 31
0.0
  0
LINE
  5
1704
330
102A
100
AcDbEntity
  8
Quotature
  6
PUNTO2
 62
     0
370
    -2
100
AcDbLine
 10
962.9398251764113
 20
1268.143276341167
 30
0.0
 11
962.9398251764113
 21
1309.487170153842
 31
0.0
  0
LINE
  5
1705
330
102A
100
AcDbEntity
  8
Quotature
  6
PUNTO2
 62
     0
370
    -2
100
AcDbLine
 10
425.4398251764114
 20
1308.237170153842
 30
0.0
 11
960.4398251764115
 21
1308.237170153842
 31
0.0
  0
SOLID
  5
1706
330
102A
100
AcDbEntity
  8
Quotature
  6
PUNTO2
 62
     0
370
     9
100
AcDbTrace
 10
425.4398251764114
 20
1308.653836820509
 30
0.0
 11
425.4398251764114
 21
1307.820503487175
 31
0.0
 12
422.9398251764114
 22
1308.237170153842
 32
0.0
 13
422.9398251764114
 23
1308.237170153842
 33
0.0
  0
SOLID
  5
1707
330
102A
100
AcDbEntity
  8
Quotature
  6
PUNTO2
 62
     0
370
     9
100
AcDbTrace
 10
960.4398251764115
 20
1308.653836820509
 30
0.0
 11
960.4398251764115
 21
1307.820503487175
 31
0.0
 12
962.9398251764113
 22
1308.237170153842
 32
0.0
 13
962.9398251764113
 23
1308.237170153842
 33
0.0
  0
MTEXT
  5
1708
330
102A
100
AcDbEntity
  8
Quotature
  6
PUNTO2
 62
     0
370
     9
100
AcDbMText
 10
692.9398251764114
 20
1314.862170153842
 30
0.0
 40
12.0
 41
0.0
 71
     5
 72
     1
  1
540
 73
     1
 44
1.0
1001
ACAD
1000
MTEXTBEGIN
1070
    73
1070
     1
1070
    44
1040
1.0
1070
    74
1070
     0
1000
MTEXTEND
  0
POINT
  5
1709
330
102A
100
AcDbEntity
  8
Defpoints
  6
PUNTO2
 62
     0
370
     9
100
AcDbPoint
 10
422.9398251764114
 20
1267.518276341166
 30
0.0
  0
POINT
  5
170A
330
102A
100
AcDbEntity
  8
Defpoints
  6
PUNTO2
 62
     0
370
     9
100
AcDbPoint
 10
962.9398251764113
 20
1267.518276341166
 30
0.0
  0
POINT
  5
170B
330
102A
100
AcDbEntity
  8
Defpoints
  6
PUNTO2
 62
     0
370
     9
100
AcDbPoint
 10
962.9398251764113
 20
1308.237170153842
 30
0.0
  0
ENDBLK
  5
1035
330
102A
100
AcDbEntity
  8
0
100
AcDbBlockEnd
  0
BLOCK
  5
1041
330
1037
100
AcDbEntity
  8
0
100
AcDbBlockBegin
  2
*D37
 70
     1
 10
0.0
 20
0.0
 30
0.0
  3
*D37
  1

  0
LINE
  5
170C
330
1037
100
AcDbEntity
  8
Quotature
  6
PUNTO2
 62
     0
370
    -2
100
AcDbLine
 10
963.5648251764115
 20
1267.518276341166
 30
0.0
 11
1014.528748545199
 21
1267.518276341166
 31
0.0
  0
LINE
  5
170D
330
1037
100
AcDbEntity
  8
Quotature
  6
PUNTO2
 62
     0
370
    -2
100
AcDbLine
 10
963.5648251764115
 20
1147.518276341166
 30
0.0
 11
1014.528748545199
 21
1147.518276341166
 31
0.0
  0
LINE
  5
170E
330
1037
100
AcDbEntity
  8
Quotature
  6
PUNTO2
 62
     0
370
    -2
100
AcDbLine
 10
1013.278748545199
 20
1265.018276341167
 30
0.0
 11
1013.278748545199
 21
1150.018276341167
 31
0.0
  0
SOLID
  5
170F
330
1037
100
AcDbEntity
  8
Quotature
  6
PUNTO2
 62
     0
370
     9
100
AcDbTrace
 10
1012.862081878532
 20
1265.018276341167
 30
0.0
 11
1013.695415211866
 21
1265.018276341167
 31
0.0
 12
1013.278748545199
 22
1267.518276341166
 32
0.0
 13
1013.278748545199
 23
1267.518276341166
 33
0.0
  0
SOLID
  5
1710
330
1037
100
AcDbEntity
  8
Quotature
  6
PUNTO2
 62
     0
370
     9
100
AcDbTrace
 10
1012.862081878532
 20
1150.018276341167
 30
0.0
 11
1013.695415211866
 21
1150.018276341167
 31
0.0
 12
1013.278748545199
 22
1147.518276341166
 32
0.0
 13
1013.278748545199
 23
1147.518276341166
 33
0.0
  0
MTEXT
  5
1711
330
1037
100
AcDbEntity
  8
Quotature
  6
PUNTO2
 62
     0
370
     9
100
AcDbMText
 10
1006.653748545199
 20
1207.518276341167
 30
0.0
 40
12.0
 41
0.0
 71
     5
 72
     1
  1
120
 11
0.0000000000000001
 21
1.0
 31
0.0
 73
     1
 44
1.0
1001
ACAD
1000
MTEXTBEGIN
1070
    73
1070
     1
1070
    44
1040
1.0
1070
    74
1070
     0
1000
MTEXTEND
  0
POINT
  5
1712
330
1037
100
AcDbEntity
  8
Defpoints
  6
PUNTO2
 62
     0
370
     9
100
AcDbPoint
 10
962.9398251764113
 20
1267.518276341166
 30
0.0
  0
POINT
  5
1713
330
1037
100
AcDbEntity
  8
Defpoints
  6
PUNTO2
 62
     0
370
     9
100
AcDbPoint
 10
962.9398251764113
 20
1147.518276341166
 30
0.0
  0
POINT
  5
1714
330
1037
100
AcDbEntity
  8
Defpoints
  6
PUNTO2
 62
     0
370
     9
100
AcDbPoint
 10
1013.278748545199
 20
1147.518276341166
 30
0.0
  0
ENDBLK
  5
1042
330
1037
100
AcDbEntity
  8
0
100
AcDbBlockEnd
  0
BLOCK
  5
1068
330
105E
100
AcDbEntity
  8
0
100
AcDbBlockBegin
  2
*D38
 70
     1
 10
0.0
 20
0.0
 30
0.0
  3
*D38
  1

  0
LINE
  5
1491
330
105E
100
AcDbEntity
  8
Quotature
  6
PUNTO2
 62
     0
370
    -2
100
AcDbLine
 10
212.7379683262343
 20
1187.824368026016
 30
0.0
 11
-45.47323004715962
 21
1187.824368026016
 31
0.0
  0
LINE
  5
1492
330
105E
100
AcDbEntity
  8
Quotature
  6
PUNTO2
 62
     0
370
    -2
100
AcDbLine
 10
213.3629683262343
 20
1107.824368026016
 30
0.0
 11
-45.47323004715964
 21
1107.824368026016
 31
0.0
  0
LINE
  5
1493
330
105E
100
AcDbEntity
  8
Quotature
  6
PUNTO2
 62
     0
370
    -2
100
AcDbLine
 10
-44.22323004715962
 20
1185.324368026016
 30
0.0
 11
-44.22323004715964
 21
1110.324368026016
 31
0.0
  0
SOLID
  5
1494
330
105E
100
AcDbEntity
  8
Quotature
  6
PUNTO2
 62
     0
370
     9
100
AcDbTrace
 10
-44.63989671382629
 20
1185.324368026016
 30
0.0
 11
-43.80656338049296
 21
1185.324368026016
 31
0.0
 12
-44.22323004715962
 22
1187.824368026016
 32
0.0
 13
-44.22323004715962
 23
1187.824368026016
 33
0.0
  0
SOLID
  5
1495
330
105E
100
AcDbEntity
  8
Quotature
  6
PUNTO2
 62
     0
370
     9
100
AcDbTrace
 10
-44.6398967138263
 20
1110.324368026016
 30
0.0
 11
-43.80656338049297
 21
1110.324368026016
 31
0.0
 12
-44.22323004715964
 22
1107.824368026016
 32
0.0
 13
-44.22323004715964
 23
1107.824368026016
 33
0.0
  0
MTEXT
  5
1496
330
105E
100
AcDbEntity
  8
Quotature
  6
PUNTO2
 62
     0
370
    13
100
AcDbMText
 10
-50.84823004715982
 20
1147.824368026016
 30
0.0
 40
12.0
 41
0.0
 71
     5
 72
     1
  1
80
 11
0.0000000000000001
 21
1.0
 31
0.0
 73
     1
 44
1.0
1001
ACAD
1000
MTEXTBEGIN
1070
    73
1070
     1
1070
    44
1040
1.0
1070
    74
1070
     0
1000
MTEXTEND
  0
POINT
  5
1497
330
105E
100
AcDbEntity
  8
Defpoints
  6
PUNTO2
 62
     0
370
     9
100
AcDbPoint
 10
213.3629683262343
 20
1187.824368026016
 30
0.0
  0
POINT
  5
1498
330
105E
100
AcDbEntity
  8
Defpoints
  6
PUNTO2
 62
     0
370
     9
100
AcDbPoint
 10
213.9879683262343
 20
1107.824368026016
 30
0.0
  0
POINT
  5
1499
330
105E
100
AcDbEntity
  8
Defpoints
  6
PUNTO2
 62
     0
370
     9
100
AcDbPoint
 10
-44.22323004715964
 20
1107.824368026016
 30
0.0
  0
ENDBLK
  5
1069
330
105E
100
AcDbEntity
  8
0
100
AcDbBlockEnd
  0
BLOCK
  5
1602
330
15F8
100
AcDbEntity
  8
0
 62
     5
370
     9
100
AcDbBlockBegin
  2
*D39
 70
     1
 10
0.0
 20
0.0
 30
0.0
  3
*D39
  1

  0
LINE
  5
16F1
330
15F8
100
AcDbEntity
  8
Quotature
  6
PUNTO2
 62
     0
370
    -2
100
AcDbLine
 10
400.2670673398061
 20
1049.069281654731
 30
0.0
 11
400.2670673398061
 21
1087.013740573662
 31
0.0
  0
LINE
  5
16F2
330
15F8
100
AcDbEntity
  8
Quotature
  6
PUNTO2
 62
     0
370
    -2
100
AcDbLine
 10
940.2670673398061
 20
1049.069281654731
 30
0.0
 11
940.2670673398061
 21
1087.013740573662
 31
0.0
  0
LINE
  5
16F3
330
15F8
100
AcDbEntity
  8
Quotature
  6
PUNTO2
 62
     0
370
    -2
100
AcDbLine
 10
402.7670673398061
 20
1085.763740573662
 30
0.0
 11
937.7670673398061
 21
1085.763740573662
 31
0.0
  0
SOLID
  5
16F4
330
15F8
100
AcDbEntity
  8
Quotature
  6
PUNTO2
 62
     0
370
     9
100
AcDbTrace
 10
402.7670673398061
 20
1086.180407240329
 30
0.0
 11
402.7670673398061
 21
1085.347073906995
 31
0.0
 12
400.2670673398061
 22
1085.763740573662
 32
0.0
 13
400.2670673398061
 23
1085.763740573662
 33
0.0
  0
SOLID
  5
16F5
330
15F8
100
AcDbEntity
  8
Quotature
  6
PUNTO2
 62
     0
370
     9
100
AcDbTrace
 10
937.7670673398061
 20
1086.180407240329
 30
0.0
 11
937.7670673398061
 21
1085.347073906995
 31
0.0
 12
940.2670673398061
 22
1085.763740573662
 32
0.0
 13
940.2670673398061
 23
1085.763740573662
 33
0.0
  0
MTEXT
  5
16F6
330
15F8
100
AcDbEntity
  8
Quotature
  6
PUNTO2
 62
     0
370
     9
100
AcDbMText
 10
670.2670673398061
 20
1092.388740573662
 30
0.0
 40
12.0
 41
0.0
 71
     5
 72
     1
  1
540
 73
     1
 44
1.0
1001
ACAD
1000
MTEXTBEGIN
1070
    73
1070
     1
1070
    44
1040
1.0
1070
    74
1070
     0
1000
MTEXTEND
  0
POINT
  5
16F7
330
15F8
100
AcDbEntity
  8
Defpoints
  6
PUNTO2
 62
     0
370
     9
100
AcDbPoint
 10
400.2670673398061
 20
1048.444281654731
 30
0.0
  0
POINT
  5
16F8
330
15F8
100
AcDbEntity
  8
Defpoints
  6
PUNTO2
 62
     0
370
     9
100
AcDbPoint
 10
940.2670673398061
 20
1048.444281654731
 30
0.0
  0
POINT
  5
16F9
330
15F8
100
AcDbEntity
  8
Defpoints
  6
PUNTO2
 62
     0
370
     9
100
AcDbPoint
 10
940.2670673398061
 20
1085.763740573662
 30
0.0
  0
ENDBLK
  5
1603
330
15F8
100
AcDbEntity
  8
0
 62
     5
370
     9
100
AcDbBlockEnd
  0
BLOCK
  5
160F
330
1605
100
AcDbEntity
  8
0
 62
     5
370
     9
100
AcDbBlockBegin
  2
*D40
 70
     1
 10
0.0
 20
0.0
 30
0.0
  3
*D40
  1

  0
LINE
  5
16FA
330
1605
100
AcDbEntity
  8
Quotature
  6
PUNTO2
 62
     0
370
    -2
100
AcDbLine
 10
940.8920673398061
 20
1048.444281654731
 30
0.0
 11
964.9678633867805
 21
1048.444281654731
 31
0.0
  0
LINE
  5
16FB
330
1605
100
AcDbEntity
  8
Quotature
  6
PUNTO2
 62
     0
370
    -2
100
AcDbLine
 10
940.8920673398061
 20
1028.444281654731
 30
0.0
 11
964.9678633867805
 21
1028.444281654731
 31
0.0
  0
LINE
  5
16FC
330
1605
100
AcDbEntity
  8
Quotature
  6
PUNTO2
 62
     0
370
    -2
100
AcDbLine
 10
963.7178633867806
 20
1045.944281654731
 30
0.0
 11
963.7178633867806
 21
1030.944281654731
 31
0.0
  0
SOLID
  5
16FD
330
1605
100
AcDbEntity
  8
Quotature
  6
PUNTO2
 62
     0
370
     9
100
AcDbTrace
 10
963.301196720114
 20
1045.944281654731
 30
0.0
 11
964.1345300534473
 21
1045.944281654731
 31
0.0
 12
963.7178633867806
 22
1048.444281654731
 32
0.0
 13
963.7178633867806
 23
1048.444281654731
 33
0.0
  0
SOLID
  5
16FE
330
1605
100
AcDbEntity
  8
Quotature
  6
PUNTO2
 62
     0
370
     9
100
AcDbTrace
 10
963.301196720114
 20
1030.944281654731
 30
0.0
 11
964.1345300534473
 21
1030.944281654731
 31
0.0
 12
963.7178633867806
 22
1028.444281654731
 32
0.0
 13
963.7178633867806
 23
1028.444281654731
 33
0.0
  0
MTEXT
  5
16FF
330
1605
100
AcDbEntity
  8
Quotature
  6
PUNTO2
 62
     0
370
     9
100
AcDbMText
 10
957.0928633867806
 20
1038.444281654731
 30
0.0
 40
12.0
 41
0.0
 71
     5
 72
     1
  1
20
 11
0.0000000000000001
 21
1.0
 31
0.0
 73
     1
 44
1.0
1001
ACAD
1000
MTEXTBEGIN
1070
    73
1070
     1
1070
    44
1040
1.0
1070
    74
1070
     0
1000
MTEXTEND
  0
POINT
  5
1700
330
1605
100
AcDbEntity
  8
Defpoints
  6
PUNTO2
 62
     0
370
     9
100
AcDbPoint
 10
940.2670673398061
 20
1048.444281654731
 30
0.0
  0
POINT
  5
1701
330
1605
100
AcDbEntity
  8
Defpoints
  6
PUNTO2
 62
     0
370
     9
100
AcDbPoint
 10
940.2670673398061
 20
1028.444281654731
 30
0.0
  0
POINT
  5
1702
330
1605
100
AcDbEntity
  8
Defpoints
  6
PUNTO2
 62
     0
370
     9
100
AcDbPoint
 10
963.7178633867806
 20
1028.444281654731
 30
0.0
  0
ENDBLK
  5
1610
330
1605
100
AcDbEntity
  8
0
 62
     5
370
     9
100
AcDbBlockEnd
  0
BLOCK
  5
161C
330
1612
100
AcDbEntity
  8
0
 62
     5
370
     9
100
AcDbBlockBegin
  2
*D41
 70
     1
 10
0.0
 20
0.0
 30
0.0
  3
*D41
  1

  0
LINE
  5
16E8
330
1612
100
AcDbEntity
  8
Quotature
  6
PUNTO2
 62
     0
370
    -2
100
AcDbLine
 10
399.6420673398061
 20
1048.444281654731
 30
0.0
 11
370.0651862195937
 21
1048.444281654731
 31
0.0
  0
LINE
  5
16E9
330
1612
100
AcDbEntity
  8
Quotature
  6
PUNTO2
 62
     0
370
    -2
100
AcDbLine
 10
419.642067339806
 20
928.4442816547311
 30
0.0
 11
370.0651862195937
 21
928.4442816547311
 31
0.0
  0
LINE
  5
16EA
330
1612
100
AcDbEntity
  8
Quotature
  6
PUNTO2
 62
     0
370
    -2
100
AcDbLine
 10
371.3151862195937
 20
1045.944281654731
 30
0.0
 11
371.3151862195937
 21
930.9442816547312
 31
0.0
  0
SOLID
  5
16EB
330
1612
100
AcDbEntity
  8
Quotature
  6
PUNTO2
 62
     0
370
     9
100
AcDbTrace
 10
370.898519552927
 20
1045.944281654731
 30
0.0
 11
371.7318528862604
 21
1045.944281654731
 31
0.0
 12
371.3151862195937
 22
1048.444281654731
 32
0.0
 13
371.3151862195937
 23
1048.444281654731
 33
0.0
  0
SOLID
  5
16EC
330
1612
100
AcDbEntity
  8
Quotature
  6
PUNTO2
 62
     0
370
     9
100
AcDbTrace
 10
370.898519552927
 20
930.9442816547312
 30
0.0
 11
371.7318528862604
 21
930.9442816547312
 31
0.0
 12
371.3151862195937
 22
928.4442816547311
 32
0.0
 13
371.3151862195937
 23
928.4442816547311
 33
0.0
  0
MTEXT
  5
16ED
330
1612
100
AcDbEntity
  8
Quotature
  6
PUNTO2
 62
     0
370
     9
100
AcDbMText
 10
364.6901862195935
 20
988.4442816547311
 30
0.0
 40
12.0
 41
0.0
 71
     5
 72
     1
  1
120
 11
0.0000000000000001
 21
1.0
 31
0.0
 73
     1
 44
1.0
1001
ACAD
1000
MTEXTBEGIN
1070
    73
1070
     1
1070
    44
1040
1.0
1070
    74
1070
     0
1000
MTEXTEND
  0
POINT
  5
16EE
330
1612
100
AcDbEntity
  8
Defpoints
  6
PUNTO2
 62
     0
370
     9
100
AcDbPoint
 10
400.2670673398061
 20
1048.444281654731
 30
0.0
  0
POINT
  5
16EF
330
1612
100
AcDbEntity
  8
Defpoints
  6
PUNTO2
 62
     0
370
     9
100
AcDbPoint
 10
420.2670673398061
 20
928.4442816547311
 30
0.0
  0
POINT
  5
16F0
330
1612
100
AcDbEntity
  8
Defpoints
  6
PUNTO2
 62
     0
370
     9
100
AcDbPoint
 10
371.3151862195937
 20
928.4442816547311
 30
0.0
  0
ENDBLK
  5
161D
330
1612
100
AcDbEntity
  8
0
 62
     5
370
     9
100
AcDbBlockEnd
  0
BLOCK
  5
1629
330
161F
100
AcDbEntity
  8
0
 62
     5
370
     9
100
AcDbBlockBegin
  2
*D42
 70
     1
 10
0.0
 20
0.0
 30
0.0
  3
*D42
  1

  0
LINE
  5
166A
330
161F
100
AcDbEntity
  8
Quotature
  6
PUNTO2
 62
     0
370
    -2
100
AcDbLine
 10
420.2670673398061
 20
927.8192816547312
 30
0.0
 11
420.2670673398061
 21
893.5378801838542
 31
0.0
  0
LINE
  5
166B
330
161F
100
AcDbEntity
  8
Quotature
  6
PUNTO2
 62
     0
370
    -2
100
AcDbLine
 10
920.267067339806
 20
927.8192816547312
 30
0.0
 11
920.267067339806
 21
893.5378801838542
 31
0.0
  0
LINE
  5
166C
330
161F
100
AcDbEntity
  8
Quotature
  6
PUNTO2
 62
     0
370
    -2
100
AcDbLine
 10
422.767067339806
 20
894.7878801838541
 30
0.0
 11
917.7670673398061
 21
894.7878801838541
 31
0.0
  0
SOLID
  5
166D
330
161F
100
AcDbEntity
  8
Quotature
  6
PUNTO2
 62
     0
370
     9
100
AcDbTrace
 10
422.767067339806
 20
895.2045468505207
 30
0.0
 11
422.767067339806
 21
894.3712135171876
 31
0.0
 12
420.2670673398061
 22
894.7878801838541
 32
0.0
 13
420.2670673398061
 23
894.7878801838541
 33
0.0
  0
SOLID
  5
166E
330
161F
100
AcDbEntity
  8
Quotature
  6
PUNTO2
 62
     0
370
     9
100
AcDbTrace
 10
917.7670673398061
 20
895.2045468505207
 30
0.0
 11
917.7670673398061
 21
894.3712135171876
 31
0.0
 12
920.267067339806
 22
894.7878801838541
 32
0.0
 13
920.267067339806
 23
894.7878801838541
 33
0.0
  0
MTEXT
  5
166F
330
161F
100
AcDbEntity
  8
Quotature
  6
PUNTO2
 62
     0
370
     9
100
AcDbMText
 10
670.2670673398061
 20
901.4128801838541
 30
0.0
 40
12.0
 41
0.0
 71
     5
 72
     1
  1
500
 73
     1
 44
1.0
1001
ACAD
1000
MTEXTBEGIN
1070
    73
1070
     1
1070
    44
1040
1.0
1070
    74
1070
     0
1000
MTEXTEND
  0
POINT
  5
1670
330
161F
100
AcDbEntity
  8
Defpoints
  6
PUNTO2
 62
     0
370
     9
100
AcDbPoint
 10
420.2670673398061
 20
928.4442816547311
 30
0.0
  0
POINT
  5
1671
330
161F
100
AcDbEntity
  8
Defpoints
  6
PUNTO2
 62
     0
370
     9
100
AcDbPoint
 10
920.267067339806
 20
928.4442816547311
 30
0.0
  0
POINT
  5
1672
330
161F
100
AcDbEntity
  8
Defpoints
  6
PUNTO2
 62
     0
370
     9
100
AcDbPoint
 10
920.267067339806
 20
894.7878801838541
 30
0.0
  0
ENDBLK
  5
162A
330
161F
100
AcDbEntity
  8
0
 62
     5
370
     9
100
AcDbBlockEnd
  0
BLOCK
  5
17C6
330
17C4
100
AcDbEntity
  8
0
 62
     5
370
     9
100
AcDbBlockBegin
  2
GENAXEH
 70
     0
 10
0.0
 20
0.0
 30
0.0
  3
GENAXEH
  1

  0
LINE
  5
17C5
330
17C4
100
AcDbEntity
  8
0
100
AcDbLine
 10
-1.0
 20
0.0
 30
0.0
 11
1.0
 21
0.0
 31
0.0
  0
ENDBLK
  5
17C7
330
17C4
100
AcDbEntity
  8
0
 62
     5
370
     9
100
AcDbBlockEnd
  0
ENDSEC
  0
SECTION
  2
ENTITIES
  0
LINE
  5
2D
330
1F
100
AcDbEntity
  8
0
370
     5
100
AcDbLine
 10
232.8745380692592
 20
147.9842004247381
 30
0.0
 11
132.8745380692592
 21
147.9842004247381
 31
0.0
  0
LINE
  5
2F
330
1F
100
AcDbEntity
  8
0
370
     5
100
AcDbLine
 10
232.8745380692592
 20
147.9842004247381
 30
0.0
 11
592.8745380692592
 21
147.9842004247381
 31
0.0
  0
LINE
  5
30
330
1F
100
AcDbEntity
  8
0
100
AcDbLine
 10
592.8745380692592
 20
147.9842004247381
 30
0.0
 11
592.8745380692592
 21
247.9842004247381
 31
0.0
  0
LINE
  5
32
330
1F
100
AcDbEntity
  8
0
100
AcDbLine
 10
592.8745380692592
 20
247.9842004247381
 30
0.0
 11
232.8745380692592
 21
247.9842004247381
 31
0.0
  0
LINE
  5
35
330
1F
100
AcDbEntity
  8
0
100
AcDbLine
 10
676.9390746303281
 20
590.0158447998292
 30
0.0
 11
676.9390746303281
 21
690.0158447998293
 31
0.0
  0
LINE
  5
37
330
1F
100
AcDbEntity
  8
0
100
AcDbLine
 10
817.3712261351868
 20
826.0782256650998
 30
0.0
 11
857.3712261351868
 21
826.0782256650998
 31
0.0
  0
MTEXT
  5
3B
330
1F
100
AcDbEntity
  8
0
100
AcDbMText
 10
308.4312853397848
 20
663.3902109299263
 30
0.0
 40
15.0
 41
282.218651611672
 71
     1
 72
     5
  1
Pezzi N°2 Frontale e Posteriore
 73
     1
 44
1.0
1001
ACAD
1000
MTEXTBEGIN
1070
    73
1070
     1
1070
    44
1040
1.0
1070
    74
1070
     0
1000
MTEXTEND
  0
MTEXT
  5
3C
330
1F
100
AcDbEntity
  8
0
100
AcDbMText
 10
820.2342556292714
 20
823.1418573105628
 30
0.0
 40
5.0
 41
0.5349000000000001
 71
     1
 72
     5
  1
Pezzi n°2 Poggia\P\PGuide
 73
     1
 44
1.0
1001
ACAD
1000
MTEXTBEGIN
1070
    73
1070
     1
1070
    44
1040
1.0
1070
    74
1070
     0
1000
MTEXTEND
  0
MTEXT
  5
3D
330
1F
100
AcDbEntity
  8
0
100
AcDbMText
 10
262.4042085266403
 20
230.3420245084882
 30
0.0
 40
15.0
 41
293.1198
 71
     1
 72
     5
  1
Pezzi n°2 Spalle Ponte
 73
     1
 44
1.0
1001
ACAD
1000
MTEXTBEGIN
1070
    73
1070
     1
1070
    44
1040
1.0
1070
    74
1070
     0
1000
MTEXTEND
  0
LINE
  5
3E
330
1F
100
AcDbEntity
  8
0
100
AcDbLine
 10
-442.2644939805427
 20
599.4382384430496
 30
0.0
 11
57.73550601945726
 21
599.4382384430496
 31
0.0
  0
LINE
  5
3F
330
1F
100
AcDbEntity
  8
0
100
AcDbLine
 10
57.73550601945726
 20
599.4382384430496
 30
0.0
 11
57.73550601945726
 21
149.4382384430496
 31
0.0
  0
LINE
  5
42
330
1F
100
AcDbEntity
  8
0
100
AcDbLine
 10
57.73550601945726
 20
149.4382384430496
 30
0.0
 11
-442.2644939805427
 21
149.4382384430496
 31
0.0
  0
LINE
  5
43
330
1F
100
AcDbEntity
  8
0
100
AcDbLine
 10
-442.2644939805427
 20
149.4382384430496
 30
0.0
 11
-442.2644939805427
 21
599.4382384430496
 31
0.0
  0
LINE
  5
44
330
1F
100
AcDbEntity
  8
0
100
AcDbLine
 10
847.5749121629192
 20
89.68351598031086
 30
0.0
 11
1347.574912162919
 21
89.68351598031086
 31
0.0
  0
LINE
  5
45
330
1F
100
AcDbEntity
  8
0
100
AcDbLine
 10
1347.574912162919
 20
89.68351598031086
 30
0.0
 11
1347.574912162919
 21
69.68351598031086
 31
0.0
  0
LINE
  5
46
330
1F
100
AcDbEntity
  8
0
100
AcDbLine
 10
1347.574912162919
 20
69.68351598031086
 30
0.0
 11
1327.574912162919
 21
69.68351598031086
 31
0.0
  0
LINE
  5
4B
330
1F
100
AcDbEntity
  8
0
100
AcDbLine
 10
867.5749121629191
 20
69.68351598031086
 30
0.0
 11
847.5749121629192
 21
69.68351598031086
 31
0.0
  0
LINE
  5
4C
330
1F
100
AcDbEntity
  8
0
100
AcDbLine
 10
847.5749121629192
 20
69.68351598031086
 30
0.0
 11
847.5749121629192
 21
89.68351598031086
 31
0.0
  0
MTEXT
  5
4D
330
1F
100
AcDbEntity
  8
0
100
AcDbMText
 10
-344.0258557213492
 20
497.2279174150694
 30
0.0
 40
15.0
 41
339.3249
 71
     1
 72
     5
  1
Piano di Lavoro
 73
     1
 44
1.0
1001
ACAD
1000
MTEXTBEGIN
1070
    73
1070
     1
1070
    44
1040
1.0
1070
    74
1070
     0
1000
MTEXTEND
  0
MTEXT
  5
4E
330
1F
100
AcDbEntity
  8
0
100
AcDbMText
 10
903.8223759630843
 20
62.28557319523213
 30
0.0
 40
15.0
 41
423.7525361998345
 71
     1
 72
     5
  1
Pezzi n°2 Laterali poggia guide
 73
     1
 44
1.0
1001
ACAD
1000
MTEXTBEGIN
1070
    73
1070
     1
1070
    44
1040
1.0
1070
    74
1070
     0
1000
MTEXTEND
  0
LINE
  5
4F
330
1F
100
AcDbEntity
  8
0
100
AcDbLine
 10
767.2417382254683
 20
259.2082876977115
 30
0.0
 11
1017.241738225468
 21
259.2082876977115
 31
0.0
  0
LINE
  5
5E
330
1F
100
AcDbEntity
  8
0
100
AcDbLine
 10
967.2417382254684
 20
509.2082876977115
 30
0.0
 11
967.2417382254684
 21
359.2082876977115
 31
0.0
  0
LINE
  5
5F
330
1F
100
AcDbEntity
  8
0
100
AcDbLine
 10
967.2417382254684
 20
509.2082876977115
 30
0.0
 11
817.2417382254684
 21
509.2082876977115
 31
0.0
  0
LINE
  5
60
330
1F
100
AcDbEntity
  8
0
100
AcDbLine
 10
817.2417382254684
 20
509.2082876977115
 30
0.0
 11
817.2417382254684
 21
359.2082876977115
 31
0.0
  0
LINE
  5
61
330
1F
100
AcDbEntity
  8
0
100
AcDbLine
 10
817.2417382254684
 20
359.2082876977115
 30
0.0
 11
967.2417382254684
 21
359.2082876977115
 31
0.0
  0
LINE
  5
70
330
1F
100
AcDbEntity
  8
0
100
AcDbLine
 10
817.2417382254684
 20
359.2082876977115
 30
0.0
 11
767.2417382254683
 21
359.2082876977115
 31
0.0
  0
LINE
  5
71
330
1F
100
AcDbEntity
  8
0
100
AcDbLine
 10
967.2417382254684
 20
359.2082876977115
 30
0.0
 11
1017.241738225468
 21
359.2082876977115
 31
0.0
  0
LINE
  5
72
330
1F
100
AcDbEntity
  8
0
100
AcDbLine
 10
1017.241738225468
 20
359.2082876977115
 30
0.0
 11
1017.241738225468
 21
259.2082876977115
 31
0.0
  0
LINE
  5
73
330
1F
100
AcDbEntity
  8
0
100
AcDbLine
 10
767.2417382254683
 20
359.2082876977115
 30
0.0
 11
767.2417382254683
 21
259.2082876977115
 31
0.0
  0
LINE
  5
74
330
1F
100
AcDbEntity
  8
Quotature
  6
PUNTO2
 62
     5
370
    13
100
AcDbLine
 10
817.2417382254684
 20
359.2082876977115
 30
0.0
 11
817.2417382254684
 21
509.2082876977115
 31
0.0
  0
MTEXT
  5
75
330
1F
100
AcDbEntity
  8
0
100
AcDbMText
 10
775.5291312226199
 20
320.2147360467014
 30
0.0
 40
12.0
 41
250.0
 71
     1
 72
     5
  1
Supporto asse Y
 73
     1
 44
1.0
1001
ACAD
1000
MTEXTBEGIN
1070
    73
1070
     1
1070
    44
1040
1.0
1070
    74
1070
     0
1000
MTEXTEND
  0
LINE
  5
7A
330
1F
100
AcDbEntity
  8
0
100
AcDbLine
 10
1257.6887644387
 20
520.4599578023983
 30
0.0
 11
1407.6887644387
 21
520.4599578023983
 31
0.0
  0
LINE
  5
7B
330
1F
100
AcDbEntity
  8
0
100
AcDbLine
 10
1407.6887644387
 20
520.4599578023983
 30
0.0
 11
1407.6887644387
 21
270.4599578023983
 31
0.0
  0
LINE
  5
7C
330
1F
100
AcDbEntity
  8
0
100
AcDbLine
 10
1407.6887644387
 20
270.4599578023983
 30
0.0
 11
1257.6887644387
 21
270.4599578023983
 31
0.0
  0
LINE
  5
7D
330
1F
100
AcDbEntity
  8
0
100
AcDbLine
 10
1257.6887644387
 20
270.4599578023983
 30
0.0
 11
1257.6887644387
 21
520.4599578023983
 31
0.0
  0
MTEXT
  5
7E
330
1F
100
AcDbEntity
  8
0
100
AcDbMText
 10
1290.811431303377
 20
503.5443305552885
 30
0.0
 40
15.0
 41
116.8773
 71
     1
 72
     5
  1
Base\PUtensile \PAasse \PZ
 73
     1
 44
1.0
1001
ACAD
1000
MTEXTBEGIN
1070
    73
1070
     1
1070
    44
1040
1.0
1070
    74
1070
     0
1000
MTEXTEND
  0
DIMENSION
  5
548
330
1F
100
AcDbEntity
  8
Quotature
  6
PUNTO2
 62
     5
370
    13
100
AcDbDimension
  2
*D1
 10
739.6475527683932
 20
259.2082876977115
 30
0.0
 11
733.022552768393
 21
309.2082876977116
 31
0.0
 70
    32
 71
     5
 42
100.0
  3
ISO-25
100
AcDbAlignedDimension
 13
767.2417382254683
 23
359.2082876977115
 33
0.0
 14
767.2417382254683
 24
259.2082876977115
 34
0.0
 50
90.0
100
AcDbRotatedDimension
1001
ACAD
1000
DSTYLE
1002
{
1070
   140
1040
12.0
1002
}
  0
DIMENSION
  5
555
330
1F
100
AcDbEntity
  8
Quotature
  6
PUNTO2
 62
     5
370
    13
100
AcDbDimension
  2
*D2
 10
967.2417382254684
 20
452.1376003757039
 30
0.0
 11
892.2417382254684
 21
458.7626003757038
 31
0.0
 70
    32
 71
     5
 42
150.0
  3
ISO-25
100
AcDbAlignedDimension
 13
817.2417382254684
 23
509.2082876977115
 33
0.0
 14
967.2417382254684
 24
509.2082876977115
 34
0.0
100
AcDbRotatedDimension
1001
ACAD
1000
DSTYLE
1002
{
1070
   140
1040
12.0
1002
}
  0
DIMENSION
  5
562
330
1F
100
AcDbEntity
  8
Quotature
  6
PUNTO2
 62
     5
370
    13
100
AcDbDimension
  2
*D3
 10
799.1405606584663
 20
359.2082876977115
 30
0.0
 11
792.5155606584662
 21
434.2082876977116
 31
0.0
 70
    32
 71
     5
 42
150.0
  3
ISO-25
100
AcDbAlignedDimension
 13
817.2417382254684
 23
509.2082876977115
 33
0.0
 14
817.2417382254684
 24
359.2082876977115
 34
0.0
 50
90.0
100
AcDbRotatedDimension
1001
ACAD
1000
DSTYLE
1002
{
1070
   140
1040
12.0
1002
}
  0
DIMENSION
  5
56F
330
1F
100
AcDbEntity
  8
Quotature
  6
PUNTO2
 62
     5
370
    13
100
AcDbDimension
  2
*D4
 10
967.2417382254684
 20
371.1683348197687
 30
0.0
 11
992.2417382254684
 21
377.7933348197687
 31
0.0
 70
    32
 71
     5
 42
50.0
  3
ISO-25
100
AcDbAlignedDimension
 13
1017.241738225468
 23
359.2082876977115
 33
0.0
 14
967.2417382254684
 24
359.2082876977115
 34
0.0
100
AcDbRotatedDimension
1001
ACAD
1000
DSTYLE
1002
{
1070
   140
1040
12.0
1002
}
  0
DIMENSION
  5
57C
330
1F
100
AcDbEntity
  8
Quotature
  6
PUNTO2
 62
     5
370
    13
100
AcDbDimension
  2
*D5
 10
767.2417382254683
 20
238.9836030087757
 30
0.0
 11
892.2417382254684
 21
245.6086030087757
 31
0.0
 70
    32
 71
     5
 42
250.0
  3
ISO-25
100
AcDbAlignedDimension
 13
1017.241738225468
 23
259.2082876977115
 33
0.0
 14
767.2417382254683
 24
259.2082876977115
 34
0.0
100
AcDbRotatedDimension
1001
ACAD
1000
DSTYLE
1002
{
1070
   140
1040
12.0
1002
}
  0
DIMENSION
  5
589
330
1F
100
AcDbEntity
  8
Quotature
  6
PUNTO2
 62
     5
370
    13
100
AcDbDimension
  2
*D6
 10
1030.532462117903
 20
259.2082876977115
 30
0.0
 11
1023.907462117903
 21
384.2082876977117
 31
0.0
 70
    32
 71
     5
 42
250.0
  3
ISO-25
100
AcDbAlignedDimension
 13
967.2417382254684
 23
509.2082876977115
 33
0.0
 14
1017.241738225468
 24
259.2082876977115
 34
0.0
 50
90.0
100
AcDbRotatedDimension
1001
ACAD
1000
DSTYLE
1002
{
1070
   140
1040
12.0
1002
}
  0
DIMENSION
  5
596
330
1F
100
AcDbEntity
  8
Quotature
  6
PUNTO2
 62
     5
370
     9
100
AcDbDimension
  2
*D7
 10
857.3712261351866
 20
840.1591692808201
 30
0.0
 11
837.3712261351867
 21
846.7841692808201
 31
0.0
 70
    32
 71
     5
 42
39.99999999999989
  3
ISO-25
100
AcDbAlignedDimension
 13
817.3712261351868
 23
826.0782256650998
 33
0.0
 14
857.3712261351866
 24
826.0782256650998
 34
0.0
100
AcDbRotatedDimension
1001
ACAD
1000
DSTYLE
1002
{
1070
   140
1040
12.0
1002
}
  0
DIMENSION
  5
5B0
330
1F
100
AcDbEntity
  8
Quotature
  6
PUNTO2
 62
     5
370
    13
100
AcDbDimension
  2
*D8
 10
1407.6887644387
 20
526.5374601104224
 30
0.0
 11
1332.6887644387
 21
533.1624601104224
 31
0.0
 70
    32
 71
     5
 42
150.0
  3
ISO-25
100
AcDbAlignedDimension
 13
1257.6887644387
 23
520.4599578023983
 33
0.0
 14
1407.6887644387
 24
520.4599578023983
 34
0.0
100
AcDbRotatedDimension
1001
ACAD
1000
DSTYLE
1002
{
1070
   140
1040
12.0
1002
}
  0
DIMENSION
  5
5CA
330
1F
100
AcDbEntity
  8
Quotature
  6
PUNTO2
 62
     5
370
    13
100
AcDbDimension
  2
*D9
 10
1418.836126764175
 20
520.4599578023983
 30
0.0
 11
1412.211126764175
 21
395.4599578023985
 31
0.0
 70
    32
 71
     5
 42
250.0
  3
ISO-25
100
AcDbAlignedDimension
 13
1407.6887644387
 23
270.4599578023983
 33
0.0
 14
1407.6887644387
 24
520.4599578023983
 34
0.0
 50
90.0
100
AcDbRotatedDimension
1001
ACAD
1000
DSTYLE
1002
{
1070
   140
1040
12.0
1002
}
  0
DIMENSION
  5
5E4
330
1F
100
AcDbEntity
  8
Quotature
  6
PUNTO2
 62
     5
370
    13
100
AcDbDimension
  2
*D10
 10
692.9306601963319
 20
590.0158447998292
 30
0.0
 11
686.3056601963318
 21
640.0158447998294
 31
0.0
 70
    32
 71
     5
 42
100.0
  3
ISO-25
100
AcDbAlignedDimension
 13
676.9390746303281
 23
690.0158447998293
 33
0.0
 14
676.9390746303281
 24
590.0158447998292
 34
0.0
 50
90.0
100
AcDbRotatedDimension
1001
ACAD
1000
DSTYLE
1002
{
1070
   140
1040
12.0
1002
}
  0
DIMENSION
  5
5F1
330
1F
100
AcDbEntity
  8
Quotature
  6
PUNTO2
 62
     5
370
    13
100
AcDbDimension
  2
*D11
 10
57.73550601945726
 20
607.0701945771705
 30
0.0
 11
-192.2644939805427
 21
613.6951945771705
 31
0.0
 70
    32
 71
     5
 42
499.9999999999999
  3
ISO-25
100
AcDbAlignedDimension
 13
-442.2644939805427
 23
599.4382384430496
 33
0.0
 14
57.73550601945726
 24
599.4382384430496
 34
0.0
100
AcDbRotatedDimension
1001
ACAD
1000
DSTYLE
1002
{
1070
   140
1040
12.0
1002
}
  0
DIMENSION
  5
5FE
330
1F
100
AcDbEntity
  8
Quotature
  6
PUNTO2
 62
     5
370
    13
100
AcDbDimension
  2
*D12
 10
-466.1555653881824
 20
599.4382384430496
 30
0.0
 11
-472.7805653881825
 21
374.4382384430496
 31
0.0
 70
    32
 71
     5
 42
450.0
  3
ISO-25
100
AcDbAlignedDimension
 13
-442.2644939805427
 23
149.4382384430496
 33
0.0
 14
-442.2644939805427
 24
599.4382384430496
 34
0.0
 50
90.0
100
AcDbRotatedDimension
1001
ACAD
1000
DSTYLE
1002
{
1070
   140
1040
12.0
1002
}
  0
DIMENSION
  5
60B
330
1F
100
AcDbEntity
  8
Quotature
  6
PUNTO2
 62
     5
370
    13
100
AcDbDimension
  2
*D13
 10
847.5749121629192
 20
38.82931926574372
 30
0.0
 11
857.5749121629192
 21
45.45431926574372
 31
0.0
 70
    32
 71
     5
 42
20.0
  3
ISO-25
100
AcDbAlignedDimension
 13
867.5749121629191
 23
69.68351598031086
 33
0.0
 14
847.5749121629192
 24
69.68351598031086
 34
0.0
100
AcDbRotatedDimension
1001
ACAD
1000
DSTYLE
1002
{
1070
   140
1040
12.0
1002
}
  0
DIMENSION
  5
618
330
1F
100
AcDbEntity
  8
Quotature
  6
PUNTO2
 62
     5
370
    13
100
AcDbDimension
  2
*D14
 10
810.5060615839738
 20
69.68351598031086
 30
0.0
 11
803.8810615839738
 21
79.683515980311
 31
0.0
 70
    32
 71
     5
 42
20.0
  3
ISO-25
100
AcDbAlignedDimension
 13
847.5749121629192
 23
89.68351598031086
 33
0.0
 14
847.5749121629192
 24
69.68351598031086
 34
0.0
 50
90.0
100
AcDbRotatedDimension
1001
ACAD
1000
DSTYLE
1002
{
1070
   140
1040
12.0
1002
}
  0
DIMENSION
  5
63F
330
1F
100
AcDbEntity
  8
Quotature
  6
PUNTO2
 62
     5
370
    13
100
AcDbDimension
  2
*D15
 10
1347.574912162919
 20
107.0873008471325
 30
0.0
 11
1097.574912162919
 21
113.7123008471325
 31
0.0
 70
    32
 71
     5
 42
500.0
  3
ISO-25
100
AcDbAlignedDimension
 13
847.5749121629192
 23
89.68351598031086
 33
0.0
 14
1347.574912162919
 24
89.68351598031086
 34
0.0
100
AcDbRotatedDimension
1001
ACAD
1000
DSTYLE
1002
{
1070
   140
1040
12.0
1002
}
  0
DIMENSION
  5
6A7
330
1F
100
AcDbEntity
  8
Quotature
  6
PUNTO2
 62
     5
370
    13
100
AcDbDimension
  2
*D16
 10
132.8745380692592
 20
132.9837129122933
 30
0.0
 11
362.8745380692592
 21
139.6087129122933
 31
0.0
 70
    32
 71
     5
 42
460.0
  3
ISO-25
100
AcDbAlignedDimension
 13
592.8745380692592
 23
147.9842004247381
 33
0.0
 14
132.8745380692592
 24
147.9842004247381
 34
0.0
100
AcDbRotatedDimension
1001
ACAD
1000
DSTYLE
1002
{
1070
   140
1040
12.0
1002
}
  0
DIMENSION
  5
6B4
330
1F
100
AcDbEntity
  8
Quotature
  6
PUNTO2
 62
     5
370
     9
100
AcDbDimension
  2
*D17
 10
614.9410815631904
 20
147.9842004247381
 30
0.0
 11
608.3160815631904
 21
197.9842004247382
 31
0.0
 70
    32
 71
     5
 42
100.0
  3
ISO-25
100
AcDbAlignedDimension
 13
592.8745380692592
 23
247.9842004247381
 33
0.0
 14
592.8745380692592
 24
147.9842004247381
 34
0.0
 50
90.0
100
AcDbRotatedDimension
1001
ACAD
1000
DSTYLE
1002
{
1070
   140
1040
12.0
1002
}
  0
DIMENSION
  5
6CE
330
1F
100
AcDbEntity
  8
Quotature
  6
PUNTO2
 62
     5
370
    13
100
AcDbDimension
  2
*D18
 10
232.8745380692592
 20
258.0730351035754
 30
0.0
 11
412.8745380692591
 21
264.6980351035754
 31
0.0
 70
    32
 71
     5
 42
360.0
  3
ISO-25
100
AcDbAlignedDimension
 13
592.8745380692592
 23
247.9842004247381
 33
0.0
 14
232.8745380692592
 24
247.9842004247381
 34
0.0
100
AcDbRotatedDimension
1001
ACAD
1000
DSTYLE
1002
{
1070
   140
1040
12.0
1002
}
  0
LINE
  5
9A9
330
1F
100
AcDbEntity
  8
0
100
AcDbLine
 10
1327.574912162919
 20
69.68351598031086
 30
0.0
 11
1327.574912162919
 21
-30.31648401968913
 31
0.0
  0
LINE
  5
9AA
330
1F
100
AcDbEntity
  8
0
100
AcDbLine
 10
1327.574912162919
 20
-30.31648401968913
 30
0.0
 11
867.5749121629191
 21
-30.31648401968907
 31
0.0
  0
LINE
  5
9AC
330
1F
100
AcDbEntity
  8
0
100
AcDbLine
 10
867.5749121629191
 20
-30.31648401968907
 30
0.0
 11
867.5749121629191
 21
69.68351598031095
 31
0.0
  0
DIMENSION
  5
9DE
330
1F
100
AcDbEntity
  8
Quotature
  6
PUNTO2
 62
     5
370
    13
100
AcDbDimension
  2
*D19
 10
1379.367551609667
 20
89.68351598031084
 30
0.0
 11
1372.742551609667
 21
29.68351598031107
 31
0.0
 70
    32
 71
     5
 42
120.0
  3
ISO-25
100
AcDbAlignedDimension
 13
1327.574912162919
 23
-30.31648401968913
 33
0.0
 14
1347.574912162919
 24
89.68351598031086
 34
0.0
 50
90.0
100
AcDbRotatedDimension
1001
ACAD
1000
DSTYLE
1002
{
1070
   140
1040
12.0
1002
}
  0
DIMENSION
  5
A0F
330
1F
100
AcDbEntity
  8
Quotature
  6
PUNTO2
 62
     5
370
    13
100
AcDbDimension
  2
*D20
 10
1327.574912162919
 20
-62.07711294038472
 30
0.0
 11
1097.574912162919
 21
-55.45211294038472
 31
0.0
 70
    32
 71
     5
 42
460.0
  3
ISO-25
100
AcDbAlignedDimension
 13
867.5749121629191
 23
-30.31648401968907
 33
0.0
 14
1327.574912162919
 24
-30.31648401968913
 34
0.0
100
AcDbRotatedDimension
1001
ACAD
1000
DSTYLE
1002
{
1070
   140
1040
12.0
1002
}
  0
LINE
  5
BA1
330
1F
100
AcDbEntity
  8
0
100
AcDbLine
 10
817.3712261351868
 20
826.0782256650998
 30
0.0
 11
817.3712261351868
 21
576.0782256650998
 31
0.0
  0
LINE
  5
BA2
330
1F
100
AcDbEntity
  8
0
100
AcDbLine
 10
817.3712261351868
 20
576.0782256650998
 30
0.0
 11
857.3712261351868
 21
576.0782256650998
 31
0.0
  0
LINE
  5
BA3
330
1F
100
AcDbEntity
  8
0
100
AcDbLine
 10
857.3712261351868
 20
576.0782256650998
 30
0.0
 11
857.3712261351868
 21
826.0782256650998
 31
0.0
  0
DIMENSION
  5
C06
330
1F
100
AcDbEntity
  8
Quotature
  6
PUNTO2
 62
     5
370
     9
100
AcDbDimension
  2
*D21
 10
898.9627935011313
 20
576.0782256650998
 30
0.0
 11
892.3377935011311
 21
701.0782256651
 31
0.0
 70
    32
 71
     5
 42
250.0
  3
ISO-25
100
AcDbAlignedDimension
 13
857.3712261351868
 23
826.0782256650998
 33
0.0
 14
857.3712261351868
 24
576.0782256650998
 34
0.0
 50
90.0
100
AcDbRotatedDimension
1001
ACAD
1000
DSTYLE
1002
{
1070
   140
1040
12.0
1002
}
  0
LINE
  5
C5B
330
1F
100
AcDbEntity
  8
0
100
AcDbLine
 10
132.8745380692592
 20
147.9842004247381
 30
0.0
 11
132.8745380692592
 21
497.984200424738
 31
0.0
  0
LINE
  5
C5C
330
1F
100
AcDbEntity
  8
0
100
AcDbLine
 10
132.8745380692592
 20
497.984200424738
 30
0.0
 11
232.8745380692592
 21
497.984200424738
 31
0.0
  0
LINE
  5
C5D
330
1F
100
AcDbEntity
  8
0
100
AcDbLine
 10
232.8745380692592
 20
497.984200424738
 30
0.0
 11
232.8745380692592
 21
247.9842004247381
 31
0.0
  0
DIMENSION
  5
C5E
330
1F
100
AcDbEntity
  8
Quotature
  6
PUNTO2
 62
     5
370
    13
100
AcDbDimension
  2
*D22
 10
132.8745380692592
 20
533.3419709735985
 30
0.0
 11
182.8745380692592
 21
539.9669709735985
 31
0.0
 70
    32
 71
     5
 42
100.0
  3
ISO-25
100
AcDbAlignedDimension
 13
232.8745380692592
 23
497.984200424738
 33
0.0
 14
132.8745380692592
 24
497.984200424738
 34
0.0
100
AcDbRotatedDimension
1001
ACAD
1000
DSTYLE
1002
{
1070
   140
1040
12.0
1002
}
  0
DIMENSION
  5
C85
330
1F
100
AcDbEntity
  8
Quotature
  6
PUNTO2
 62
     5
370
     9
100
AcDbDimension
  2
*D23
 10
311.9943769056245
 20
247.9842004247381
 30
0.0
 11
305.3693769056244
 21
372.9842004247382
 31
0.0
 70
    32
 71
     5
 42
250.0
  3
ISO-25
100
AcDbAlignedDimension
 13
232.8745380692592
 23
497.984200424738
 33
0.0
 14
232.8745380692592
 24
247.9842004247381
 34
0.0
 50
90.0
100
AcDbRotatedDimension
1001
ACAD
1000
DSTYLE
1002
{
1070
   140
1040
12.0
1002
}
  0
DIMENSION
  5
C9F
330
1F
100
AcDbEntity
  8
Quotature
  6
PUNTO2
 62
     5
370
    13
100
AcDbDimension
  2
*D24
 10
100.2080754906891
 20
147.9842004247381
 30
0.0
 11
93.58307549068916
 21
322.9842004247382
 31
0.0
 70
    32
 71
     5
 42
350.0
  3
ISO-25
100
AcDbAlignedDimension
 13
132.8745380692592
 23
497.984200424738
 33
0.0
 14
132.8745380692592
 24
147.9842004247381
 34
0.0
 50
90.0
100
AcDbRotatedDimension
1001
ACAD
1000
DSTYLE
1002
{
1070
   140
1040
12.0
1002
}
  0
LINE
  5
D35
330
1F
100
AcDbEntity
  8
0
100
AcDbLine
 10
676.9390746303281
 20
590.0158447998292
 30
0.0
 11
136.9390746303281
 21
590.0158447998292
 31
0.0
  0
LINE
  5
D37
330
1F
100
AcDbEntity
  8
0
100
AcDbLine
 10
136.9390746303281
 20
590.0158447998292
 30
0.0
 11
136.9390746303281
 21
690.0158447998293
 31
0.0
  0
LINE
  5
D39
330
1F
100
AcDbEntity
  8
0
100
AcDbLine
 10
136.9390746303281
 20
690.0158447998293
 30
0.0
 11
676.9390746303281
 21
690.0158447998293
 31
0.0
  0
LINE
  5
D70
330
1F
100
AcDbEntity
  8
0
100
AcDbLine
 10
-306.0120316737657
 20
837.8243680260162
 30
0.0
 11
-306.0120316737657
 21
937.8243680260162
 31
0.0
  0
LINE
  5
D71
330
1F
100
AcDbEntity
  8
0
 62
     1
100
AcDbLine
 10
-306.0120316737657
 20
937.8243680260162
 30
0.0
 11
-286.0120316737657
 21
937.8243680260162
 31
0.0
  0
LINE
  5
D72
330
1F
100
AcDbEntity
  8
0
 62
     1
100
AcDbLine
 10
-286.0120316737657
 20
937.8243680260162
 30
0.0
 11
-286.0120316737657
 21
837.8243680260162
 31
0.0
  0
LINE
  5
D77
330
1F
100
AcDbEntity
  8
0
 62
     1
100
AcDbLine
 10
-306.0120316737657
 20
937.8243680260162
 30
0.0
 11
-306.0120316737657
 21
1187.824368026016
 31
0.0
  0
LINE
  5
D78
330
1F
100
AcDbEntity
  8
0
 62
     1
100
AcDbLine
 10
-306.0120316737657
 20
1187.824368026016
 30
0.0
 11
-286.0120316737657
 21
1187.824368026016
 31
0.0
  0
LINE
  5
D79
330
1F
100
AcDbEntity
  8
0
 62
     1
100
AcDbLine
 10
-286.0120316737657
 20
1187.824368026016
 30
0.0
 11
-286.0120316737658
 21
937.8243680260162
 31
0.0
  0
LINE
  5
D7E
330
1F
100
AcDbEntity
  8
0
 62
     1
100
AcDbLine
 10
-286.0120316737658
 20
937.8243680260162
 30
0.0
 11
-286.0120316737658
 21
957.8243680260161
 31
0.0
  0
LINE
  5
D7F
330
1F
100
AcDbEntity
  8
0
 62
     1
100
AcDbLine
 10
-286.0120316737658
 20
957.8243680260161
 30
0.0
 11
-266.0120316737657
 21
957.8243680260161
 31
0.0
  0
LINE
  5
D80
330
1F
100
AcDbEntity
  8
0
 62
     1
100
AcDbLine
 10
-266.0120316737657
 20
957.8243680260161
 30
0.0
 11
-266.0120316737657
 21
837.8243680260162
 31
0.0
  0
LINE
  5
DA2
330
1F
100
AcDbEntity
  8
0
100
AcDbLine
 10
-306.0120316737657
 20
937.8243680260162
 30
0.0
 11
233.9879683262343
 21
937.8243680260162
 31
0.0
  0
LINE
  5
DA3
330
1F
100
AcDbEntity
  8
0
100
AcDbLine
 10
233.9879683262343
 20
937.8243680260162
 30
0.0
 11
233.9879683262342
 21
837.8243680260162
 31
0.0
  0
LINE
  5
DA4
330
1F
100
AcDbEntity
  8
0
100
AcDbLine
 10
233.9879683262342
 20
837.8243680260162
 30
0.0
 11
-306.0120316737657
 21
837.8243680260162
 31
0.0
  0
LINE
  5
DA5
330
1F
100
AcDbEntity
  8
0
 62
     1
100
AcDbLine
 10
233.9879683262343
 20
937.8243680260162
 30
0.0
 11
233.9879683262343
 21
1187.824368026016
 31
0.0
  0
LINE
  5
DA6
330
1F
100
AcDbEntity
  8
0
 62
     1
100
AcDbLine
 10
233.9879683262343
 20
1187.824368026016
 30
0.0
 11
213.9879683262343
 21
1187.824368026016
 31
0.0
  0
LINE
  5
DA7
330
1F
100
AcDbEntity
  8
0
 62
     1
100
AcDbLine
 10
213.9879683262343
 20
1187.824368026016
 30
0.0
 11
213.9879683262343
 21
937.8243680260162
 31
0.0
  0
LINE
  5
DA8
330
1F
100
AcDbEntity
  8
0
 62
     1
100
AcDbLine
 10
213.9879683262343
 20
937.8243680260162
 30
0.0
 11
193.9879683262342
 21
937.8243680260162
 31
0.0
  0
LINE
  5
DAA
330
1F
100
AcDbEntity
  8
0
 62
     1
100
AcDbLine
 10
193.9879683262342
 20
957.8243680260161
 30
0.0
 11
213.9879683262343
 21
957.8243680260161
 31
0.0
  0
LINE
  5
DAB
330
1F
100
AcDbEntity
  8
0
 62
     1
100
AcDbLine
 10
193.9879683262342
 20
957.8243680260161
 30
0.0
 11
193.9879683262342
 21
837.8243680260162
 31
0.0
  0
DIMENSION
  5
DAC
330
1F
100
AcDbEntity
  8
Quotature
  6
PUNTO2
 62
     5
370
    13
100
AcDbDimension
  2
*D25
 10
213.9879683262343
 20
999.0604290487427
 30
0.0
 11
-36.01203167376575
 21
1005.685429048742
 31
0.0
 70
    32
 71
     5
 42
500.0
  3
ISO-25
100
AcDbAlignedDimension
 13
-286.0120316737658
 23
957.8243680260161
 33
0.0
 14
213.9879683262343
 24
957.8243680260161
 34
0.0
100
AcDbRotatedDimension
1001
ACAD
1000
DSTYLE
1002
{
1070
   140
1040
12.0
1002
}
  0
DIMENSION
  5
DDD
330
1F
100
AcDbEntity
  8
Quotature
  6
PUNTO2
 62
     5
370
    13
100
AcDbDimension
  2
*D26
 10
-333.9600681776692
 20
837.8243680260162
 30
0.0
 11
-340.5850681776693
 21
1012.824368026016
 31
0.0
 70
    32
 71
     5
 42
350.0000000000001
  3
ISO-25
100
AcDbAlignedDimension
 13
-306.0120316737657
 23
1187.824368026016
 33
0.0
 14
-306.0120316737657
 24
837.8243680260162
 34
0.0
 50
90.0
100
AcDbRotatedDimension
1001
ACAD
1000
DSTYLE
1002
{
1070
   140
1040
12.0
1002
}
  0
DIMENSION
  5
DEA
330
1F
100
AcDbEntity
  8
Quotature
  6
PUNTO2
 62
     5
370
    13
100
AcDbDimension
  2
*D27
 10
145.6751695111215
 20
937.8243680260162
 30
0.0
 11
139.0501695111214
 21
1062.824368026016
 31
0.0
 70
    32
 71
     5
 42
250.0
  3
ISO-25
100
AcDbAlignedDimension
 13
213.9879683262343
 23
1187.824368026016
 33
0.0
 14
213.9879683262343
 24
937.8243680260162
 34
0.0
 50
90.0
100
AcDbRotatedDimension
1001
ACAD
1000
DSTYLE
1002
{
1070
   140
1040
12.0
1002
}
  0
DIMENSION
  5
DF7
330
1F
100
AcDbEntity
  8
Quotature
  6
PUNTO2
 62
     5
370
    13
100
AcDbDimension
  2
*D28
 10
193.9879683262342
 20
974.2730287934419
 30
0.0
 11
203.9879683262343
 21
980.8980287934419
 31
0.0
 70
    32
 71
     5
 42
20.0
  3
ISO-25
100
AcDbAlignedDimension
 13
213.9879683262343
 23
957.8243680260161
 33
0.0
 14
193.9879683262342
 24
957.8243680260161
 34
0.0
100
AcDbRotatedDimension
1001
ACAD
1000
DSTYLE
1002
{
1070
   140
1040
12.0
1002
}
  0
DIMENSION
  5
E1E
330
1F
100
AcDbEntity
  8
Quotature
  6
PUNTO2
 62
     5
370
    13
100
AcDbDimension
  2
*D29
 10
171.9893224160714
 20
937.8243680260162
 30
0.0
 11
165.3643224160713
 21
947.8243680260161
 31
0.0
 70
    32
 71
     5
 42
20.0
  3
ISO-25
100
AcDbAlignedDimension
 13
193.9879683262342
 23
957.8243680260161
 33
0.0
 14
193.9879683262342
 24
937.8243680260162
 34
0.0
 50
90.0
100
AcDbRotatedDimension
1001
ACAD
1000
DSTYLE
1002
{
1070
   140
1040
12.0
1002
}
  0
DIMENSION
  5
E2B
330
1F
100
AcDbEntity
  8
Quotature
  6
PUNTO2
 62
     5
370
    13
100
AcDbDimension
  2
*D30
 10
265.2849537107631
 20
837.824368026016
 30
0.0
 11
258.659953710763
 21
897.8243680260161
 31
0.0
 70
    32
 71
     5
 42
120.0
  3
ISO-25
100
AcDbAlignedDimension
 13
213.9879683262343
 23
957.8243680260161
 33
0.0
 14
213.9879683262342
 24
837.8243680260162
 34
0.0
 50
90.0
100
AcDbRotatedDimension
1001
ACAD
1000
DSTYLE
1002
{
1070
   140
1040
12.0
1002
}
  0
DIMENSION
  5
F23
330
1F
100
AcDbEntity
  8
Quotature
  6
PUNTO2
 62
     5
370
    13
100
AcDbDimension
  2
*D31
 10
233.9879683262342
 20
797.6177897880043
 30
0.0
 11
-36.01203167376572
 21
804.2427897880042
 31
0.0
 70
    32
 71
     5
 42
540.0
  3
ISO-25
100
AcDbAlignedDimension
 13
-306.0120316737657
 23
837.8243680260162
 33
0.0
 14
233.9879683262342
 24
837.8243680260162
 34
0.0
100
AcDbRotatedDimension
1001
ACAD
1000
DSTYLE
1002
{
1070
   140
1040
12.0
1002
}
  0
LINE
  5
F42
330
1F
100
AcDbEntity
  8
0
 62
     1
100
AcDbLine
 10
213.3629683262343
 20
937.8243680260162
 30
0.0
 11
213.3629683262343
 21
837.8243680260162
 31
0.0
  0
DIMENSION
  5
F50
330
1F
100
AcDbEntity
  8
Quotature
  6
PUNTO2
 62
     5
370
     9
100
AcDbDimension
  2
*D32
 10
136.9390746303281
 20
750.042125562491
 30
0.0
 11
406.9390746303281
 21
756.667125562491
 31
0.0
 70
    32
 71
     5
 42
540.0
  3
ISO-25
100
AcDbAlignedDimension
 13
676.9390746303281
 23
690.0158447998293
 33
0.0
 14
136.9390746303281
 24
690.0158447998293
 34
0.0
100
AcDbRotatedDimension
1001
ACAD
1000
DSTYLE
1002
{
1070
   140
1040
12.0
1002
}
  0
MTEXT
  5
F6F
330
1F
100
AcDbEntity
  8
0
100
AcDbMText
 10
-191.4082510647157
 20
429.4275300401855
 30
0.0
 40
15.0
 41
449.4508999999999
 71
     2
 72
     5
  1
Consiglio tagliare qualche mm piu corto enl lato da 500
 73
     1
 44
1.0
1001
ACAD
1000
MTEXTBEGIN
1070
    73
1070
     1
1070
    44
1040
1.0
1070
    74
1070
     0
1000
MTEXTEND
  0
LINE
  5
F71
330
1F
100
AcDbEntity
  8
0
 62
     1
100
AcDbLine
 10
-306.0120316737657
 20
1187.824368026016
 30
0.0
 11
-306.0120316737657
 21
1207.824368026016
 31
0.0
  0
LINE
  5
F73
330
1F
100
AcDbEntity
  8
0
 62
     1
100
AcDbLine
 10
233.9879683262343
 20
1207.824368026016
 30
0.0
 11
233.9879683262343
 21
1187.824368026016
 31
0.0
  0
LINE
  5
F74
330
1F
100
AcDbEntity
  8
0
 62
     1
100
AcDbLine
 10
233.9879683262343
 20
1187.824368026016
 30
0.0
 11
-306.0120316737657
 21
1187.824368026016
 31
0.0
  0
MTEXT
  5
F77
330
1F
100
AcDbEntity
  8
0
100
AcDbMText
 10
-142.0944458305857
 20
2413.388512953815
 30
0.0
 40
2.5
 41
82.79749999999999
 71
     1
 72
     5
  1
Base superiore
 73
     1
 44
1.0
1001
ACAD
1000
MTEXTBEGIN
1070
    73
1070
     1
1070
    44
1040
1.0
1070
    74
1070
     0
1000
MTEXTEND
  0
LINE
  5
F78
330
1F
100
AcDbEntity
  8
0
 62
     1
100
AcDbLine
 10
-306.0120316737657
 20
1207.824368026016
 30
0.0
 11
233.9879683262343
 21
1207.824368026016
 31
0.0
  0
DIMENSION
  5
F79
330
1F
100
AcDbEntity
  8
Quotature
  6
PUNTO2
 62
     5
370
     9
100
AcDbDimension
  2
*D33
 10
307.0207450600119
 20
837.824368026016
 30
0.0
 11
300.3957450600118
 21
1022.824368026016
 31
0.0
 70
    32
 71
     5
 42
370.0
  3
ISO-25
100
AcDbAlignedDimension
 13
233.9879683262343
 23
1207.824368026016
 33
0.0
 14
213.3629683262343
 24
837.8243680260162
 34
0.0
 50
90.0
100
AcDbRotatedDimension
1001
ACAD
1000
DSTYLE
1002
{
1070
   140
1040
12.0
1002
}
  0
MTEXT
  5
F98
330
1F
100
AcDbEntity
  8
0
  6
PUNTO2
 62
     5
370
     5
100
AcDbMText
 10
-37.83657820924056
 20
1204.266394337938
 30
0.0
 40
2.5
 41
143.8359
 71
     2
 72
     5
  1
Base superiore
 73
     1
 44
1.0
1001
ACAD
1000
MTEXTBEGIN
1070
    73
1070
     1
1070
    44
1040
1.0
1070
    74
1070
     0
1000
MTEXTEND
  0
LINE
  5
F99
330
1F
100
AcDbEntity
  8
0
100
AcDbLine
 10
420.2670673398061
 20
1048.444281654731
 30
0.0
 11
420.2670673398061
 21
928.4442816547311
 31
0.0
  0
LINE
  5
F9A
330
1F
100
AcDbEntity
  8
0
100
AcDbLine
 10
420.2670673398061
 20
928.4442816547311
 30
0.0
 11
920.267067339806
 21
928.4442816547311
 31
0.0
  0
LINE
  5
F9B
330
1F
100
AcDbEntity
  8
0
100
AcDbLine
 10
920.267067339806
 20
928.4442816547311
 30
0.0
 11
920.267067339806
 21
1048.444281654731
 31
0.0
  0
LINE
  5
F9D
330
1F
100
AcDbEntity
  8
0
100
AcDbLine
 10
420.2670673398061
 20
1048.444281654731
 30
0.0
 11
920.267067339806
 21
1048.444281654731
 31
0.0
  0
MTEXT
  5
101F
330
1F
100
AcDbEntity
  8
0
100
AcDbMText
 10
685.539214080697
 20
1022.704666007263
 30
0.0
 40
15.0
 41
282.2187
 71
     2
 72
     5
  1
Supporto interno asse Y
 73
     1
 44
1.0
1001
ACAD
1000
MTEXTBEGIN
1070
    73
1070
     1
1070
    44
1040
1.0
1070
    74
1070
     0
1000
MTEXTEND
  0
LINE
  5
1025
330
1F
100
AcDbEntity
  8
0
100
AcDbLine
 10
422.9398251764114
 20
1147.518276341166
 30
0.0
 11
962.9398251764113
 21
1147.518276341166
 31
0.0
  0
LINE
  5
1026
330
1F
100
AcDbEntity
  8
0
100
AcDbLine
 10
962.9398251764113
 20
1147.518276341166
 30
0.0
 11
962.9398251764113
 21
1267.518276341166
 31
0.0
  0
LINE
  5
1027
330
1F
100
AcDbEntity
  8
0
100
AcDbLine
 10
962.9398251764113
 20
1267.518276341166
 30
0.0
 11
422.9398251764114
 21
1267.518276341166
 31
0.0
  0
LINE
  5
1028
330
1F
100
AcDbEntity
  8
0
100
AcDbLine
 10
422.9398251764114
 20
1267.518276341166
 30
0.0
 11
422.9398251764114
 21
1147.518276341166
 31
0.0
  0
DIMENSION
  5
1029
330
1F
100
AcDbEntity
  8
Quotature
  6
PUNTO2
 62
     5
370
     9
100
AcDbDimension
  2
*D36
 10
962.9398251764113
 20
1308.237170153842
 30
0.0
 11
692.9398251764114
 21
1314.862170153842
 31
0.0
 70
    32
 71
     5
 42
540.0
  3
ISO-25
100
AcDbAlignedDimension
 13
422.9398251764114
 23
1267.518276341166
 33
0.0
 14
962.9398251764113
 24
1267.518276341166
 34
0.0
100
AcDbRotatedDimension
1001
ACAD
1000
DSTYLE
1002
{
1070
   140
1040
12.0
1002
}
  0
DIMENSION
  5
1036
330
1F
100
AcDbEntity
  8
Quotature
  6
PUNTO2
 62
     5
370
     9
100
AcDbDimension
  2
*D37
 10
1013.278748545199
 20
1147.518276341166
 30
0.0
 11
1006.653748545199
 21
1207.518276341167
 31
0.0
 70
    32
 71
     5
 42
120.0
  3
ISO-25
100
AcDbAlignedDimension
 13
962.9398251764113
 23
1267.518276341166
 33
0.0
 14
962.9398251764113
 24
1147.518276341166
 34
0.0
 50
90.0
100
AcDbRotatedDimension
1001
ACAD
1000
DSTYLE
1002
{
1070
   140
1040
12.0
1002
}
  0
MTEXT
  5
1055
330
1F
100
AcDbEntity
  8
0
100
AcDbMText
 10
734.9920038082459
 20
1241.55592706352
 30
0.0
 40
15.0
 41
340.0572
 71
     2
 72
     5
  1
Supporto superiore asse Y
 73
     1
 44
1.0
1001
ACAD
1000
MTEXTBEGIN
1070
    73
1070
     1
1070
    44
1040
1.0
1070
    74
1070
     0
1000
MTEXTEND
  0
LINE
  5
1058
330
1F
100
AcDbEntity
  8
Quotature
  6
PUNTO2
 62
     5
370
    13
100
AcDbLine
 10
213.9879683262343
 20
1187.824368026016
 30
0.0
 11
213.9879683262343
 21
1107.824368026016
 31
0.0
  0
LINE
  5
1059
330
1F
100
AcDbEntity
  8
0
100
AcDbLine
 10
213.9879683262343
 20
1107.824368026016
 30
0.0
 11
-286.0120316737657
 21
1107.824368026016
 31
0.0
  0
LINE
  5
105A
330
1F
100
AcDbEntity
  8
0
100
AcDbLine
 10
-286.0120316737657
 20
1107.824368026016
 30
0.0
 11
-286.0120316737657
 21
1087.824368026016
 31
0.0
  0
LINE
  5
105B
330
1F
100
AcDbEntity
  8
0
100
AcDbLine
 10
-286.0120316737657
 20
1087.824368026016
 30
0.0
 11
213.9879683262343
 21
1087.824368026016
 31
0.0
  0
MTEXT
  5
105C
330
1F
100
AcDbEntity
  8
0
100
AcDbMText
 10
-117.9903737621998
 20
1101.785832041988
 30
0.0
 40
2.5
 41
148.7279
 71
     1
 72
     5
  1
Supporto interno asse Y
 73
     1
 44
1.0
1001
ACAD
1000
MTEXTBEGIN
1070
    73
1070
     1
1070
    44
1040
1.0
1070
    74
1070
     0
1000
MTEXTEND
  0
DIMENSION
  5
105D
330
1F
100
AcDbEntity
  8
Quotature
  6
PUNTO2
 62
     5
370
    13
100
AcDbDimension
  2
*D38
 10
-44.22323004715964
 20
1107.824368026016
 30
0.0
 11
-50.84823004715982
 21
1147.824368026016
 31
0.0
 70
    32
 71
     5
 42
80.0
  3
ISO-25
100
AcDbAlignedDimension
 13
213.3629683262343
 23
1187.824368026016
 33
0.0
 14
213.9879683262343
 24
1107.824368026016
 34
0.0
 50
90.0
100
AcDbRotatedDimension
1001
ACAD
1000
DSTYLE
1002
{
1070
   140
1040
12.0
1002
}
  0
LINE
  5
15F1
330
1F
100
AcDbEntity
  8
0
100
AcDbLine
 10
920.267067339806
 20
1048.444281654731
 30
0.0
 11
940.2670673398061
 21
1048.444281654731
 31
0.0
  0
LINE
  5
15F2
330
1F
100
AcDbEntity
  8
0
100
AcDbLine
 10
940.2670673398061
 20
1048.444281654731
 30
0.0
 11
940.2670673398061
 21
1028.444281654731
 31
0.0
  0
LINE
  5
15F3
330
1F
100
AcDbEntity
  8
0
100
AcDbLine
 10
940.2670673398061
 20
1028.444281654731
 30
0.0
 11
920.267067339806
 21
1028.444281654731
 31
0.0
  0
LINE
  5
15F4
330
1F
100
AcDbEntity
  8
0
100
AcDbLine
 10
420.2670673398061
 20
1048.444281654731
 30
0.0
 11
400.2670673398061
 21
1048.444281654731
 31
0.0
  0
LINE
  5
15F5
330
1F
100
AcDbEntity
  8
0
100
AcDbLine
 10
400.2670673398061
 20
1048.444281654731
 30
0.0
 11
400.2670673398061
 21
1028.444281654731
 31
0.0
  0
LINE
  5
15F6
330
1F
100
AcDbEntity
  8
0
100
AcDbLine
 10
400.2670673398061
 20
1028.444281654731
 30
0.0
 11
420.2670673398061
 21
1028.444281654731
 31
0.0
  0
DIMENSION
  5
15F7
330
1F
100
AcDbEntity
  8
Quotature
  6
PUNTO2
 62
     5
370
     9
100
AcDbDimension
  2
*D39
 10
940.2670673398061
 20
1085.763740573662
 30
0.0
 11
670.2670673398061
 21
1092.388740573662
 31
0.0
 70
    32
 71
     5
 42
540.0
  3
ISO-25
100
AcDbAlignedDimension
 13
400.2670673398061
 23
1048.444281654731
 33
0.0
 14
940.2670673398061
 24
1048.444281654731
 34
0.0
100
AcDbRotatedDimension
1001
ACAD
1000
DSTYLE
1002
{
1070
   140
1040
12.0
1002
}
  0
DIMENSION
  5
1604
330
1F
100
AcDbEntity
  8
Quotature
  6
PUNTO2
 62
     5
370
     9
100
AcDbDimension
  2
*D40
 10
963.7178633867806
 20
1028.444281654731
 30
0.0
 11
957.0928633867806
 21
1038.444281654731
 31
0.0
 70
    32
 71
     5
 42
20.0
  3
ISO-25
100
AcDbAlignedDimension
 13
940.2670673398061
 23
1048.444281654731
 33
0.0
 14
940.2670673398061
 24
1028.444281654731
 34
0.0
 50
90.0
100
AcDbRotatedDimension
1001
ACAD
1000
DSTYLE
1002
{
1070
   140
1040
12.0
1002
}
  0
DIMENSION
  5
1611
330
1F
100
AcDbEntity
  8
Quotature
  6
PUNTO2
 62
     5
370
     9
100
AcDbDimension
  2
*D41
 10
371.3151862195937
 20
928.4442816547311
 30
0.0
 11
364.6901862195935
 21
988.4442816547311
 31
0.0
 70
    32
 71
     5
 42
119.9999999999999
  3
ISO-25
100
AcDbAlignedDimension
 13
400.2670673398061
 23
1048.444281654731
 33
0.0
 14
420.2670673398061
 24
928.4442816547311
 34
0.0
 50
90.0
100
AcDbRotatedDimension
1001
ACAD
1000
DSTYLE
1002
{
1070
   140
1040
12.0
1002
}
  0
DIMENSION
  5
161E
330
1F
100
AcDbEntity
  8
Quotature
  6
PUNTO2
 62
     5
370
     9
100
AcDbDimension
  2
*D42
 10
920.267067339806
 20
894.7878801838541
 30
0.0
 11
670.2670673398061
 21
901.4128801838541
 31
0.0
 70
    32
 71
     5
 42
500.0
  3
ISO-25
100
AcDbAlignedDimension
 13
420.2670673398061
 23
928.4442816547311
 33
0.0
 14
920.267067339806
 24
928.4442816547311
 34
0.0
100
AcDbRotatedDimension
1001
ACAD
1000
DSTYLE
1002
{
1070
   140
1040
12.0
1070
   340
1005
11
1002
}
  0
ENDSEC
  0
SECTION
  2
OBJECTS
  0
DICTIONARY
  5
C
330
0
100
AcDbDictionary
281
     1
  3
ACAD_COLOR
350
1719
  3
ACAD_GROUP
350
D
  3
ACAD_LAYOUT
350
1A
  3
ACAD_MATERIAL
350
1718
  3
ACAD_MLINESTYLE
350
17
  3
ACAD_PLOTSETTINGS
350
19
  3
ACAD_PLOTSTYLENAME
350
E
  3
ACAD_TABLESTYLE
350
171A
  3
ACDBHEADERROUNDTRIPXREC
350
17DC
  3
AcDbVariableDictionary
350
17D7
  3
AcmDictionary
350
177C
  3
AMG
350
1720
  3
AMGSNAPSETTINGS
350
17D0
  0
DICTIONARY
  5
1719
102
{ACAD_REACTORS
330
C
102
}
330
C
100
AcDbDictionary
281
     1
  0
DICTIONARY
  5
D
102
{ACAD_REACTORS
330
C
102
}
330
C
100
AcDbDictionary
281
     1
  0
DICTIONARY
  5
1A
102
{ACAD_REACTORS
330
C
102
}
330
C
100
AcDbDictionary
281
     1
  3
Layout1
350
1E
  3
Layout2
350
26
  3
Model
350
22
  0
DICTIONARY
  5
1718
102
{ACAD_REACTORS
330
C
102
}
330
C
100
AcDbDictionary
281
     1
  0
DICTIONARY
  5
17
102
{ACAD_REACTORS
330
C
102
}
330
C
100
AcDbDictionary
281
     1
  3
Standard
350
18
  0
DICTIONARY
  5
19
102
{ACAD_REACTORS
330
C
102
}
330
C
100
AcDbDictionary
281
     1
  0
ACDBDICTIONARYWDFLT
  5
E
102
{ACAD_REACTORS
330
C
102
}
330
C
100
AcDbDictionary
281
     1
  3
Normal
350
F
100
AcDbDictionaryWithDefault
340
F
  0
DICTIONARY
  5
171A
102
{ACAD_REACTORS
330
C
102
}
330
C
100
AcDbDictionary
281
     1
  3
Standard
350
171B
  0
DICTIONARY
  5
17DC
102
{ACAD_REACTORS
330
C
102
}
330
C
100
AcDbDictionary
281
     1
  0
DICTIONARY
  5
17D7
102
{ACAD_REACTORS
330
C
102
}
330
C
100
AcDbDictionary
281
     1
  3
CTABLESTYLE
350
17D8
  3
DIMASSOC
350
17D9
  3
PROJECTNAME
350
17DA
  0
DICTIONARY
  5
177C
102
{ACAD_REACTORS
330
C
102
}
330
C
100
AcDbDictionary
281
     1
  3
AcmStdDictionary
350
1787
  3
AMDTSECTSYM_ARROWCOLOR
350
17A5
  0
DICTIONARY
  5
1720
102
{ACAD_REACTORS
330
C
102
}
330
C
100
AcDbDictionary
281
     1
  0
DICTIONARY
  5
17D0
102
{ACAD_REACTORS
330
C
102
}
330
C
100
AcDbDictionary
281
     1
  0
LAYOUT
  5
1E
102
{ACAD_XDICTIONARY
360
17DD
102
}
102
{ACAD_REACTORS
330
1A
102
}
330
1A
100
AcDbPlotSettings
  1

  2
HP DeskJet 340 (Monochrome)
  4

  6

 40
0.0
 41
0.0
 42
0.0
 43
0.0
 44
0.0
 45
0.0
 46
0.0
 47
0.0
 48
0.0
 49
0.0
140
0.0
141
0.0
142
1.0
143
1.0
 70
   688
 72
     0
 73
     0
 74
     5
  7

 75
    16
147
1.0
148
0.0
149
0.0
100
AcDbLayout
  1
Layout1
 70
     1
 71
     1
 10
0.0
 20
0.0
 11
420.0
 21
297.0
 12
0.0
 22
0.0
 32
0.0
 14
1.000000000000000E+20
 24
1.000000000000000E+20
 34
1.000000000000000E+20
 15
-1.000000000000000E+20
 25
-1.000000000000000E+20
 35
-1.000000000000000E+20
146
0.0
 13
0.0
 23
0.0
 33
0.0
 16
1.0
 26
0.0
 36
0.0
 17
0.0
 27
1.0
 37
0.0
 76
     0
330
1B
  0
LAYOUT
  5
26
102
{ACAD_XDICTIONARY
360
17E1
102
}
102
{ACAD_REACTORS
330
1A
102
}
330
1A
100
AcDbPlotSettings
  1

  2
HP DeskJet 340 (Monochrome)
  4

  6

 40
0.0
 41
0.0
 42
0.0
 43
0.0
 44
0.0
 45
0.0
 46
0.0
 47
0.0
 48
0.0
 49
0.0
140
0.0
141
0.0
142
1.0
143
1.0
 70
   688
 72
     0
 73
     0
 74
     5
  7

 75
    16
147
1.0
148
0.0
149
0.0
100
AcDbLayout
  1
Layout2
 70
     1
 71
     2
 10
0.0
 20
0.0
 11
12.0
 21
9.0
 12
0.0
 22
0.0
 32
0.0
 14
0.0
 24
0.0
 34
0.0
 15
0.0
 25
0.0
 35
0.0
146
0.0
 13
0.0
 23
0.0
 33
0.0
 16
1.0
 26
0.0
 36
0.0
 17
0.0
 27
1.0
 37
0.0
 76
     0
330
23
  0
LAYOUT
  5
22
102
{ACAD_XDICTIONARY
360
17DF
102
}
102
{ACAD_REACTORS
330
1A
102
}
330
1A
100
AcDbPlotSettings
  1

  2
hp LaserJet 1160
  4
A4
  6

 40
5.027083396911621
 41
5.069413185119628
 42
5.450408935546875
 43
5.027069091796875
 44
209.9733276367187
 45
296.9683227539062
 46
0.0
 47
4.41
 48
-572.268683627266
 49
-114.6705151271035
140
1592.809660128903
141
1438.698542942875
142
1.0
143
7.786473615857013
 70
 11956
 72
     1
 73
     1
 74
     4
  7

 75
     0
147
0.128427841579469
148
572.268683627266
149
114.6705151271035
100
AcDbLayout
  1
Model
 70
     1
 71
     0
 10
0.0
 20
0.0
 11
12.0
 21
9.0
 12
0.0
 22
0.0
 32
0.0
 14
0.0
 24
0.0
 34
0.0
 15
0.0
 25
0.0
 35
0.0
146
0.0
 13
0.0
 23
0.0
 33
0.0
 16
1.0
 26
0.0
 36
0.0
 17
0.0
 27
1.0
 37
0.0
 76
     0
330
1F
  0
MLINESTYLE
  5
18
102
{ACAD_REACTORS
330
17
102
}
330
17
100
AcDbMlineStyle
  2
STANDARD
 70
     0
  3

 62
   256
 51
90.0
 52
90.0
 71
     2
 49
0.5
 62
   256
  6
BYLAYER
 49
-0.5
 62
   256
  6
BYLAYER
  0
ACDBPLACEHOLDER
  5
F
102
{ACAD_REACTORS
330
E
102
}
330
E
  0
TABLESTYLE
  5
171B
102
{ACAD_REACTORS
330
171A
102
}
330
171A
100
AcDbTableStyle
  3
Standard
 70
     0
 71
     0
 40
1.5
 41
1.5
280
     0
281
     0
  7
Standard
140
4.5
170
     2
 62
     0
 63
     7
283
     0
274
    -2
284
     1
 64
     0
275
    -2
285
     1
 65
     0
276
    -2
286
     1
 66
     0
277
    -2
287
     1
 67
     0
278
    -2
288
     1
 68
     0
279
    -2
289
     1
 69
     0
  7
Standard
140
6.0
170
     5
 62
     0
 63
     7
283
     0
274
    -2
284
     1
 64
     0
275
    -2
285
     1
 65
     0
276
    -2
286
     1
 66
     0
277
    -2
287
     1
 67
     0
278
    -2
288
     1
 68
     0
279
    -2
289
     1
 69
     0
  7
Standard
140
4.5
170
     5
 62
     0
 63
     7
283
     0
274
    -2
284
     1
 64
     0
275
    -2
285
     1
 65
     0
276
    -2
286
     1
 66
     0
277
    -2
287
     1
 67
     0
278
    -2
288
     1
 68
     0
279
    -2
289
     1
 69
     0
  0
DICTIONARYVAR
  5
17D8
102
{ACAD_REACTORS
330
17D7
102
}
330
17D7
100
DictionaryVariables
280
     0
  1
STANDARD
  0
DICTIONARYVAR
  5
17D9
102
{ACAD_REACTORS
330
17D7
102
}
330
17D7
100
DictionaryVariables
280
     0
  1
1
  0
DICTIONARYVAR
  5
17DA
102
{ACAD_REACTORS
330
17D7
102
}
330
17D7
100
DictionaryVariables
280
     0
  1

  0
DICTIONARY
  5
1787
102
{ACAD_REACTORS
330
177C
102
}
330
177C
100
AcDbDictionary
281
     1
  0
XRECORD
  5
17A5
102
{ACAD_REACTORS
330
177C
102
}
330
177C
100
AcDbXrecord
280
     1
 90
-1023410169
  0
DICTIONARY
  5
17DD
330
1E
100
AcDbDictionary
280
     1
281
     1
  3
ACAD_XREC_ROUNDTRIP
360
17DE
  0
DICTIONARY
  5
17E1
330
26
100
AcDbDictionary
280
     1
281
     1
  3
ACAD_XREC_ROUNDTRIP
360
17E2
  0
DICTIONARY
  5
17DF
330
22
100
AcDbDictionary
280
     1
281
     1
  3
ACAD_XREC_ROUNDTRIP
360
17E0
  0
XRECORD
  5
17DE
102
{ACAD_REACTORS
330
17DD
102
}
330
17DD
100
AcDbXrecord
280
     1
102
SHADEPLOT
 70
     0
102
SHADEPLOTRESLEVEL
 70
     2
102
SHADEPLOTCUSTOMDPI
 70
   300
  0
XRECORD
  5
17E2
102
{ACAD_REACTORS
330
17E1
102
}
330
17E1
100
AcDbXrecord
280
     1
102
SHADEPLOT
 70
     0
102
SHADEPLOTRESLEVEL
 70
     2
102
SHADEPLOTCUSTOMDPI
 70
   300
  0
XRECORD
  5
17E0
102
{ACAD_REACTORS
330
17DF
102
}
330
17DF
100
AcDbXrecord
280
     1
102
SHADEPLOT
 70
     0
102
SHADEPLOTRESLEVEL
 70
     2
102
SHADEPLOTCUSTOMDPI
 70
   300
  0
ENDSEC
  0
EOF
