  0
SECTION
  2
HEADER
  9
$ACADVER
  1
AC1009
  9
$INSBASE
 10
-4824.2840915331872
 20
717.6482175284018
 30
0.0
  9
$EXTMIN
 10
-4824.2840915331872
 20
717.6482175284018
 30
0.0
  9
$EXTMAX
 10
-3526.2840915331872
 20
1517.6482175284
 30
0.0
  9
$LIMMIN
 10
0.0
 20
0.0
  9
$LIMMAX
 10
840.0
 20
1188.0
  9
$ORTHOMODE
 70
     0
  9
$REGENMODE
 70
     1
  9
$FILLMODE
 70
     1
  9
$QTEXTMODE
 70
     0
  9
$MIRRTEXT
 70
     1
  9
$DRAGMODE
 70
     2
  9
$LTSCALE
 40
1.0
  9
$OSMODE
 70
    37
  9
$ATTMODE
 70
     1
  9
$TEXTSIZE
 40
5.0
  9
$TRACEWID
 40
1.0
  9
$TEXTSTYLE
  7
STANDARD
  9
$CLAYER
  8
COPERTURA_1MM
  9
$CELTYPE
  6
BYLAYER
  9
$CECOLOR
 62
   256
  9
$DIMSCALE
 40
1.0
  9
$DIMASZ
 40
3.5
  9
$DIMEXO
 40
0.625
  9
$DIMDLI
 40
3.75
  9
$DIMRND
 40
0.0
  9
$DIMDLE
 40
0.0
  9
$DIMEXE
 40
1.25
  9
$DIMTP
 40
0.0
  9
$DIMTM
 40
0.0
  9
$DIMTXT
 40
2.5
  9
$DIMCEN
 40
2.5
  9
$DIMTSZ
 40
0.0
  9
$DIMTOL
 70
     0
  9
$DIMLIM
 70
     0
  9
$DIMTIH
 70
     1
  9
$DIMTOH
 70
     0
  9
$DIMSE1
 70
     0
  9
$DIMSE2
 70
     0
  9
$DIMTAD
 70
     1
  9
$DIMZIN
 70
     8
  9
$DIMBLK
  1

  9
$DIMASO
 70
     1
  9
$DIMSHO
 70
     1
  9
$DIMPOST
  1

  9
$DIMAPOST
  1

  9
$DIMALT
 70
     0
  9
$DIMALTD
 70
     2
  9
$DIMALTF
 40
0.0394
  9
$DIMLFAC
 40
1.0
  9
$DIMTOFL
 70
     1
  9
$DIMTVP
 40
1.0
  9
$DIMTIX
 70
     0
  9
$DIMSOXD
 70
     0
  9
$DIMSAH
 70
     0
  9
$DIMBLK1
  1

  9
$DIMBLK2
  1

  9
$DIMSTYLE
  2
COPIA_DI_STANDARD
  9
$DIMCLRD
 70
     1
  9
$DIMCLRE
 70
     1
  9
$DIMCLRT
 70
     3
  9
$DIMTFAC
 40
1.0
  9
$DIMGAP
 40
0.625
  9
$LUNITS
 70
     2
  9
$LUPREC
 70
     4
  9
$SKETCHINC
 40
1.0
  9
$FILLETRAD
 40
1.0
  9
$AUNITS
 70
     0
  9
$AUPREC
 70
     0
  9
$MENU
  1
acad
  9
$ELEVATION
 40
0.0
  9
$PELEVATION
 40
0.0
  9
$THICKNESS
 40
0.0
  9
$LIMCHECK
 70
     0
  9
$BLIPMODE
 70
     0
  9
$CHAMFERA
 40
10.0
  9
$CHAMFERB
 40
10.0
  9
$SKPOLY
 70
     0
  9
$TDCREATE
 40
2450180.7442518519
  9
$TDUPDATE
 40
2452058.6992758671
  9
$TDINDWG
 40
1.0969268403000001
  9
$TDUSRTIMER
 40
1.0969266088
  9
$USRTIMER
 70
     1
  9
$ANGBASE
 50
0.0
  9
$ANGDIR
 70
     0
  9
$PDMODE
 70
     0
  9
$PDSIZE
 40
0.0
  9
$PLINEWID
 40
0.0
  9
$COORDS
 70
     1
  9
$SPLFRAME
 70
     0
  9
$SPLINETYPE
 70
     6
  9
$SPLINESEGS
 70
     8
  9
$ATTDIA
 70
     0
  9
$ATTREQ
 70
     1
  9
$HANDLING
 70
 10241
  9
$HANDSEED
  5
10AC
  9
$SURFTAB1
 70
     6
  9
$SURFTAB2
 70
     6
  9
$SURFTYPE
 70
     6
  9
$SURFU
 70
     6
  9
$SURFV
 70
     6
  9
$UCSNAME
  2

  9
$UCSORG
 10
0.0
 20
0.0
 30
0.0
  9
$UCSXDIR
 10
1.0
 20
0.0
 30
0.0
  9
$UCSYDIR
 10
0.0
 20
1.0
 30
0.0
  9
$PUCSNAME
  2

  9
$PUCSORG
 10
0.0
 20
0.0
 30
0.0
  9
$PUCSXDIR
 10
1.0
 20
0.0
 30
0.0
  9
$PUCSYDIR
 10
0.0
 20
1.0
 30
0.0
  9
$USERI1
 70
     0
  9
$USERI2
 70
     0
  9
$USERI3
 70
     0
  9
$USERI4
 70
     0
  9
$USERI5
 70
     0
  9
$USERR1
 40
0.0
  9
$USERR2
 40
0.0
  9
$USERR3
 40
0.0
  9
$USERR4
 40
0.0
  9
$USERR5
 40
0.0
  9
$WORLDVIEW
 70
     1
  9
$SHADEDGE
 70
     3
  9
$SHADEDIF
 70
    70
  9
$TILEMODE
 70
     1
  9
$MAXACTVP
 70
    16
  9
$PLIMCHECK
 70
     0
  9
$PEXTMIN
 10
1.0000000000000000E+020
 20
1.0000000000000000E+020
 30
1.0000000000000000E+020
  9
$PEXTMAX
 10
-1.0000000000000000E+020
 20
-1.0000000000000000E+020
 30
-1.0000000000000000E+020
  9
$PLIMMIN
 10
0.0
 20
0.0
  9
$PLIMMAX
 10
420.0
 20
297.0
  9
$UNITMODE
 70
     0
  9
$VISRETAIN
 70
     0
  9
$PLINEGEN
 70
     0
  9
$PSLTSCALE
 70
     1
  0
ENDSEC
  0
SECTION
  2
TABLES
  0
TABLE
  2
VPORT
 70
     3
  0
VPORT
  2
*ACTIVE
 70
     0
 10
0.0
 20
0.0
 11
1.0
 21
1.0
 12
-3912.7270171682121
 22
1125.7799634837111
 13
0.0
 23
0.0
 14
5.0
 24
5.0
 15
5.0
 25
5.0
 16
0.0
 26
0.0
 36
1.0
 17
0.0
 27
0.0
 37
0.0
 40
1176.8121456527531
 41
1.9325626204238919
 42
50.0
 43
0.0
 44
0.0
 50
0.0
 51
0.0
 71
     0
 72
   100
 73
     1
 74
     0
 75
     0
 76
     0
 77
     0
 78
     0
  0
ENDTAB
  0
TABLE
  2
LTYPE
 70
     3
  0
LTYPE
  2
CONTINUOUS
 70
     0
  3
Solid line
 72
    65
 73
     0
 40
0.0
  0
LTYPE
  2
DISCONTINU2
 70
     0
  3
_ _ _ _ _ _ _ _ _ _ _ _ _ _ _ _ _ _ _ _ _ _ _ _
 72
    65
 73
     2
 40
9.5250000000000004
 49
6.349999999999997
 49
-3.174999999999998
  0
LTYPE
  2
AXESX2
 70
     0
  3
________  __  ________  __  ________  __  _____
 72
    65
 73
     4
 40
101.59999999999999
 49
63.5
 49
-12.699999999999999
 49
12.699999999999999
 49
-12.699999999999999
  0
ENDTAB
  0
TABLE
  2
LAYER
 70
    20
  0
LAYER
  2
0
 70
     0
 62
     7
  6
CONTINUOUS
  0
LAYER
  2
COPERTURA_1MM
 70
     0
 62
     4
  6
CONTINUOUS
  0
LAYER
  2
BALSA_1_5
 70
     0
 62
     6
  6
CONTINUOUS
  0
LAYER
  2
BALSA_3
 70
     0
 62
     6
  6
CONTINUOUS
  0
LAYER
  2
BALSA5X5
 70
     0
 62
     6
  6
CONTINUOUS
  0
LAYER
  2
ALETTONE
 70
     0
 62
     2
  6
CONTINUOUS
  0
LAYER
  2
COMPENSATO_1_5
 70
     0
 62
    30
  6
CONTINUOUS
  0
LAYER
  2
TIGLIO10X5
 70
     0
 62
     3
  6
CONTINUOUS
  0
LAYER
  2
BALSA2MM
 70
     0
 62
     6
  6
CONTINUOUS
  0
LAYER
  2
TRIANG20X5
 70
     0
 62
     2
  6
CONTINUOUS
  0
LAYER
  2
TOBO_ALU_3MM
 70
     0
 62
     5
  6
CONTINUOUS
  0
LAYER
  2
TUBO_ALU_8MM
 70
     0
 62
     5
  6
CONTINUOUS
  0
LAYER
  2
ASSI
 70
     0
 62
     1
  6
AXESX2
  0
LAYER
  2
MECCANICA
 70
     0
 62
     5
  6
CONTINUOUS
  0
LAYER
  2
SERVI
 70
     0
 62
     5
  6
CONTINUOUS
  0
LAYER
  2
BALSA_BLOCK
 70
     0
 62
     6
  6
CONTINUOUS
  0
LAYER
  2
ASSIEME
 70
     0
 62
     8
  6
CONTINUOUS
  0
LAYER
  2
DEFPOINTS
 70
     0
 62
     7
  6
CONTINUOUS
  0
LAYER
  2
TESTO10
 70
     0
 62
     5
  6
CONTINUOUS
  0
ENDTAB
  0
TABLE
  2
STYLE
 70
     1
  0
STYLE
  2
STANDARD
 70
     0
 40
5.0
 41
1.0
 50
0.0
 71
     0
 42
5.0
  3
romans.shx
  4

  0
ENDTAB
  0
TABLE
  2
VIEW
 70
     0
  0
ENDTAB
  0
TABLE
  2
UCS
 70
     0
  0
ENDTAB
  0
TABLE
  2
APPID
 70
     2
  0
APPID
  2
ACAD
 70
     0
  0
APPID
  2
CONTENTBLOCKICON
 70
     0
  0
ENDTAB
  0
TABLE
  2
DIMSTYLE
 70
     1
  0
DIMSTYLE
  2
COPIA_DI_STANDARD
 70
     0
  3

  4

  5

  6

  7

 40
1.0
 41
3.5
 42
0.625
 43
3.75
 44
1.25
 45
0.0
 46
0.0
 47
0.0
 48
0.0
140
2.5
141
2.5
142
0.0
143
0.0394
144
1.0
145
1.0
146
1.0
147
0.625
 71
     0
 72
     0
 73
     1
 74
     0
 75
     0
 76
     0
 77
     1
 78
     8
170
     0
171
     2
172
     1
173
     0
174
     0
175
     0
176
     1
177
     1
178
     3
  0
ENDTAB
  0
ENDSEC
  0
SECTION
  2
BLOCKS
  0
BLOCK
  8
0
  2
$MODEL_SPACE
 70
     0
 10
0.0
 20
0.0
 30
0.0
  3
$MODEL_SPACE
  1

  0
ENDBLK
  5
8D9
  8
0
  0
BLOCK
 67
     1
  8
0
  2
$PAPER_SPACE
 70
     0
 10
0.0
 20
0.0
 30
0.0
  3
$PAPER_SPACE
  1

  0
ENDBLK
  5
8D5
 67
     1
  8
0
  0
BLOCK
  8
0
  2
SERVO_PIANTA
 70
     0
 10
0.0
 20
0.0
 30
0.0
  3
SERVO_PIANTA
  1

  0
LINE
  5
8FC
  8
MECCANICA
 10
28.000000000000451
 20
9.9999999999997726
 30
0.0
 11
28.000000000000451
 21
-10.0
 31
0.0
  0
LINE
  5
8FD
  8
MECCANICA
  6
CONTINUOUS
 10
35.000000000000441
 20
-6.75
 30
0.0
 11
35.000000000000441
 21
-10.0
 31
0.0
  0
LINE
  5
8FE
  8
MECCANICA
  6
CONTINUOUS
 10
-17.999999999999531
 20
-10.0
 30
0.0
 11
-17.999999999999531
 21
-6.75
 31
0.0
  0
LINE
  5
8FF
  8
MECCANICA
 10
-10.99999999999954
 20
-3.3541019662518461
 30
0.0
 11
-10.99999999999954
 21
-10.0
 31
0.0
  0
ARC
  5
900
  8
MECCANICA
 10
0.0
 20
0.0
 30
0.0
 40
11.5
 50
212.4913171031738
 51
267.50868289680761
  0
ARC
  5
901
  8
MECCANICA
 10
0.0
 20
0.0
 30
0.0
 40
11.5
 50
272.49131710319199
 51
327.50868289682597
  0
LINE
  5
902
  8
MECCANICA
 10
5.678908345800207
 20
-10.0
 30
0.0
 11
35.000000000000441
 21
-10.0
 31
0.0
  0
LINE
  5
903
  8
MECCANICA
 10
-17.999999999999531
 20
-10.0
 30
0.0
 11
-5.678908345800207
 21
-10.0
 31
0.0
  0
CIRCLE
  5
904
  8
MECCANICA
  6
CONTINUOUS
 10
0.0
 20
-11.499999999999771
 30
0.0
 40
0.5
  0
LINE
  5
905
  8
MECCANICA
  6
CONTINUOUS
 10
12.250000000000441
 20
6.0
 30
0.0
 11
24.250000000000451
 21
6.0
 31
0.0
  0
LINE
  5
906
  8
MECCANICA
  6
CONTINUOUS
 10
24.250000000000451
 20
-6.0
 30
0.0
 11
12.250000000000441
 21
-6.0
 31
0.0
  0
LINE
  5
907
  8
MECCANICA
 10
5.6789083458006644
 20
9.9999999999997726
 30
0.0
 11
35.000000000000441
 21
9.9999999999997726
 31
0.0
  0
LINE
  5
908
  8
MECCANICA
 10
-11.0
 20
9.9999999999997726
 30
0.0
 11
-10.99999999999954
 21
3.35410196625139
 31
0.0
  0
LINE
  5
909
  8
MECCANICA
 10
-17.999999999999531
 20
9.9999999999997726
 30
0.0
 11
-5.6789083458006644
 21
9.9999999999997726
 31
0.0
  0
ARC
  5
90A
  8
MECCANICA
 10
-14.99999999999952
 20
5.0
 30
0.0
 40
2.5
 50
224.42700400080901
 51
135.57299599919071
  0
LINE
  5
90B
  8
MECCANICA
 10
-17.999999999999531
 20
6.75
 30
0.0
 11
-16.785357107135031
 21
6.75
 31
0.0
  0
LINE
  5
90C
  8
MECCANICA
 10
-17.999999999999531
 20
3.25
 30
0.0
 11
-16.785357107135031
 21
3.25
 31
0.0
  0
ARC
  5
90D
  8
MECCANICA
 10
-14.99999999999952
 20
-5.0
 30
0.0
 40
2.5
 50
224.42700400080901
 51
135.57299599919071
  0
LINE
  5
90E
  8
MECCANICA
 10
-17.999999999999531
 20
-3.25
 30
0.0
 11
-16.785357107135031
 21
-3.25
 31
0.0
  0
LINE
  5
90F
  8
MECCANICA
 10
-17.999999999999531
 20
-6.75
 30
0.0
 11
-16.785357107135031
 21
-6.75
 31
0.0
  0
LINE
  5
910
  8
MECCANICA
  6
CONTINUOUS
 10
-17.999999999999531
 20
-3.25
 30
0.0
 11
-17.999999999999531
 21
3.25
 31
0.0
  0
LINE
  5
911
  8
MECCANICA
  6
CONTINUOUS
 10
-17.999999999999531
 20
6.75
 30
0.0
 11
-17.999999999999531
 21
9.9999999999997726
 31
0.0
  0
LINE
  5
912
  8
MECCANICA
 10
-13.99999999999954
 20
0.5
 30
0.0
 11
-11.48912529307607
 21
0.5
 31
0.0
  0
LINE
  5
913
  8
MECCANICA
 10
-13.99999999999954
 20
-0.5
 30
0.0
 11
-11.48912529307607
 21
-0.5
 31
0.0
  0
LINE
  5
914
  8
MECCANICA
 10
-14.0
 20
0.5
 30
0.0
 11
-14.0
 21
-0.5
 31
0.0
  0
CIRCLE
  5
915
  8
MECCANICA
  6
CONTINUOUS
 10
0.0000000000004547
 20
0.0
 30
0.0
 40
1.25
  0
LINE
  5
916
  8
MECCANICA
  6
CONTINUOUS
 10
12.250000000000441
 20
-6.0
 30
0.0
 11
12.250000000000441
 21
6.0
 31
0.0
  0
TEXT
  5
917
  8
MECCANICA
  6
CONTINUOUS
 10
21.029379638481249
 20
-4.0916830097519314
 30
0.0
 40
1.5535283557711861
  1
SANWA
 50
90.0
  0
TEXT
  5
918
  8
MECCANICA
  6
CONTINUOUS
 10
18.10613787116198
 20
-5.3161053483825071
 30
0.0
 40
1.5535283557711861
  1
SRM 102
 50
90.0
  0
TEXT
  5
919
  8
MECCANICA
  6
CONTINUOUS
 10
14.9000097967928
 20
-3.903316635762847
 30
0.0
 40
1.5535283557711861
  1
Servo
 50
90.0
  0
CIRCLE
  5
91A
  8
MECCANICA
  6
CONTINUOUS
 10
0.0
 20
0.0
 30
0.0
 40
4.0
  0
ARC
  5
91B
  8
MECCANICA
 10
0.0
 20
0.0
 30
0.0
 40
11.5
 50
332.4913171031792
 51
27.50868289682057
  0
CIRCLE
  5
91C
  8
MECCANICA
  6
CONTINUOUS
 10
0.0
 20
0.0
 30
0.0
 40
1.5
  0
CIRCLE
  5
91D
  8
MECCANICA
  6
CONTINUOUS
 10
-9.9592921435209956
 20
-5.7499999999995444
 30
0.0
 40
0.5
  0
CIRCLE
  5
91E
  8
MECCANICA
  6
CONTINUOUS
 10
9.9592921435214539
 20
-5.7499999999995444
 30
0.0
 40
0.5
  0
CIRCLE
  5
91F
  8
MECCANICA
  6
CONTINUOUS
 10
-6.4951905283833149
 20
-3.7499999999995439
 30
0.0
 40
0.5
  0
CIRCLE
  5
920
  8
MECCANICA
  6
CONTINUOUS
 10
0.0
 20
-7.49999999999977
 30
0.0
 40
0.5
  0
CIRCLE
  5
921
  8
MECCANICA
  6
CONTINUOUS
 10
6.4951905283833149
 20
-3.7499999999995439
 30
0.0
 40
0.5
  0
CIRCLE
  5
922
  8
MECCANICA
  6
CONTINUOUS
 10
0.0
 20
11.5
 30
0.0
 40
0.5
  0
CIRCLE
  5
923
  8
MECCANICA
  6
CONTINUOUS
 10
-9.9592921435214539
 20
5.7500000000002274
 30
0.0
 40
0.5
  0
CIRCLE
  5
924
  8
MECCANICA
  6
CONTINUOUS
 10
9.9592921435209956
 20
5.7500000000004521
 30
0.0
 40
0.5
  0
CIRCLE
  5
925
  8
MECCANICA
  6
CONTINUOUS
 10
0.0
 20
7.5
 30
0.0
 40
0.5
  0
CIRCLE
  5
926
  8
MECCANICA
  6
CONTINUOUS
 10
-6.4951905283833149
 20
3.750000000000226
 30
0.0
 40
0.5
  0
CIRCLE
  5
927
  8
MECCANICA
  6
CONTINUOUS
 10
6.495190528382861
 20
3.7500000000004521
 30
0.0
 40
0.5
  0
ARC
  5
928
  8
MECCANICA
 10
0.0
 20
0.0
 30
0.0
 40
11.5
 50
32.491317103184862
 51
87.508682896807684
  0
ARC
  5
929
  8
MECCANICA
 10
0.0
 20
0.0
 30
0.0
 40
11.5
 50
92.491317103192316
 51
147.508682896815
  0
ARC
  5
92A
  8
MECCANICA
 10
0.0
 20
0.0
 30
0.0
 40
11.5
 50
152.49131710317931
 51
207.5086828968204
  0
LINE
  5
92B
  8
MECCANICA
 10
35.000000000000441
 20
-6.75
 30
0.0
 11
33.785357107135951
 21
-6.75
 31
0.0
  0
LINE
  5
92C
  8
MECCANICA
 10
35.000000000000441
 20
-3.25
 30
0.0
 11
33.785357107135951
 21
-3.25
 31
0.0
  0
ARC
  5
92D
  8
MECCANICA
 10
32.000000000000448
 20
-5.0
 30
0.0
 40
2.5
 50
44.427004000809212
 51
315.5729959991906
  0
ARC
  5
92E
  8
MECCANICA
 10
32.000000000000448
 20
5.0
 30
0.0
 40
2.5
 50
44.427004000809212
 51
315.5729959991906
  0
LINE
  5
92F
  8
MECCANICA
 10
35.000000000000441
 20
3.25
 30
0.0
 11
33.785357107135951
 21
3.25
 31
0.0
  0
LINE
  5
930
  8
MECCANICA
 10
35.000000000000441
 20
6.75
 30
0.0
 11
33.785357107135951
 21
6.75
 31
0.0
  0
LINE
  5
931
  8
MECCANICA
  6
CONTINUOUS
 10
35.000000000000441
 20
6.75
 30
0.0
 11
35.000000000000441
 21
9.9999999999997726
 31
0.0
  0
LINE
  5
932
  8
MECCANICA
  6
CONTINUOUS
 10
35.000000000000441
 20
3.25
 30
0.0
 11
35.000000000000441
 21
-3.25
 31
0.0
  0
LINE
  5
933
  8
MECCANICA
 10
31.000000000000441
 20
-0.5
 30
0.0
 11
28.000000000000909
 21
-0.5
 31
0.0
  0
LINE
  5
934
  8
MECCANICA
 10
31.000000000000441
 20
0.5
 30
0.0
 11
28.000000000000909
 21
0.5
 31
0.0
  0
LINE
  5
935
  8
MECCANICA
 10
31.000000000000909
 20
0.5
 30
0.0
 11
31.000000000000909
 21
-0.5
 31
0.0
  0
LINE
  5
936
  8
MECCANICA
  6
CONTINUOUS
 10
24.250000000000451
 20
6.0
 30
0.0
 11
24.250000000000451
 21
-6.0
 31
0.0
  0
ENDBLK
  5
937
  8
0
  0
BLOCK
  8
0
  2
SCALIMETRO
 70
     0
 10
0.0
 20
0.0
 30
0.0
  3
SCALIMETRO
  1

  0
INSERT
  5
948
  8
0
  6
CONTINUOUS
  2
*U5
 10
0.0
 20
0.0
 30
0.0
1001
ACAD
1002
{
1000
R14_HATCH_DATA
1000
6F3
1011
1.0
1021
0.0
1031
0.0
1021
0.0
1031
0.0
1011
0.0
1021
0.0
1031
0.0
1021
1.0
1031
0.0
1011
0.0
1021
0.0
1031
0.0
1021
0.0
1031
1.0
1040
0.0
1010
0.0
1020
0.0
1030
1.0
1000
SOLID
1070
     1
1070
     1
1071
       10
1071
        7
1070
     0
1070
     1
1071
        4
1040
12.60548953802207
1040
26.37897005599552
1040
2.6054895380239032
1040
26.37897005599552
1040
2.6054895380239032
1040
16.37897005599552
1040
12.60548953802207
1040
16.37897005599552
1071
        4
1005
6F6
1005
6FC
1005
6F5
1005
6FB
1071
        7
1070
     0
1070
     1
1071
        4
1040
32.60548953802207
1040
16.378970055995069
1040
32.605489538020251
1040
26.37897005599552
1040
22.605489538022081
1040
26.37897005599552
1040
22.605489538022081
1040
16.37897005599552
1071
        4
1005
6F6
1005
6FA
1005
6F5
1005
6F9
1071
        7
1070
     0
1070
     1
1071
        4
1040
52.60548953802207
1040
26.37897005599552
1040
42.60548953802207
1040
26.37897005599552
1040
42.605489538023903
1040
16.378970055995971
1040
52.605489538023903
1040
16.37897005599643
1071
        4
1005
6F6
1005
6F8
1005
6F5
1005
6F7
1071
        7
1070
     0
1070
     1
1071
        4
1040
72.605489538022084
1040
26.37897005599552
1040
62.605489538023903
1040
26.378970055995971
1040
62.60548953802207
1040
16.378970055995971
1040
72.605489538022084
1040
16.37897005599552
1071
        4
1005
6F6
1005
705
1005
6F5
1005
704
1071
        7
1070
     0
1070
     1
1071
        4
1040
82.605489538020265
1040
16.378970055995971
1040
92.605489538022084
1040
16.378970055995971
1040
92.605489538023875
1040
26.37897005599552
1040
82.605489538022084
1040
26.37897005599552
1071
        4
1005
6F6
1005
703
1005
6F5
1005
702
1071
        7
1070
     0
1070
     1
1071
        4
1040
112.6054895380237
1040
16.37897005599552
1040
112.60548953802019
1040
26.37897005599552
1040
102.6054895380239
1040
26.37897005599552
1040
102.6054895380239
1040
16.378970055995971
1071
        4
1005
6F6
1005
701
1005
6F5
1005
700
1071
        7
1070
     0
1070
     1
1071
        4
1040
132.605489538022
1040
16.378970055995971
1040
132.60548953802021
1040
26.37897005599552
1040
122.6054895380219
1040
26.378970055995971
1040
122.6054895380219
1040
16.378970055995971
1071
        4
1005
6F6
1005
6FF
1005
6F5
1005
6FE
1071
        7
1070
     0
1070
     1
1071
        4
1040
152.60548953802191
1040
16.37897005599552
1040
152.60548953802191
1040
26.37897005599552
1040
142.60548953802379
1040
26.37897005599552
1040
142.605489538022
1040
16.378970055995971
1071
        4
1005
6F6
1005
6FD
1005
6F5
1005
70A
1071
        7
1070
     0
1070
     1
1071
        4
1040
162.605489538022
1040
26.37897005599552
1040
162.605489538022
1040
16.378970055995971
1040
172.60548953802191
1040
16.378970055995971
1040
172.60548953802191
1040
26.37897005599552
1071
        4
1005
6F6
1005
709
1005
6F5
1005
708
1071
        7
1070
     0
1070
     1
1071
        4
1040
192.6054895380237
1040
16.37897005599643
1040
192.605489538022
1040
26.378970055995971
1040
182.60548953802191
1040
26.378970055995971
1040
182.60548953802191
1040
16.378970055995971
1071
        4
1005
6F6
1005
707
1005
6F5
1005
706
1070
     0
1070
     1
1040
0.3203439826459544
1071
       10
1040
8.6570084070172015
1040
21.14270328084967
1040
0.0
1040
27.895505842365299
1040
20.502014463124379
1040
0.0
1040
48.737200243191168
1040
21.14270328084967
1040
0.0
1040
68.616980034053995
1040
20.502014463124379
1040
0.0
1040
87.214186190582012
1040
21.463045381039581
1040
0.0
1040
107.7352483369576
1040
20.502014463124379
1040
0.0
1040
127.9356603822707
1040
20.181667745589952
1040
0.0
1040
147.49479899537599
1040
20.822356563315221
1040
0.0
1040
168.0158522184465
1040
22.42407629895478
1040
0.0
1040
187.25434965379461
1040
20.822356563315221
1040
0.0
1002
}
  0
TEXT
  5
949
  8
COPERTURA_1MM
 10
1.6531085856411301
 20
8.1755305847163982
 30
0.0
 40
5.0
  1
Millimetri
  0
LINE
  5
94A
  8
0
  6
CONTINUOUS
 10
2.6054895380220842
 20
16.37897005599552
 30
0.0
 11
192.6054895380237
 21
16.378970055995971
 31
0.0
  0
LINE
  5
94B
  8
0
  6
CONTINUOUS
 10
2.6054895380220842
 20
26.37897005599552
 30
0.0
 11
192.6054895380237
 21
26.378970055995971
 31
0.0
  0
LINE
  5
94C
  8
0
  6
CONTINUOUS
 10
52.60548953802207
 20
26.37897005599552
 30
0.0
 11
52.60548953802207
 21
16.37897005599552
 31
0.0
  0
LINE
  5
94D
  8
0
  6
CONTINUOUS
 10
42.60548953802207
 20
26.37897005599552
 30
0.0
 11
42.60548953802207
 21
16.37897005599552
 31
0.0
  0
LINE
  5
94E
  8
0
  6
CONTINUOUS
 10
32.60548953802207
 20
26.37897005599552
 30
0.0
 11
32.60548953802207
 21
16.37897005599552
 31
0.0
  0
LINE
  5
94F
  8
0
  6
CONTINUOUS
 10
22.605489538022081
 20
26.37897005599552
 30
0.0
 11
22.605489538022081
 21
16.37897005599552
 31
0.0
  0
LINE
  5
950
  8
0
  6
CONTINUOUS
 10
12.60548953802207
 20
26.37897005599552
 30
0.0
 11
12.60548953802207
 21
16.37897005599552
 31
0.0
  0
LINE
  5
951
  8
0
  6
CONTINUOUS
 10
2.6054895380220842
 20
26.37897005599552
 30
0.0
 11
2.6054895380220842
 21
16.37897005599552
 31
0.0
  0
LINE
  5
952
  8
0
  6
CONTINUOUS
 10
142.605489538022
 20
26.37897005599552
 30
0.0
 11
142.605489538022
 21
16.37897005599552
 31
0.0
  0
LINE
  5
953
  8
0
  6
CONTINUOUS
 10
132.605489538022
 20
26.37897005599552
 30
0.0
 11
132.605489538022
 21
16.37897005599552
 31
0.0
  0
LINE
  5
954
  8
0
  6
CONTINUOUS
 10
122.6054895380219
 20
26.37897005599552
 30
0.0
 11
122.6054895380219
 21
16.37897005599552
 31
0.0
  0
LINE
  5
955
  8
0
  6
CONTINUOUS
 10
112.605489538022
 20
26.37897005599552
 30
0.0
 11
112.605489538022
 21
16.37897005599552
 31
0.0
  0
LINE
  5
956
  8
0
  6
CONTINUOUS
 10
102.6054895380219
 20
26.37897005599552
 30
0.0
 11
102.6054895380219
 21
16.37897005599552
 31
0.0
  0
LINE
  5
957
  8
0
  6
CONTINUOUS
 10
92.605489538022084
 20
26.37897005599552
 30
0.0
 11
92.605489538022084
 21
16.37897005599552
 31
0.0
  0
LINE
  5
958
  8
0
  6
CONTINUOUS
 10
82.605489538022084
 20
26.37897005599552
 30
0.0
 11
82.605489538022084
 21
16.37897005599552
 31
0.0
  0
LINE
  5
959
  8
0
  6
CONTINUOUS
 10
72.605489538022084
 20
26.37897005599552
 30
0.0
 11
72.605489538022084
 21
16.37897005599552
 31
0.0
  0
LINE
  5
95A
  8
0
  6
CONTINUOUS
 10
62.60548953802207
 20
26.37897005599552
 30
0.0
 11
62.60548953802207
 21
16.37897005599552
 31
0.0
  0
LINE
  5
95B
  8
0
  6
CONTINUOUS
 10
192.605489538022
 20
26.37897005599552
 30
0.0
 11
192.605489538022
 21
16.37897005599552
 31
0.0
  0
LINE
  5
95C
  8
0
  6
CONTINUOUS
 10
182.60548953802191
 20
26.37897005599552
 30
0.0
 11
182.60548953802191
 21
16.37897005599552
 31
0.0
  0
LINE
  5
95D
  8
0
  6
CONTINUOUS
 10
172.60548953802191
 20
26.37897005599552
 30
0.0
 11
172.60548953802191
 21
16.37897005599552
 31
0.0
  0
LINE
  5
95E
  8
0
  6
CONTINUOUS
 10
162.605489538022
 20
26.37897005599552
 30
0.0
 11
162.605489538022
 21
16.37897005599552
 31
0.0
  0
LINE
  5
95F
  8
0
  6
CONTINUOUS
 10
152.60548953802191
 20
26.37897005599552
 30
0.0
 11
152.60548953802191
 21
16.37897005599552
 31
0.0
  0
ENDBLK
  5
960
  8
0
  0
BLOCK
  8
0
  2
*U5
 70
     1
 10
0.0
 20
0.0
 30
0.0
  3
*U5
  1

  0
SOLID
  5
9F9
  8
0
  6
CONTINUOUS
 10
22.605489538022081
 20
16.37897005599552
 30
0.0
 11
32.605489538020251
 21
26.37897005599552
 31
0.0
 12
22.605489538022081
 22
26.37897005599552
 32
0.0
 13
22.605489538022081
 23
26.37897005599552
 33
0.0
  0
SOLID
  5
9FA
  8
0
  6
CONTINUOUS
 10
32.605489538020251
 20
26.37897005599552
 30
0.0
 11
22.605489538022081
 21
16.37897005599552
 31
0.0
 12
32.60548953802207
 22
16.378970055995069
 32
0.0
 13
32.60548953802207
 23
16.378970055995069
 33
0.0
  0
SOLID
  5
9FB
  8
0
  6
CONTINUOUS
 10
52.605489538023903
 20
16.37897005599643
 30
0.0
 11
52.60548953802207
 21
26.37897005599552
 31
0.0
 12
42.60548953802207
 22
26.37897005599552
 32
0.0
 13
42.60548953802207
 23
26.37897005599552
 33
0.0
  0
SOLID
  5
9FC
  8
0
  6
CONTINUOUS
 10
42.60548953802207
 20
26.37897005599552
 30
0.0
 11
42.605489538023903
 21
16.378970055995971
 31
0.0
 12
52.605489538023903
 22
16.37897005599643
 32
0.0
 13
52.605489538023903
 23
16.37897005599643
 33
0.0
  0
SOLID
  5
9FD
  8
0
  6
CONTINUOUS
 10
12.60548953802207
 20
16.37897005599552
 30
0.0
 11
12.60548953802207
 21
26.37897005599552
 31
0.0
 12
2.6054895380239032
 22
26.37897005599552
 32
0.0
 13
2.6054895380239032
 23
26.37897005599552
 33
0.0
  0
SOLID
  5
9FE
  8
0
  6
CONTINUOUS
 10
2.6054895380239032
 20
26.37897005599552
 30
0.0
 11
2.6054895380239032
 21
16.37897005599552
 31
0.0
 12
12.60548953802207
 22
16.37897005599552
 32
0.0
 13
12.60548953802207
 23
16.37897005599552
 33
0.0
  0
SOLID
  5
9FF
  8
0
  6
CONTINUOUS
 10
102.6054895380239
 20
16.378970055995971
 30
0.0
 11
112.60548953802019
 21
26.37897005599552
 31
0.0
 12
102.6054895380239
 22
26.37897005599552
 32
0.0
 13
102.6054895380239
 23
26.37897005599552
 33
0.0
  0
SOLID
  5
A00
  8
0
  6
CONTINUOUS
 10
112.60548953802019
 20
26.37897005599552
 30
0.0
 11
102.6054895380239
 21
16.378970055995971
 31
0.0
 12
112.6054895380237
 22
16.37897005599552
 32
0.0
 13
112.6054895380237
 23
16.37897005599552
 33
0.0
  0
SOLID
  5
A01
  8
0
  6
CONTINUOUS
 10
142.605489538022
 20
16.378970055995971
 30
0.0
 11
152.60548953802191
 21
26.37897005599552
 31
0.0
 12
142.60548953802379
 22
26.37897005599552
 32
0.0
 13
142.60548953802379
 23
26.37897005599552
 33
0.0
  0
SOLID
  5
A02
  8
0
  6
CONTINUOUS
 10
152.60548953802191
 20
26.37897005599552
 30
0.0
 11
142.605489538022
 21
16.378970055995971
 31
0.0
 12
152.60548953802191
 22
16.37897005599552
 32
0.0
 13
152.60548953802191
 23
16.37897005599552
 33
0.0
  0
SOLID
  5
A03
  8
0
  6
CONTINUOUS
 10
172.60548953802191
 20
16.378970055995971
 30
0.0
 11
172.60548953802191
 21
26.37897005599552
 31
0.0
 12
162.605489538022
 22
26.37897005599552
 32
0.0
 13
162.605489538022
 23
26.37897005599552
 33
0.0
  0
SOLID
  5
A04
  8
0
  6
CONTINUOUS
 10
162.605489538022
 20
26.37897005599552
 30
0.0
 11
162.605489538022
 21
16.378970055995971
 31
0.0
 12
172.60548953802191
 22
16.378970055995971
 32
0.0
 13
172.60548953802191
 23
16.378970055995971
 33
0.0
  0
SOLID
  5
A05
  8
0
  6
CONTINUOUS
 10
92.605489538022084
 20
16.378970055995971
 30
0.0
 11
92.605489538023875
 21
26.37897005599552
 31
0.0
 12
82.605489538022084
 22
26.37897005599552
 32
0.0
 13
82.605489538022084
 23
26.37897005599552
 33
0.0
  0
SOLID
  5
A06
  8
0
  6
CONTINUOUS
 10
82.605489538022084
 20
26.37897005599552
 30
0.0
 11
82.605489538020265
 21
16.378970055995971
 31
0.0
 12
92.605489538022084
 22
16.378970055995971
 32
0.0
 13
92.605489538022084
 23
16.378970055995971
 33
0.0
  0
SOLID
  5
A07
  8
0
  6
CONTINUOUS
 10
72.605489538022084
 20
26.37897005599552
 30
0.0
 11
62.60548953802207
 21
16.378970055995971
 31
0.0
 12
72.605489538022084
 22
16.37897005599552
 32
0.0
 13
72.605489538022084
 23
16.37897005599552
 33
0.0
  0
SOLID
  5
A08
  8
0
  6
CONTINUOUS
 10
132.60548953802021
 20
26.37897005599552
 30
0.0
 11
122.6054895380219
 21
16.378970055995971
 31
0.0
 12
132.605489538022
 22
16.378970055995971
 32
0.0
 13
132.605489538022
 23
16.378970055995971
 33
0.0
  0
SOLID
  5
A09
  8
0
  6
CONTINUOUS
 10
192.6054895380237
 20
16.37897005599643
 30
0.0
 11
192.605489538022
 21
26.378970055995971
 31
0.0
 12
182.60548953802191
 22
26.378970055995971
 32
0.0
 13
182.60548953802191
 23
26.378970055995971
 33
0.0
  0
SOLID
  5
A0A
  8
0
  6
CONTINUOUS
 10
182.60548953802191
 20
26.378970055995971
 30
0.0
 11
182.60548953802191
 21
16.378970055995971
 31
0.0
 12
192.6054895380237
 22
16.37897005599643
 32
0.0
 13
192.6054895380237
 23
16.37897005599643
 33
0.0
  0
SOLID
  5
A0B
  8
0
  6
CONTINUOUS
 10
62.605489538023903
 20
26.378970055995971
 30
0.0
 11
62.60548953802207
 21
16.378970055995971
 31
0.0
 12
72.605489538022084
 22
26.37897005599552
 32
0.0
 13
72.605489538022084
 23
26.37897005599552
 33
0.0
  0
SOLID
  5
A0C
  8
0
  6
CONTINUOUS
 10
122.6054895380219
 20
26.378970055995971
 30
0.0
 11
122.6054895380219
 21
16.378970055995971
 31
0.0
 12
132.60548953802021
 22
26.37897005599552
 32
0.0
 13
132.60548953802021
 23
26.37897005599552
 33
0.0
  0
ENDBLK
  5
A0D
  8
0
  0
BLOCK
  8
0
  2
*U6
 70
     1
 10
0.0
 20
0.0
 30
0.0
  3
*U6
  1

  0
TEXT
  5
963
  8
COPERTURA_1MM
 10
-3767.6570844853331
 20
1027.187675373066
 30
0.0
 40
5.0
  1
costruire n°12 centine in Balsa Sp.3mm
  0
TEXT
  5
964
  8
COPERTURA_1MM
 10
-3767.6570844853331
 20
1018.854342039734
 30
0.0
 40
5.0
  1
e n° 2 in Balsa sp.1,5mm
  0
ENDBLK
  5
965
  8
0
  0
BLOCK
  8
0
  2
*U7
 70
     1
 10
0.0
 20
0.0
 30
0.0
  3
*U7
  1

  0
TEXT
  5
968
  8
COPERTURA_1MM
 62
     3
 10
-4602.7423771873573
 20
1240.882840219499
 30
0.0
 40
5.0
  1
Incollare qui le centine 
  0
TEXT
  5
969
  8
COPERTURA_1MM
 62
     3
 10
-4602.5042819492601
 20
1232.5495068861651
 30
0.0
 40
5.0
  1
in compensato A03
  0
ENDBLK
  5
96A
  8
0
  0
BLOCK
  8
0
  2
*U8
 70
     1
 10
0.0
 20
0.0
 30
0.0
  3
*U8
  1

  0
TEXT
  5
96D
  8
COPERTURA_1MM
 62
     3
 10
-4050.8568589044439
 20
1271.9560376836121
 30
0.0
 40
5.0
  1
Longherone Tiglio 6x10
  0
TEXT
  5
96E
  8
COPERTURA_1MM
 62
     3
 10
-4050.6187636663481
 20
1263.622704350279
 30
0.0
 40
5.0
  1
oppure carbonio
  0
ENDBLK
  5
96F
  8
0
  0
BLOCK
  8
0
  2
*U9
 70
     1
 10
0.0
 20
0.0
 30
0.0
  3
*U9
  1

  0
TEXT
  5
972
  8
COPERTURA_1MM
 62
     3
 10
-4117.2774084048369
 20
991.04579725942654
 30
0.0
 40
5.0
  1
Ricavare da listello di Balsa 5x40
  0
TEXT
  5
973
  8
COPERTURA_1MM
 62
     3
 10
-4117.0393131667424
 20
982.71246392609305
 30
0.0
 40
5.0
  1
e sagomare
  0
ENDBLK
  5
974
  8
0
  0
BLOCK
  8
0
  2
*U10
 70
     1
 10
0.0
 20
0.0
 30
0.0
  3
*U10
  1

  0
TEXT
  5
977
  8
COPERTURA_1MM
 62
     3
 10
-3972.0378835900469
 20
792.96812073734475
 30
0.0
 40
2.96875
  1
Basato su disegno originale 
  0
TEXT
  5
978
  8
COPERTURA_1MM
 62
     3
 10
-3972.0378835900469
 20
788.02020407067823
 30
0.0
 40
2.96875
  1
per motoaliante elettrico 
  0
TEXT
  5
979
  8
COPERTURA_1MM
 62
     3
 10
-3971.8965145424281
 20
783.07228740401172
 30
0.0
 40
2.96875
  1
creato da: Philippe Techer 
  0
TEXT
  5
97A
  8
COPERTURA_1MM
 62
     3
 10
-3972.320621685285
 20
778.12437073734475
 30
0.0
 40
2.96875
  1
1996
  0
ENDBLK
  5
97B
  8
0
  0
BLOCK
  8
0
  2
*U11
 70
     1
 10
0.0
 20
0.0
 30
0.0
  3
*U11
  1

  0
TEXT
  5
97E
  8
COPERTURA_1MM
 62
     3
 10
-3972.0378835900469
 20
772.017370668941
 30
0.0
 40
2.96875
  1
E' possibile scaricare questo 
  0
TEXT
  5
97F
  8
COPERTURA_1MM
 62
     3
 10
-3971.7551454948089
 20
767.06945400227426
 30
0.0
 40
2.96875
  1
file da:
  0
ENDBLK
  5
980
  8
0
  0
BLOCK
  8
0
  2
*X12
 70
     1
 10
0.0
 20
0.0
 30
0.0
  3
*X12
  1

  0
LINE
  5
983
  8
0
 62
     0
 10
-3882.7631922206242
 20
1014.470428158273
 30
0.0
 11
-3882.0158408767261
 21
1015.217779502169
 31
0.0
  0
LINE
  5
984
  8
0
 62
     0
 10
-3886.2987261265539
 20
1014.470428158273
 30
0.0
 11
-3880.8373295747492
 21
1019.93182471008
 31
0.0
  0
LINE
  5
985
  8
0
 62
     0
 10
-3889.8342600324881
 20
1014.470428158273
 30
0.0
 11
-3879.658818272771
 21
1024.64586991799
 31
0.0
  0
LINE
  5
986
  8
0
 62
     0
 10
-3892.2026787126979
 20
1015.637543383996
 30
0.0
 11
-3878.4803069707941
 21
1029.3599151259
 31
0.0
  0
LINE
  5
987
  8
0
 62
     0
 10
-3892.2026787126979
 20
1019.173077289929
 30
0.0
 11
-3877.301795668815
 21
1034.0739603338111
 31
0.0
  0
LINE
  5
988
  8
0
 62
     0
 10
-3892.2026787126979
 20
1022.708611195862
 30
0.0
 11
-3876.123284366839
 21
1038.788005541722
 31
0.0
  0
LINE
  5
989
  8
0
 62
     0
 10
-3892.2026787126979
 20
1026.2441451017939
 30
0.0
 11
-3874.9447730648608
 21
1043.5020507496311
 31
0.0
  0
LINE
  5
98A
  8
0
 62
     0
 10
-3892.2026787126979
 20
1029.7796790077271
 30
0.0
 11
-3873.766261762883
 21
1048.2160959575431
 31
0.0
  0
LINE
  5
98B
  8
0
 62
     0
 10
-3892.2026787126979
 20
1033.3152129136599
 30
0.0
 11
-3872.5877504609061
 21
1052.9301411654531
 31
0.0
  0
LINE
  5
98C
  8
0
 62
     0
 10
-3892.2026787126979
 20
1036.850746819591
 30
0.0
 11
-3871.4092391589279
 21
1057.644186373363
 31
0.0
  0
LINE
  5
98D
  8
0
 62
     0
 10
-3892.2026787126979
 20
1040.386280725525
 30
0.0
 11
-3870.2307278569501
 21
1062.3582315812721
 31
0.0
  0
LINE
  5
98E
  8
0
 62
     0
 10
-3892.2026787126979
 20
1043.921814631457
 30
0.0
 11
-3869.0522165549728
 21
1067.0722767891821
 31
0.0
  0
LINE
  5
98F
  8
0
 62
     0
 10
-3892.2026787126979
 20
1047.457348537391
 30
0.0
 11
-3867.873705252995
 21
1071.7863219970941
 31
0.0
  0
LINE
  5
990
  8
0
 62
     0
 10
-3892.2026787126979
 20
1050.992882443323
 30
0.0
 11
-3866.6951939510168
 21
1076.5003672050041
 31
0.0
  0
LINE
  5
991
  8
0
 62
     0
 10
-3892.2026787126979
 20
1054.5284163492561
 30
0.0
 11
-3865.5166826490399
 21
1081.214412412915
 31
0.0
  0
LINE
  5
992
  8
0
 62
     0
 10
-3892.2026787126979
 20
1058.063950255188
 30
0.0
 11
-3864.3381713470621
 21
1085.928457620824
 31
0.0
  0
LINE
  5
993
  8
0
 62
     0
 10
-3892.2026787126979
 20
1061.59948416112
 30
0.0
 11
-3863.1596600450839
 21
1090.642502828734
 31
0.0
  0
LINE
  5
994
  8
0
 62
     0
 10
-3892.2026787126979
 20
1065.135018067054
 30
0.0
 11
-3862.2026787127002
 21
1095.135018067052
 31
0.0
  0
LINE
  5
995
  8
0
 62
     0
 10
-3892.2026787126979
 20
1068.670551972986
 30
0.0
 11
-3862.2026787127002
 21
1098.6705519729851
 31
0.0
  0
LINE
  5
996
  8
0
 62
     0
 10
-3892.2026787126979
 20
1072.20608587892
 30
0.0
 11
-3862.2026787127002
 21
1102.2060858789171
 31
0.0
  0
LINE
  5
997
  8
0
 62
     0
 10
-3892.2026787126979
 20
1075.741619784852
 30
0.0
 11
-3862.2026787127002
 21
1105.7416197848511
 31
0.0
  0
LINE
  5
998
  8
0
 62
     0
 10
-3892.2026787126979
 20
1079.2771536907851
 30
0.0
 11
-3862.2026787127002
 21
1109.2771536907831
 31
0.0
  0
LINE
  5
999
  8
0
 62
     0
 10
-3892.2026787126979
 20
1082.812687596718
 30
0.0
 11
-3862.2026787127002
 21
1112.8126875967159
 31
0.0
  0
LINE
  5
99A
  8
0
 62
     0
 10
-3892.2026787126979
 20
1086.3482215026511
 30
0.0
 11
-3862.2026787127002
 21
1116.348221502649
 31
0.0
  0
LINE
  5
99B
  8
0
 62
     0
 10
-3892.2026787126979
 20
1089.8837554085831
 30
0.0
 11
-3862.2026787127002
 21
1119.8837554085819
 31
0.0
  0
LINE
  5
99C
  8
0
 62
     0
 10
-3892.2026787126979
 20
1093.4192893145159
 30
0.0
 11
-3862.2026787127002
 21
1123.4192893145139
 31
0.0
  0
LINE
  5
99D
  8
0
 62
     0
 10
-3892.2026787126979
 20
1096.954823220449
 30
0.0
 11
-3862.2026787127002
 21
1126.9548232204461
 31
0.0
  0
LINE
  5
99E
  8
0
 62
     0
 10
-3892.2026787126979
 20
1100.490357126381
 30
0.0
 11
-3862.2026787127002
 21
1130.4903571263801
 31
0.0
  0
LINE
  5
99F
  8
0
 62
     0
 10
-3892.2026787126979
 20
1104.025891032313
 30
0.0
 11
-3862.2026787127002
 21
1134.0258910323109
 31
0.0
  0
LINE
  5
9A0
  8
0
 62
     0
 10
-3892.2026787126979
 20
1107.561424938247
 30
0.0
 11
-3862.9754279076919
 21
1136.788675743253
 31
0.0
  0
LINE
  5
9A1
  8
0
 62
     0
 10
-3892.2026787126979
 20
1111.096958844179
 30
0.0
 11
-3863.8593113841762
 21
1139.440326172702
 31
0.0
  0
LINE
  5
9A2
  8
0
 62
     0
 10
-3892.2026787126979
 20
1114.6324927501121
 30
0.0
 11
-3864.7431948606568
 21
1142.091976602152
 31
0.0
  0
LINE
  5
9A3
  8
0
 62
     0
 10
-3892.2026787126979
 20
1118.168026656045
 30
0.0
 11
-3865.6270783371428
 21
1144.7436270316
 31
0.0
  0
LINE
  5
9A4
  8
0
 62
     0
 10
-3892.2026787126979
 20
1121.7035605619781
 30
0.0
 11
-3866.5109618136248
 21
1147.39527746105
 31
0.0
  0
LINE
  5
9A5
  8
0
 62
     0
 10
-3892.2026787126979
 20
1125.23909446791
 30
0.0
 11
-3867.3948452901082
 21
1150.0469278905
 31
0.0
  0
LINE
  5
9A6
  8
0
 62
     0
 10
-3892.2026787126979
 20
1128.7746283738441
 30
0.0
 11
-3868.2787287665919
 21
1152.69857831995
 31
0.0
  0
LINE
  5
9A7
  8
0
 62
     0
 10
-3892.2026787126979
 20
1132.310162279776
 30
0.0
 11
-3869.1626122430748
 21
1155.3502287493991
 31
0.0
  0
LINE
  5
9A8
  8
0
 62
     0
 10
-3892.2026787126979
 20
1135.845696185708
 30
0.0
 11
-3870.0464957195582
 21
1158.00187917885
 31
0.0
  0
LINE
  5
9A9
  8
0
 62
     0
 10
-3892.2026787126979
 20
1139.381230091642
 30
0.0
 11
-3870.930379196041
 21
1160.6535296082991
 31
0.0
  0
LINE
  5
9AA
  8
0
 62
     0
 10
-3892.2026787126979
 20
1142.9167639975731
 30
0.0
 11
-3871.8142626725239
 21
1163.3051800377491
 31
0.0
  0
LINE
  5
9AB
  8
0
 62
     0
 10
-3892.2026787126979
 20
1146.4522979035071
 30
0.0
 11
-3873.5239252095198
 21
1165.131051406684
 31
0.0
  0
LINE
  5
9AC
  8
0
 62
     0
 10
-3892.2026787126979
 20
1149.98783180944
 30
0.0
 11
-3875.8809478134758
 21
1166.309562708662
 31
0.0
  0
LINE
  5
9AD
  8
0
 62
     0
 10
-3892.2026787126979
 20
1153.5233657153719
 30
0.0
 11
-3878.2379704174318
 21
1167.48807401064
 31
0.0
  0
LINE
  5
9AE
  8
0
 62
     0
 10
-3892.2026787126979
 20
1157.058899621305
 30
0.0
 11
-3880.5949930213869
 21
1168.666585312616
 31
0.0
  0
LINE
  5
9AF
  8
0
 62
     0
 10
-3892.2026787126979
 20
1160.5944335272379
 30
0.0
 11
-3882.9520156253402
 21
1169.845096614594
 31
0.0
  0
LINE
  5
9B0
  8
0
 62
     0
 10
-3892.2026787126979
 20
1164.1299674331699
 30
0.0
 11
-3885.3090382292962
 21
1171.023607916572
 31
0.0
  0
LINE
  5
9B1
  8
0
 62
     0
 10
-3892.2026787126979
 20
1167.665501339103
 30
0.0
 11
-3887.6660608332518
 21
1172.20211921855
 31
0.0
  0
LINE
  5
9B2
  8
0
 62
     0
 10
-3892.2026787126979
 20
1171.2010352450361
 30
0.0
 11
-3890.023083437206
 21
1173.380630520526
 31
0.0
  0
ENDBLK
  5
9B3
  8
0
  0
BLOCK
  8
0
  2
*X13
 70
     1
 10
0.0
 20
0.0
 30
0.0
  3
*X13
  1

  0
LINE
  5
9B6
  8
0
 62
     0
 10
-3875.9041131010522
 20
1321.849889282126
 30
0.0
 11
-3871.277320115611
 21
1326.476682267567
 31
0.0
  0
LINE
  5
9B7
  8
0
 62
     0
 10
-3882.9751809129179
 20
1318.314355376194
 30
0.0
 11
-3869.5095531626448
 21
1331.779983126467
 31
0.0
  0
LINE
  5
9B8
  8
0
 62
     0
 10
-3890.046248724781
 20
1314.7788214702621
 30
0.0
 11
-3867.741786209679
 21
1337.0832839853661
 31
0.0
  0
LINE
  5
9B9
  8
0
 62
     0
 10
-3892.2026787126979
 20
1316.157925388278
 30
0.0
 11
-3865.9740192567128
 21
1342.386584844264
 31
0.0
  0
LINE
  5
9BA
  8
0
 62
     0
 10
-3892.2026787126979
 20
1319.6934592942109
 30
0.0
 11
-3864.2062523037448
 21
1347.689885703164
 31
0.0
  0
LINE
  5
9BB
  8
0
 62
     0
 10
-3892.2026787126979
 20
1323.228993200142
 30
0.0
 11
-3862.43848535078
 21
1352.993186562064
 31
0.0
  0
LINE
  5
9BC
  8
0
 62
     0
 10
-3892.2026787126979
 20
1326.7645271060769
 30
0.0
 11
-3862.2026787127002
 21
1356.7645271060751
 31
0.0
  0
LINE
  5
9BD
  8
0
 62
     0
 10
-3892.2026787126979
 20
1330.3000610120091
 30
0.0
 11
-3862.2026787127002
 21
1360.300061012008
 31
0.0
  0
LINE
  5
9BE
  8
0
 62
     0
 10
-3892.2026787126979
 20
1333.835594917942
 30
0.0
 11
-3862.2026787127002
 21
1363.8355949179411
 31
0.0
  0
LINE
  5
9BF
  8
0
 62
     0
 10
-3892.2026787126979
 20
1337.3711288238751
 30
0.0
 11
-3862.2026787127002
 21
1367.371128823874
 31
0.0
  0
LINE
  5
9C0
  8
0
 62
     0
 10
-3892.2026787126979
 20
1340.9066627298071
 30
0.0
 11
-3862.2026787127002
 21
1370.9066627298059
 31
0.0
  0
LINE
  5
9C1
  8
0
 62
     0
 10
-3892.2026787126979
 20
1344.4421966357399
 30
0.0
 11
-3862.2026787127002
 21
1374.442196635739
 31
0.0
  0
LINE
  5
9C2
  8
0
 62
     0
 10
-3892.2026787126979
 20
1347.9777305416731
 30
0.0
 11
-3862.2026787127002
 21
1377.9777305416719
 31
0.0
  0
LINE
  5
9C3
  8
0
 62
     0
 10
-3892.2026787126979
 20
1351.513264447605
 30
0.0
 11
-3862.2026787127002
 21
1381.5132644476039
 31
0.0
  0
LINE
  5
9C4
  8
0
 62
     0
 10
-3892.2026787126979
 20
1355.048798353539
 30
0.0
 11
-3862.2026787127002
 21
1385.048798353537
 31
0.0
  0
LINE
  5
9C5
  8
0
 62
     0
 10
-3892.2026787126979
 20
1358.584332259471
 30
0.0
 11
-3862.2026787127002
 21
1388.584332259469
 31
0.0
  0
LINE
  5
9C6
  8
0
 62
     0
 10
-3892.2026787126979
 20
1362.1198661654039
 30
0.0
 11
-3862.2026787127002
 21
1392.1198661654009
 31
0.0
  0
LINE
  5
9C7
  8
0
 62
     0
 10
-3892.2026787126979
 20
1365.655400071337
 30
0.0
 11
-3862.5936374317062
 21
1395.264441352329
 31
0.0
  0
LINE
  5
9C8
  8
0
 62
     0
 10
-3892.2026787126979
 20
1369.190933977269
 30
0.0
 11
-3863.3007442128919
 21
1398.0928684770761
 31
0.0
  0
LINE
  5
9C9
  8
0
 62
     0
 10
-3892.2026787126979
 20
1372.7264678832021
 30
0.0
 11
-3864.007850994079
 21
1400.92129560182
 31
0.0
  0
LINE
  5
9CA
  8
0
 62
     0
 10
-3892.2026787126979
 20
1376.262001789135
 30
0.0
 11
-3864.7149577752662
 21
1403.7497227265681
 31
0.0
  0
LINE
  5
9CB
  8
0
 62
     0
 10
-3892.2026787126979
 20
1379.7975356950681
 30
0.0
 11
-3865.4220645564519
 21
1406.578149851314
 31
0.0
  0
LINE
  5
9CC
  8
0
 62
     0
 10
-3892.2026787126979
 20
1383.3330696009989
 30
0.0
 11
-3866.1291713376381
 21
1409.4065769760589
 31
0.0
  0
LINE
  5
9CD
  8
0
 62
     0
 10
-3892.2026787126979
 20
1386.868603506932
 30
0.0
 11
-3866.8362781188248
 21
1412.235004100806
 31
0.0
  0
LINE
  5
9CE
  8
0
 62
     0
 10
-3892.2026787126979
 20
1390.4041374128651
 30
0.0
 11
-3867.5433849000101
 21
1415.063431225552
 31
0.0
  0
LINE
  5
9CF
  8
0
 62
     0
 10
-3892.2026787126979
 20
1393.9396713187989
 30
0.0
 11
-3868.2504916811981
 21
1417.8918583503
 31
0.0
  0
LINE
  5
9D0
  8
0
 62
     0
 10
-3892.2026787126979
 20
1397.475205224732
 30
0.0
 11
-3868.9575984623848
 21
1420.7202854750451
 31
0.0
  0
LINE
  5
9D1
  8
0
 62
     0
 10
-3892.2026787126979
 20
1401.010739130664
 30
0.0
 11
-3869.6647052435692
 21
1423.5487125997911
 31
0.0
  0
LINE
  5
9D2
  8
0
 62
     0
 10
-3892.2026787126979
 20
1404.5462730365971
 30
0.0
 11
-3870.3718120247581
 21
1426.377139724538
 31
0.0
  0
LINE
  5
9D3
  8
0
 62
     0
 10
-3892.2026787126979
 20
1408.08180694253
 30
0.0
 11
-3871.0789188059439
 21
1429.205566849284
 31
0.0
  0
LINE
  5
9D4
  8
0
 62
     0
 10
-3892.2026787126979
 20
1411.6173408484619
 30
0.0
 11
-3871.7860255871292
 21
1432.03399397403
 31
0.0
  0
LINE
  5
9D5
  8
0
 62
     0
 10
-3892.2026787126979
 20
1415.152874754395
 30
0.0
 11
-3872.4931323683172
 21
1434.8624210987771
 31
0.0
  0
LINE
  5
9D6
  8
0
 62
     0
 10
-3892.2026787126979
 20
1418.6884086603279
 30
0.0
 11
-3873.2002391495039
 21
1437.6908482235231
 31
0.0
  0
LINE
  5
9D7
  8
0
 62
     0
 10
-3892.2026787126979
 20
1422.223942566261
 30
0.0
 11
-3873.907345930691
 21
1440.5192753482679
 31
0.0
  0
LINE
  5
9D8
  8
0
 62
     0
 10
-3892.2026787126979
 20
1425.7594764721939
 30
0.0
 11
-3874.6144527118759
 21
1443.347702473015
 31
0.0
  0
LINE
  5
9D9
  8
0
 62
     0
 10
-3892.2026787126979
 20
1429.295010378125
 30
0.0
 11
-3875.3215594930621
 21
1446.1761295977619
 31
0.0
  0
LINE
  5
9DA
  8
0
 62
     0
 10
-3892.2026787126979
 20
1432.830544284059
 30
0.0
 11
-3876.0286662742492
 21
1449.004556722507
 31
0.0
  0
LINE
  5
9DB
  8
0
 62
     0
 10
-3892.2026787126979
 20
1436.3660781899921
 30
0.0
 11
-3876.7357730554359
 21
1451.8329838472539
 31
0.0
  0
LINE
  5
9DC
  8
0
 62
     0
 10
-3892.2026787126979
 20
1439.9016120959241
 30
0.0
 11
-3877.442879836623
 21
1454.6614109720001
 31
0.0
  0
LINE
  5
9DD
  8
0
 62
     0
 10
-3892.2026787126979
 20
1443.437146001856
 30
0.0
 11
-3878.1499866178078
 21
1457.4898380967461
 31
0.0
  0
LINE
  5
9DE
  8
0
 62
     0
 10
-3892.2026787126979
 20
1446.9726799077901
 30
0.0
 11
-3878.8570933989959
 21
1460.3182652214921
 31
0.0
  0
LINE
  5
9DF
  8
0
 62
     0
 10
-3892.2026787126979
 20
1450.5082138137229
 30
0.0
 11
-3879.5642001801821
 21
1463.146692346239
 31
0.0
  0
LINE
  5
9E0
  8
0
 62
     0
 10
-3892.2026787126979
 20
1454.0437477196549
 30
0.0
 11
-3880.2713069613692
 21
1465.975119470985
 31
0.0
  0
LINE
  5
9E1
  8
0
 62
     0
 10
-3892.2026787126979
 20
1457.579281625588
 30
0.0
 11
-3880.978413742554
 21
1468.80354659573
 31
0.0
  0
LINE
  5
9E2
  8
0
 62
     0
 10
-3892.2026787126979
 20
1461.1148155315191
 30
0.0
 11
-3881.6855205237421
 21
1471.631973720476
 31
0.0
  0
LINE
  5
9E3
  8
0
 62
     0
 10
-3892.2026787126979
 20
1464.6503494374531
 30
0.0
 11
-3883.152421673848
 21
1473.700606476302
 31
0.0
  0
LINE
  5
9E4
  8
0
 62
     0
 10
-3892.2026787126979
 20
1468.185883343386
 30
0.0
 11
-3886.68795557978
 21
1473.7006064763041
 31
0.0
  0
LINE
  5
9E5
  8
0
 62
     0
 10
-3892.2026787126979
 20
1471.7214172493191
 30
0.0
 11
-3890.2234894857129
 21
1473.700606476302
 31
0.0
  0
ENDBLK
  5
9E6
  8
0
  0
BLOCK
  8
0
  2
*U14
 70
     1
 10
0.0
 20
0.0
 30
0.0
  3
*U14
  1

  0
TEXT
  5
9E9
  8
COPERTURA_1MM
 10
-3751.5728895974562
 20
772.80199201105472
 30
0.0
 40
5.0
  1
Apertura alare 2290 mm
  0
TEXT
  5
9EA
  8
COPERTURA_1MM
 10
-3752.2871753117411
 20
764.46865867772124
 30
0.0
 40
5.0
  1
Lunghezza 1270 mm
  0
TEXT
  5
9EB
  8
COPERTURA_1MM
 10
-3752.2871753117411
 20
756.13532534438809
 30
0.0
 40
5.0
  1
Motore .15 - .28
  0
TEXT
  5
9EC
  8
COPERTURA_1MM
 10
-3752.2871753117411
 20
747.80199201105472
 30
0.0
 40
5.0
  1
Radio 4ch. con 5 servi
  0
ENDBLK
  5
9ED
  8
0
  0
BLOCK
  8
0
  2
*U15
 70
     1
 10
0.0
 20
0.0
 30
0.0
  3
*U15
  1

  0
TEXT
  5
9F0
  8
COPERTURA_1MM
 10
-3751.778767392158
 20
805.2461410726753
 30
0.0
 40
5.0
  1
Disegnato da P.Pastorino
  0
TEXT
  5
9F1
  8
COPERTURA_1MM
 10
-3751.0644816778731
 20
796.91280773934216
 30
0.0
 40
5.0
  1
Aprile 2000
  0
ENDBLK
  5
9F2
  8
0
  0
BLOCK
  8
0
  2
*U16
 70
     1
 10
0.0
 20
0.0
 30
0.0
  3
*U16
  1

  0
TEXT
  5
9F5
  8
COPERTURA_1MM
 10
-3595.4286441999889
 20
1110.2047935761011
 30
0.0
 40
5.0
  1
compensato 
  0
TEXT
  5
9F6
  8
COPERTURA_1MM
 10
-3596.1429299142751
 20
1101.8714602427669
 30
0.0
 40
5.0
  1
1,5mm
  0
ENDBLK
  5
9F7
  8
0
  0
BLOCK
  8
0
  2
*D17
 70
     1
 10
0.0
 20
0.0
 30
0.0
  3
*D17
  1

  0
LINE
  5
BA4
  8
SERVI
 62
     1
 10
-3785.9780783273368
 20
951.02707649837237
 30
0.0
 11
-3775.0820849003239
 21
951.02707649837237
 31
0.0
  0
LINE
  5
BA5
  8
SERVI
 62
     1
 10
-3785.9780783273368
 20
906.02707649837214
 30
0.0
 11
-3775.0820849003239
 21
906.02707649837214
 31
0.0
  0
LINE
  5
BA6
  8
SERVI
 62
     1
 10
-3776.3320849003248
 20
947.52707649837237
 30
0.0
 11
-3776.3320849003248
 21
931.65207649837225
 31
0.0
  0
LINE
  5
BA7
  8
SERVI
 62
     1
 10
-3776.3320849003248
 20
909.52707649837214
 30
0.0
 11
-3776.3320849003248
 21
925.40207649837225
 31
0.0
  0
SOLID
  5
BA8
  8
SERVI
 62
     1
 10
-3776.9154182336579
 20
947.52707649837237
 30
0.0
 11
-3775.7487515669909
 21
947.52707649837237
 31
0.0
 12
-3776.3320849003248
 22
951.02707649837237
 32
0.0
 13
-3776.3320849003248
 23
951.02707649837237
 33
0.0
  0
SOLID
  5
BA9
  8
SERVI
 62
     1
 10
-3776.9154182336579
 20
909.52707649837214
 30
0.0
 11
-3775.7487515669909
 21
909.52707649837214
 31
0.0
 12
-3776.3320849003248
 22
906.02707649837214
 32
0.0
 13
-3776.3320849003248
 23
906.02707649837214
 33
0.0
  0
TEXT
  5
BAA
  8
COPERTURA_1MM
 62
     3
 10
-3781.0939896622299
 20
926.02707649837168
 30
0.0
 40
5.0
  1
45
  0
POINT
  5
BAB
  8
DEFPOINTS
 62
     0
 10
-3786.6030783273368
 20
951.02707649837237
 30
0.0
  0
POINT
  5
BAC
  8
DEFPOINTS
 62
     0
 10
-3786.6030783273368
 20
906.02707649837214
 30
0.0
  0
POINT
  5
BAD
  8
DEFPOINTS
 62
     0
 10
-3776.3320849003248
 20
906.02707649837214
 30
0.0
  0
ENDBLK
  5
BAF
  8
0
  0
ENDSEC
  0
SECTION
  2
ENTITIES
  0
LINE
  5
A0E
  8
TESTO10
 10
-4824.2840915331872
 20
717.6482175284018
 30
0.0
 11
-3526.2840915331872
 21
717.6482175284018
 31
0.0
  0
LINE
  5
A0F
  8
TESTO10
 10
-3526.2840915331872
 20
1517.6482175284
 30
0.0
 11
-4824.2840915331872
 21
1517.6482175284
 31
0.0
  0
LINE
  5
A10
  8
ASSI
 10
-4686.6030783273354
 20
906.02707649837214
 30
0.0
 11
-3758.1942513196809
 21
906.02707649837214
 31
0.0
  0
LINE
  5
A11
  8
BALSA_3
 10
-3770.3746523816999
 20
1043.665071977972
 30
0.0
 11
-3760.4592523817018
 21
1043.7772719779721
 31
0.0
  0
LINE
  5
A12
  8
BALSA_3
 10
-3770.3746523816999
 20
1042.665071977973
 30
0.0
 11
-3760.4592523817018
 21
1042.777271977973
 31
0.0
  0
LINE
  5
A13
  8
BALSA_3
 10
-3760.0060523817028
 20
1066.5560719779719
 30
0.0
 11
-3768.779652381701
 21
1065.755271977974
 31
0.0
  0
LINE
  5
A14
  8
BALSA_3
 10
-3760.0060523817028
 20
1065.556071977973
 30
0.0
 11
-3768.779652381701
 21
1064.755271977974
 31
0.0
  0
LINE
  5
A15
  8
BALSA_3
 10
-3754.9106443817009
 20
1100.9608964831441
 30
0.0
 11
-3763.9766153817018
 21
1100.514392483145
 31
0.0
  0
LINE
  5
A16
  8
BALSA_3
 10
-3754.9106443817009
 20
1099.960896483145
 30
0.0
 11
-3763.9766153817018
 21
1099.5143924831459
 31
0.0
  0
LINE
  5
A17
  8
BALSA_3
 10
-3764.420961381702
 20
1078.1805684831461
 30
0.0
 11
-3754.052148381702
 21
1078.3790144831451
 31
0.0
  0
LINE
  5
A18
  8
BALSA_3
 10
-3764.420961381702
 20
1077.1805684831461
 30
0.0
 11
-3754.052148381702
 21
1077.379014483146
 31
0.0
  0
LINE
  5
A19
  8
ASSI
  6
DISCONTINU2
 10
-3768.2653173817021
 20
1089.4032344831451
 30
0.0
 11
-3738.2653173817012
 21
1089.4032344831451
 31
0.0
  0
LINE
  5
A1A
  8
BALSA_3
 10
-3770.1436923817018
 20
1113.0870974671179
 30
0.0
 11
-3761.4209193817019
 21
1113.2540404671181
 31
0.0
  0
LINE
  5
A1B
  8
BALSA_3
 10
-3761.4643723817021
 20
1134.443529467118
 30
0.0
 11
-3769.7069723817008
 21
1134.0375774671179
 31
0.0
  0
CIRCLE
  5
A1C
  8
BALSA_3
 10
-3761.420214381701
 20
1122.253997467119
 30
0.0
 40
4.0
  0
LINE
  5
A1D
  8
ASSI
  6
DISCONTINU2
 10
-3746.754252381701
 20
1122.253997467119
 30
0.0
 11
-3776.7542523817028
 21
1122.253997467119
 31
0.0
  0
LINE
  5
A1E
  8
BALSA_1_5
 10
-3752.7542523817019
 20
1159.186987451091
 30
0.0
 11
-3762.754252381701
 21
1159.186987451091
 31
0.0
  0
LINE
  5
A1F
  8
BALSA_1_5
 10
-3752.7542523817019
 20
1148.5450194510911
 30
0.0
 11
-3762.754252381701
 21
1148.5450194510911
 31
0.0
  0
LINE
  5
A20
  8
BALSA_1_5
 10
-3754.087585381702
 20
1187.8194528696581
 30
0.0
 11
-3764.087585381702
 21
1187.8194528696581
 31
0.0
  0
LINE
  5
A21
  8
BALSA_1_5
 10
-3754.087585381702
 20
1177.5953948696581
 30
0.0
 11
-3764.087585381702
 21
1177.5953948696581
 31
0.0
  0
LINE
  5
A22
  8
BALSA_1_5
 10
-3755.4209193817019
 20
1216.251396650428
 30
0.0
 11
-3765.4209193817019
 21
1216.251396650428
 31
0.0
  0
LINE
  5
A23
  8
BALSA_1_5
 10
-3765.4209193817019
 20
1206.445247650428
 30
0.0
 11
-3755.4209193817019
 21
1206.445247650428
 31
0.0
  0
LINE
  5
A24
  8
BALSA_1_5
 10
-3756.7542523817019
 20
1243.380594068994
 30
0.0
 11
-3766.754252381701
 21
1243.380594068994
 31
0.0
  0
LINE
  5
A25
  8
BALSA_1_5
 10
-3766.754252381701
 20
1233.990351068994
 30
0.0
 11
-3756.7542523817019
 21
1233.990351068994
 31
0.0
  0
LINE
  5
A26
  8
BALSA_1_5
 10
-3768.0875853817029
 20
1271.812602849762
 30
0.0
 11
-3758.087585381701
 21
1271.812602849762
 31
0.0
  0
LINE
  5
A27
  8
BALSA_1_5
 10
-3768.0875853817029
 20
1262.840309849762
 30
0.0
 11
-3758.087585381701
 21
1262.840309849762
 31
0.0
  0
LINE
  5
A28
  8
BALSA_1_5
 10
-3769.420919381701
 20
1300.044087992731
 30
0.0
 11
-3759.4209193817019
 21
1300.044087992731
 31
0.0
  0
LINE
  5
A29
  8
BALSA_1_5
 10
-3759.4209193817019
 20
1291.4897459927331
 30
0.0
 11
-3769.420919381701
 21
1291.4897459927331
 31
0.0
  0
LINE
  5
A2A
  8
BALSA_1_5
 10
-3760.754252381701
 20
1319.2407432947
 30
0.0
 11
-3770.754252381701
 21
1319.2407432947
 31
0.0
  0
LINE
  5
A2B
  8
BALSA_1_5
 10
-3762.087585381701
 20
1345.29121795887
 30
0.0
 11
-3772.0875853817029
 21
1345.29121795887
 31
0.0
  0
LINE
  5
A2C
  8
BALSA_1_5
 10
-3760.754252381701
 20
1327.3771362947
 30
0.0
 11
-3770.754252381701
 21
1327.3771362947
 31
0.0
  0
LINE
  5
A2D
  8
BALSA_1_5
 10
-3763.4209193817019
 20
1367.841701377436
 30
0.0
 11
-3761.8955323817022
 21
1367.879141377437
 31
0.0
  0
LINE
  5
A2E
  8
BALSA_1_5
 10
-3762.087585381701
 20
1353.009659958869
 30
0.0
 11
-3772.0875853817029
 21
1353.009659958869
 31
0.0
  0
LINE
  5
A2F
  8
BALSA_1_5
 10
-3755.6809723817018
 20
1385.9173813774371
 30
0.0
 11
-3763.4209193817019
 21
1386.142193377437
 31
0.0
  0
LINE
  5
A30
  8
BALSA_1_5
 10
-3757.2280923817011
 20
1413.256638679404
 30
0.0
 11
-3764.754252381701
 21
1413.475240679403
 31
0.0
  0
LINE
  5
A31
  8
BALSA_1_5
 10
-3763.301412381702
 20
1395.628358679405
 30
0.0
 11
-3754.2903323817018
 21
1395.881198679403
 31
0.0
  0
LINE
  5
A32
  8
BALSA_1_5
 10
-3758.7752123817008
 20
1439.095904735768
 30
0.0
 11
-3766.087585381701
 21
1439.3082977357681
 31
0.0
  0
LINE
  5
A33
  8
BALSA_1_5
 10
-3764.7072923817018
 20
1421.877584735769
 30
0.0
 11
-3755.9057723817009
 21
1422.124544735768
 31
0.0
  0
LINE
  5
A34
  8
BALSA_1_5
 10
-3760.322332381701
 20
1467.534124516538
 30
0.0
 11
-3767.4209193817019
 21
1467.740307516538
 31
0.0
  0
LINE
  5
A35
  8
BALSA_1_5
 10
-3766.113172381702
 20
1450.725764516538
 30
0.0
 11
-3757.5212123817018
 21
1450.9668445165371
 31
0.0
  0
LINE
  5
A36
  8
BALSA_1_5
 10
-3761.8694523817021
 20
1490.5739142107
 30
0.0
 11
-3768.754252381701
 21
1490.7738872107
 31
0.0
  0
LINE
  5
A37
  8
BALSA_1_5
 10
-3767.5190523817018
 20
1474.1755142106999
 30
0.0
 11
-3759.1366523817019
 21
1474.4107142107
 31
0.0
  0
INSERT
  5
A38
  8
COPERTURA_1MM
  2
*U6
 10
0.0
 20
0.0
 30
0.0
  0
POLYLINE
  5
A39
  8
0
 66
     1
 10
0.0
 20
0.0
 30
0.0
 70
     8
  0
VERTEX
  5
A3A
  8
0
 10
-4661.9099999999989
 20
1295.51
 30
0.0
 70
    32
  0
VERTEX
  5
A3B
  8
0
 10
-4605.9099999999999
 20
1243.3800000000001
 30
0.0
 70
    32
  0
VERTEX
  5
A3C
  8
0
 10
-4602.4099999999989
 20
1243.3800000000001
 30
0.0
 70
    32
  0
SEQEND
  5
A3D
  8
0
  0
INSERT
  5
A3E
  8
COPERTURA_1MM
  2
*U7
 10
0.0
 20
0.0
 30
0.0
  0
LINE
  5
A3F
  8
TRIANG20X5
 10
-4250.7026787126979
 20
1014.470428158273
 30
0.0
 11
-4791.2026787126979
 21
1014.470428158273
 31
0.0
  0
LINE
  5
A40
  8
BALSA5X5
 10
-4791.2026787126979
 20
1234.403761491606
 30
0.0
 11
-3892.2026787126979
 21
1174.470428158274
 31
0.0
  0
LINE
  5
A41
  8
TIGLIO10X5
 10
-4792.702678712697
 20
1169.492649824012
 30
0.0
 11
-3892.2026787126979
 21
1129.470428158274
 31
0.0
  0
LINE
  5
A42
  8
BALSA5X5
 10
-4791.2026787126979
 20
1229.3926626988159
 30
0.0
 11
-3892.2026787127002
 21
1169.4593293654821
 31
0.0
  0
LINE
  5
A43
  8
BALSA5X5
 10
-4791.2026787126979
 20
1224.381563906024
 30
0.0
 11
-3892.2026787127002
 21
1164.448230572691
 31
0.0
  0
LINE
  5
A44
  8
TIGLIO10X5
 10
-4792.702678712697
 20
1159.482778153571
 30
0.0
 11
-3892.2026787126979
 21
1119.460556487832
 31
0.0
  0
LINE
  5
A45
  8
TRIANG20X5
 10
-4612.2026787127006
 20
1034.4704281582731
 30
0.0
 11
-4669.202678712697
 21
1034.4704281582731
 31
0.0
  0
LINE
  5
A46
  8
COMPENSATO_1_5
 10
-4669.202678712697
 20
1152.492408590434
 30
0.0
 11
-4612.2026787127006
 21
1149.9590752923259
 31
0.0
  0
LINE
  5
A47
  8
COMPENSATO_1_5
 10
-4612.2026787127006
 20
1151.460556042892
 30
0.0
 11
-4669.202678712697
 21
1153.993889341001
 31
0.0
  0
TEXT
  5
A48
  8
COPERTURA_1MM
 10
-4659.8107316760161
 20
1309.7000558654779
 30
0.0
 40
5.0
  1
A03
  0
LINE
  5
A49
  8
TIGLIO10X5
 10
-4792.702678712697
 20
1328.688256481006
 30
0.0
 11
-3892.2026787126979
 21
1368.710478146744
 31
0.0
  0
LINE
  5
A4A
  8
BALSA5X5
 10
-4791.2026787126979
 20
1263.789470728552
 30
0.0
 11
-3892.2026787127002
 21
1323.7228040618861
 31
0.0
  0
LINE
  5
A4B
  8
BALSA5X5
 10
-4791.2026787126979
 20
1258.778371935761
 30
0.0
 11
-3892.2026787127002
 21
1318.7117052690951
 31
0.0
  0
LINE
  5
A4C
  8
TIGLIO10X5
 10
-4792.702678712697
 20
1318.678384810564
 30
0.0
 11
-3892.2026787126979
 21
1358.7006064763041
 31
0.0
  0
LINE
  5
A4D
  8
BALSA5X5
 10
-4791.2026787126979
 20
1253.76727314297
 30
0.0
 11
-3892.2026787126979
 21
1313.7006064763041
 31
0.0
  0
LINE
  5
A4E
  8
TRIANG20X5
 10
-4250.7026787126979
 20
1473.7006064763041
 30
0.0
 11
-4791.2026787126979
 21
1473.7006064763041
 31
0.0
  0
LINE
  5
A4F
  8
COMPENSATO_1_5
 10
-4612.2026787127006
 20
1336.710478591684
 30
0.0
 11
-4669.202678712697
 21
1334.1771452935759
 31
0.0
  0
LINE
  5
A50
  8
COMPENSATO_1_5
 10
-4669.202678712697
 20
1335.6786260441399
 30
0.0
 11
-4612.2026787127006
 21
1338.211959342251
 31
0.0
  0
LINE
  5
A51
  8
TRIANG20X5
 10
-4612.2026787127006
 20
1453.7006064763041
 30
0.0
 11
-4669.202678712697
 21
1453.7006064763041
 31
0.0
  0
LINE
  5
A52
  8
ASSIEME
 10
-3786.6030783273368
 20
951.02707649837237
 30
0.0
 11
-4686.6030783273354
 21
906.02707649837214
 31
0.0
  0
LINE
  5
A53
  8
ASSIEME
 10
-3786.6030783273368
 20
968.02707649837237
 30
0.0
 11
-4686.6030783273354
 21
931.02707649837214
 31
0.0
  0
LINE
  5
A54
  8
ASSI
 10
-4791.6030783273363
 20
921.02707649837225
 30
0.0
 11
-4506.6030783273354
 21
921.02707649837225
 31
0.0
  0
POLYLINE
  5
A55
  8
0
 66
     1
 10
0.0
 20
0.0
 30
0.0
 70
     8
  0
VERTEX
  5
A56
  8
0
 10
-4661.9099999999989
 20
1199.5999999999999
 30
0.0
 70
    32
  0
VERTEX
  5
A57
  8
0
 10
-4605.9099999999999
 20
1243.3800000000001
 30
0.0
 70
    32
  0
SEQEND
  5
A58
  8
0
  0
LINE
  5
A59
  8
COMPENSATO_1_5
 10
-4669.202678712697
 20
1271.922804061885
 30
0.0
 11
-4669.202678712697
 21
1334.1771452935759
 31
0.0
  0
LINE
  5
A5A
  8
COMPENSATO_1_5
 10
-4667.702678712697
 20
1334.2438119593151
 30
0.0
 11
-4667.702678712697
 21
1271.922804061885
 31
0.0
  0
LINE
  5
A5B
  8
BALSA_3
 10
-4732.2026787127006
 20
1456.7006064763041
 30
0.0
 11
-4732.2026787127006
 21
1267.922804061885
 31
0.0
  0
LINE
  5
A5C
  8
COMPENSATO_1_5
 10
-4791.2026787126979
 20
1473.7006064763041
 30
0.0
 11
-4791.2026787126979
 21
1253.76727314297
 31
0.0
  0
LINE
  5
A5D
  8
COMPENSATO_1_5
 10
-4792.702678712697
 20
1473.7006064763041
 30
0.0
 11
-4792.702678712697
 21
1253.667273142968
 31
0.0
  0
LINE
  5
A5E
  8
BALSA_3
 10
-4791.2026787126979
 20
1456.7006064763041
 30
0.0
 11
-4791.2026787126979
 21
1263.789470728552
 31
0.0
  0
LINE
  5
A5F
  8
BALSA_3
 10
-4669.202678712697
 20
1456.7006064763041
 30
0.0
 11
-4669.202678712697
 21
1271.922804061885
 31
0.0
  0
LINE
  5
A60
  8
BALSA_3
 10
-4672.2026787126979
 20
1456.7006064763041
 30
0.0
 11
-4672.2026787126979
 21
1271.722804061885
 31
0.0
  0
LINE
  5
A61
  8
BALSA_3
 10
-4729.2026787127006
 20
1456.7006064763041
 30
0.0
 11
-4729.2026787127006
 21
1267.922804061885
 31
0.0
  0
LINE
  5
A62
  8
BALSA_3
 10
-4788.2026787126979
 20
1456.7006064763041
 30
0.0
 11
-4788.2026787126979
 21
1263.989470728553
 31
0.0
  0
LINE
  5
A63
  8
TESTO10
 10
-4824.2840915331872
 20
1517.6482175284
 30
0.0
 11
-4824.2840915331872
 21
717.6482175284018
 31
0.0
  0
LINE
  5
A64
  8
ASSIEME
 10
-4686.6030783273354
 20
906.02707649837214
 30
0.0
 11
-4792.8014899007103
 21
906.02707649837214
 31
0.0
  0
LINE
  5
A65
  8
ASSIEME
 10
-4686.6030783273354
 20
931.02707649837214
 30
0.0
 11
-4791.6030783273363
 21
931.02707649837214
 31
0.0
  0
LINE
  5
A66
  8
ASSIEME
 10
-4686.6030783273354
 20
906.02707649837214
 30
0.0
 11
-4686.6030783273354
 21
931.02707649837214
 31
0.0
  0
LINE
  5
A67
  8
COMPENSATO_1_5
 10
-4667.702678712697
 20
1153.9272226752621
 30
0.0
 11
-4667.702678712697
 21
1216.2482305726919
 31
0.0
  0
LINE
  5
A68
  8
COMPENSATO_1_5
 10
-4669.202678712697
 20
1216.2482305726919
 30
0.0
 11
-4669.202678712697
 21
1153.993889341001
 31
0.0
  0
LINE
  5
A69
  8
TIGLIO10X5
 10
-4791.2026787126979
 20
1159.416111487832
 30
0.0
 11
-4791.2026787126979
 21
1169.425983158274
 31
0.0
  0
LINE
  5
A6A
  8
BALSA_3
 10
-4788.2026787126979
 20
1031.470428158274
 30
0.0
 11
-4788.2026787126979
 21
1224.1815639060239
 31
0.0
  0
LINE
  5
A6B
  8
BALSA_3
 10
-4729.2026787127006
 20
1031.470428158274
 30
0.0
 11
-4729.2026787127006
 21
1220.2482305726919
 31
0.0
  0
LINE
  5
A6C
  8
BALSA_3
 10
-4791.2026787126979
 20
1031.470428158274
 30
0.0
 11
-4791.2026787126979
 21
1224.381563906026
 31
0.0
  0
LINE
  5
A6D
  8
COMPENSATO_1_5
 10
-4792.702678712697
 20
1014.470428158273
 30
0.0
 11
-4792.702678712697
 21
1234.5037614916071
 31
0.0
  0
LINE
  5
A6E
  8
COMPENSATO_1_5
 10
-4791.2026787126979
 20
1014.470428158273
 30
0.0
 11
-4791.2026787126979
 21
1234.403761491606
 31
0.0
  0
LINE
  5
A6F
  8
BALSA_3
 10
-4732.2026787127006
 20
1031.470428158274
 30
0.0
 11
-4732.2026787127006
 21
1220.2482305726919
 31
0.0
  0
LINE
  5
A70
  8
BALSA_3
 10
-4672.2026787126979
 20
1031.470428158274
 30
0.0
 11
-4672.2026787126979
 21
1216.448230572692
 31
0.0
  0
LINE
  5
A71
  8
BALSA_3
 10
-4669.202678712697
 20
1031.470428158274
 30
0.0
 11
-4669.202678712697
 21
1216.2482305726919
 31
0.0
  0
LINE
  5
A72
  8
COMPENSATO_1_5
 10
-4732.3757591495241
 20
1155.3001010152559
 30
0.0
 11
-4788.2026787126979
 21
1157.781297405787
 31
0.0
  0
LINE
  5
A73
  8
COMPENSATO_1_5
 10
-4788.2026787126979
 20
1159.282778156351
 30
0.0
 11
-4732.3776045794912
 21
1156.80166378493
 31
0.0
  0
LINE
  5
A74
  8
TRIANG20X5
 10
-4732.2272587313264
 20
1034.4704281582731
 30
0.0
 11
-4788.2026787126979
 21
1034.4704281582731
 31
0.0
  0
LINE
  5
A75
  8
TOBO_ALU_3MM
 10
-4725.2026787126997
 20
1062.470428158274
 30
0.0
 11
-4792.702678712697
 21
1062.470428158274
 31
0.0
  0
LINE
  5
A76
  8
TOBO_ALU_3MM
 10
-4792.702678712697
 20
1059.470428158274
 30
0.0
 11
-4725.2026787126997
 21
1059.470428158274
 31
0.0
  0
LINE
  5
A77
  8
TRIANG20X5
 10
-4788.2026787126979
 20
1034.4704281582731
 30
0.0
 11
-4788.2026787126979
 21
1031.470428158274
 31
0.0
  0
LINE
  5
A78
  8
TRIANG20X5
 10
-4788.2026787126979
 20
1031.470428158274
 30
0.0
 11
-4791.2026787126979
 21
1031.470428158274
 31
0.0
  0
LINE
  5
A79
  8
BALSA_3
 10
-4788.2026787126979
 20
1031.470428158274
 30
0.0
 11
-4791.2026787126979
 21
1031.470428158274
 31
0.0
  0
LINE
  5
A7A
  8
BALSA2MM
 10
-4788.2026787126979
 20
1049.470428158274
 30
0.0
 11
-4788.2026787126979
 21
1034.4704281582731
 31
0.0
  0
LINE
  5
A7B
  8
BALSA2MM
 10
-4788.2026787126979
 20
1049.470428158274
 30
0.0
 11
-4773.202678712697
 21
1034.4704281582731
 31
0.0
  0
LINE
  5
A7C
  8
BALSA2MM
 10
-4788.2026787126979
 20
1034.4704281582731
 30
0.0
 11
-4773.202678712697
 21
1034.4704281582731
 31
0.0
  0
LINE
  5
A7D
  8
COMPENSATO_1_5
 10
-4791.2026787126979
 20
1014.470428158273
 30
0.0
 11
-4792.702678712697
 21
1014.470428158273
 31
0.0
  0
LINE
  5
A7E
  8
TRIANG20X5
 10
-4791.2026787126979
 20
1031.470428158274
 30
0.0
 11
-4791.2026787126979
 21
1014.470428158273
 31
0.0
  0
LINE
  5
A7F
  8
COMPENSATO_1_5
 10
-4788.2026787126979
 20
1157.781297405787
 30
0.0
 11
-4788.2026787126979
 21
1159.282778156351
 31
0.0
  0
LINE
  5
A80
  8
TRIANG20X5
 10
-4672.2026787126979
 20
1034.4704281582731
 30
0.0
 11
-4729.2026787127006
 21
1034.4704281582731
 31
0.0
  0
LINE
  5
A81
  8
BALSA_3
 10
-4732.2235717126969
 20
1031.470428158274
 30
0.0
 11
-4729.2026787127006
 21
1031.470428158274
 31
0.0
  0
LINE
  5
A82
  8
TRIANG20X5
 10
-4729.2026787127006
 20
1034.4704281582731
 30
0.0
 11
-4729.2026787127006
 21
1031.470428158274
 31
0.0
  0
LINE
  5
A83
  8
TRIANG20X5
 10
-4729.2026787127006
 20
1031.470428158274
 30
0.0
 11
-4732.2235717126969
 21
1031.470428158274
 31
0.0
  0
LINE
  5
A84
  8
TRIANG20X5
 10
-4732.2235717126969
 20
1031.470428158274
 30
0.0
 11
-4732.2272587313264
 21
1034.4704281582731
 31
0.0
  0
LINE
  5
A85
  8
BALSA2MM
 10
-4729.2026787127006
 20
1049.470428158274
 30
0.0
 11
-4714.2026787127006
 21
1034.4704281582731
 31
0.0
  0
LINE
  5
A86
  8
BALSA2MM
 10
-4729.2026787127006
 20
1049.470428158274
 30
0.0
 11
-4729.2026787127006
 21
1034.4704281582731
 31
0.0
  0
LINE
  5
A87
  8
BALSA2MM
 10
-4729.2026787127006
 20
1034.4704281582731
 30
0.0
 11
-4714.2026787127006
 21
1034.4704281582731
 31
0.0
  0
LINE
  5
A88
  8
BALSA2MM
 10
-4732.227258712699
 20
1049.470428158274
 30
0.0
 11
-4732.227258712699
 21
1034.4704281582731
 31
0.0
  0
LINE
  5
A89
  8
BALSA2MM
 10
-4732.227258712699
 20
1049.470428158274
 30
0.0
 11
-4747.227258712699
 21
1034.4704281582731
 31
0.0
  0
LINE
  5
A8A
  8
BALSA2MM
 10
-4732.227258712699
 20
1034.4704281582731
 30
0.0
 11
-4747.227258712699
 21
1034.4704281582731
 31
0.0
  0
LINE
  5
A8B
  8
TOBO_ALU_3MM
 10
-4725.2026787126997
 20
1059.470428158274
 30
0.0
 11
-4725.2026787126997
 21
1062.470428158274
 31
0.0
  0
LINE
  5
A8C
  8
BALSA2MM
 10
-4669.202678712697
 20
1049.470428158274
 30
0.0
 11
-4654.2026787126979
 21
1034.4704281582731
 31
0.0
  0
LINE
  5
A8D
  8
BALSA2MM
 10
-4669.202678712697
 20
1034.4704281582731
 30
0.0
 11
-4654.2026787126979
 21
1034.4704281582731
 31
0.0
  0
LINE
  5
A8E
  8
BALSA2MM
 10
-4672.2026787126979
 20
1049.470428158274
 30
0.0
 11
-4687.2026787126997
 21
1034.4704281582731
 31
0.0
  0
LINE
  5
A8F
  8
BALSA_3
 10
-4672.2026787126979
 20
1031.470428158274
 30
0.0
 11
-4669.202678712697
 21
1031.470428158274
 31
0.0
  0
LINE
  5
A90
  8
TRIANG20X5
 10
-4669.202678712697
 20
1034.4704281582731
 30
0.0
 11
-4669.202678712697
 21
1031.470428158274
 31
0.0
  0
LINE
  5
A91
  8
TRIANG20X5
 10
-4669.202678712697
 20
1031.470428158274
 30
0.0
 11
-4672.2026787126979
 21
1031.470428158274
 31
0.0
  0
LINE
  5
A92
  8
TRIANG20X5
 10
-4672.2026787126979
 20
1031.470428158274
 30
0.0
 11
-4672.2026787126979
 21
1034.4704281582731
 31
0.0
  0
LINE
  5
A93
  8
BALSA2MM
 10
-4687.2026787126997
 20
1034.4704281582731
 30
0.0
 11
-4672.2026787126979
 21
1034.4704281582731
 31
0.0
  0
LINE
  5
A94
  8
BALSA2MM
 10
-4672.2026787126979
 20
1034.4704281582731
 30
0.0
 11
-4672.2026787126979
 21
1049.470428158274
 31
0.0
  0
LINE
  5
A95
  8
BALSA2MM
 10
-4669.202678712697
 20
1034.4704281582731
 30
0.0
 11
-4669.202678712697
 21
1049.470428158274
 31
0.0
  0
LINE
  5
A96
  8
COMPENSATO_1_5
 10
-4729.2026787127006
 20
1156.6605559705911
 30
0.0
 11
-4672.2026787126979
 21
1154.127222672482
 31
0.0
  0
LINE
  5
A97
  8
COMPENSATO_1_5
 10
-4672.2026787126979
 20
1152.625741921916
 30
0.0
 11
-4729.2026787127006
 21
1155.1590752200241
 31
0.0
  0
LINE
  5
A98
  8
COMPENSATO_1_5
 10
-4729.2026787127006
 20
1155.1590752200241
 30
0.0
 11
-4729.2026787127006
 21
1156.6605559705911
 31
0.0
  0
LINE
  5
A99
  8
COMPENSATO_1_5
 10
-4732.3776045794912
 20
1156.80166378493
 30
0.0
 11
-4732.3757591495241
 21
1155.3001010152559
 31
0.0
  0
LINE
  5
A9A
  8
COMPENSATO_1_5
 10
-4669.202678712697
 20
1153.993889341001
 30
0.0
 11
-4667.702678712697
 21
1153.927222675263
 31
0.0
  0
LINE
  5
A9B
  8
COMPENSATO_1_5
 10
-4669.202678712697
 20
1153.993889341001
 30
0.0
 11
-4669.202678712697
 21
1152.492408590434
 31
0.0
  0
LINE
  5
A9C
  8
COMPENSATO_1_5
 10
-4672.2026787126979
 20
1154.127222672482
 30
0.0
 11
-4672.2026787126979
 21
1152.625741921916
 31
0.0
  0
LINE
  5
A9D
  8
TUBO_ALU_8MM
 10
-4665.2026787127006
 20
1168.470428158274
 30
0.0
 11
-4792.2026787126979
 21
1168.470428158274
 31
0.0
  0
LINE
  5
A9E
  8
TUBO_ALU_8MM
 10
-4792.2026787126979
 20
1160.470428158274
 30
0.0
 11
-4665.2026787127006
 21
1160.470428158274
 31
0.0
  0
LINE
  5
A9F
  8
COMPENSATO_1_5
 10
-4792.702678712697
 20
1234.5037614916071
 30
0.0
 11
-4791.2026787126979
 21
1234.403761491606
 31
0.0
  0
LINE
  5
AA0
  8
BALSA5X5
 10
-4791.2026787126979
 20
1224.381563906026
 30
0.0
 11
-4791.2026787126979
 21
1234.403761491606
 31
0.0
  0
LINE
  5
AA1
  8
BALSA5X5
 10
-4791.2026787126979
 20
1263.789470728552
 30
0.0
 11
-4791.2026787126979
 21
1253.76727314297
 31
0.0
  0
LINE
  5
AA2
  8
COMPENSATO_1_5
 10
-4792.702678712697
 20
1253.667273142968
 30
0.0
 11
-4791.2026787126979
 21
1253.76727314297
 31
0.0
  0
LINE
  5
AA3
  8
BALSA_3
 10
-4732.4558473483221
 20
1220.465108481731
 30
0.0
 11
-4729.2026787127006
 21
1220.2482305726919
 31
0.0
  0
LINE
  5
AA4
  8
BALSA_3
 10
-4672.2026787126979
 20
1216.448230572692
 30
0.0
 11
-4669.202678712697
 21
1216.2482305726919
 31
0.0
  0
LINE
  5
AA5
  8
COMPENSATO_1_5
 10
-4667.702678712697
 20
1216.2482305726919
 30
0.0
 11
-4669.202678712697
 21
1216.2482305726919
 31
0.0
  0
LINE
  5
AA6
  8
TUBO_ALU_8MM
 10
-4665.2026787127006
 20
1160.470428158274
 30
0.0
 11
-4665.2026787127006
 21
1168.470428158274
 31
0.0
  0
LINE
  5
AA7
  8
BALSA_3
 10
-4732.4558473483221
 20
1267.7059261528441
 30
0.0
 11
-4729.2026787127006
 21
1267.922804061885
 31
0.0
  0
LINE
  5
AA8
  8
COMPENSATO_1_5
 10
-4667.702678712697
 20
1271.922804061885
 30
0.0
 11
-4669.202678712697
 21
1271.922804061885
 31
0.0
  0
LINE
  5
AA9
  8
BALSA_3
 10
-4672.2026787126979
 20
1271.722804061885
 30
0.0
 11
-4669.202678712697
 21
1271.922804061885
 31
0.0
  0
LINE
  5
AAA
  8
TRIANG20X5
 10
-4791.2026787126979
 20
1456.7006064763041
 30
0.0
 11
-4791.2026787126979
 21
1473.7006064763041
 31
0.0
  0
LINE
  5
AAB
  8
TRIANG20X5
 10
-4732.2272587313264
 20
1453.7006064763041
 30
0.0
 11
-4788.2026787126979
 21
1453.7006064763041
 31
0.0
  0
LINE
  5
AAC
  8
TOBO_ALU_3MM
 10
-4792.702678712697
 20
1428.7006064763041
 30
0.0
 11
-4725.2026787126997
 21
1428.7006064763041
 31
0.0
  0
LINE
  5
AAD
  8
TOBO_ALU_3MM
 10
-4725.2026787126997
 20
1425.7006064763041
 30
0.0
 11
-4792.702678712697
 21
1425.7006064763041
 31
0.0
  0
LINE
  5
AAE
  8
TUBO_ALU_8MM
 10
-4792.2026787126979
 20
1327.7006064763041
 30
0.0
 11
-4665.2026787127006
 21
1327.7006064763041
 31
0.0
  0
LINE
  5
AAF
  8
TUBO_ALU_8MM
 10
-4665.2026787127006
 20
1319.7006064763041
 30
0.0
 11
-4792.2026787126979
 21
1319.7006064763041
 31
0.0
  0
LINE
  5
AB0
  8
COMPENSATO_1_5
 10
-4788.2026787126979
 20
1328.888256478225
 30
0.0
 11
-4732.3776045794912
 21
1331.3693708496471
 31
0.0
  0
LINE
  5
AB1
  8
COMPENSATO_1_5
 10
-4732.3757591495241
 20
1332.8709336193219
 30
0.0
 11
-4788.2026787126979
 21
1330.3897372287911
 31
0.0
  0
LINE
  5
AB2
  8
COMPENSATO_1_5
 10
-4788.2026787126979
 20
1330.3897372287911
 30
0.0
 11
-4788.2026787126979
 21
1328.888256478225
 31
0.0
  0
LINE
  5
AB3
  8
TIGLIO10X5
 10
-4791.2026787126979
 20
1328.754923146746
 30
0.0
 11
-4791.2026787126979
 21
1318.7450514763041
 31
0.0
  0
LINE
  5
AB4
  8
TRIANG20X5
 10
-4788.2026787126979
 20
1453.7006064763041
 30
0.0
 11
-4788.2026787126979
 21
1456.7006064763041
 31
0.0
  0
LINE
  5
AB5
  8
BALSA2MM
 10
-4788.2026787126979
 20
1453.7006064763041
 30
0.0
 11
-4773.202678712697
 21
1453.7006064763041
 31
0.0
  0
LINE
  5
AB6
  8
BALSA2MM
 10
-4788.2026787126979
 20
1438.7006064763041
 30
0.0
 11
-4788.2026787126979
 21
1453.7006064763041
 31
0.0
  0
LINE
  5
AB7
  8
BALSA2MM
 10
-4788.2026787126979
 20
1438.7006064763041
 30
0.0
 11
-4773.202678712697
 21
1453.7006064763041
 31
0.0
  0
LINE
  5
AB8
  8
BALSA_3
 10
-4788.2026787126979
 20
1456.7006064763041
 30
0.0
 11
-4791.2026787126979
 21
1456.7006064763041
 31
0.0
  0
LINE
  5
AB9
  8
TRIANG20X5
 10
-4788.2026787126979
 20
1456.7006064763041
 30
0.0
 11
-4791.2026787126979
 21
1456.7006064763041
 31
0.0
  0
LINE
  5
ABA
  8
COMPENSATO_1_5
 10
-4672.2026787126979
 20
1335.5452927126621
 30
0.0
 11
-4729.2026787127006
 21
1333.0119594145531
 31
0.0
  0
LINE
  5
ABB
  8
COMPENSATO_1_5
 10
-4729.2026787127006
 20
1331.510478663987
 30
0.0
 11
-4672.2026787126979
 21
1334.043811962096
 31
0.0
  0
LINE
  5
ABC
  8
COMPENSATO_1_5
 10
-4732.3776045794912
 20
1331.3693708496471
 30
0.0
 11
-4732.3757591495241
 21
1332.8709336193219
 31
0.0
  0
LINE
  5
ABD
  8
COMPENSATO_1_5
 10
-4729.2026787127006
 20
1333.0119594145531
 30
0.0
 11
-4729.2026787127006
 21
1331.510478663987
 31
0.0
  0
LINE
  5
ABE
  8
COMPENSATO_1_5
 10
-4672.2026787126979
 20
1334.043811962096
 30
0.0
 11
-4672.2026787126979
 21
1335.5452927126621
 31
0.0
  0
LINE
  5
ABF
  8
COMPENSATO_1_5
 10
-4669.202678712697
 20
1334.1771452935759
 30
0.0
 11
-4669.202678712697
 21
1335.6786260441399
 31
0.0
  0
LINE
  5
AC0
  8
COMPENSATO_1_5
 10
-4669.202678712697
 20
1334.1771452935759
 30
0.0
 11
-4667.702678712697
 21
1334.2438119593151
 31
0.0
  0
LINE
  5
AC1
  8
TUBO_ALU_8MM
 10
-4665.2026787127006
 20
1327.7006064763041
 30
0.0
 11
-4665.2026787127006
 21
1319.7006064763041
 31
0.0
  0
LINE
  5
AC2
  8
TRIANG20X5
 10
-4672.2026787126979
 20
1453.7006064763041
 30
0.0
 11
-4729.2026787127006
 21
1453.7006064763041
 31
0.0
  0
LINE
  5
AC3
  8
TRIANG20X5
 10
-4732.2235717126969
 20
1456.7006064763041
 30
0.0
 11
-4732.2272587313264
 21
1453.7006064763041
 31
0.0
  0
LINE
  5
AC4
  8
TRIANG20X5
 10
-4729.2026787127006
 20
1453.7006064763041
 30
0.0
 11
-4729.2026787127006
 21
1456.7006064763041
 31
0.0
  0
LINE
  5
AC5
  8
BALSA2MM
 10
-4732.227258712699
 20
1453.7006064763041
 30
0.0
 11
-4747.227258712699
 21
1453.7006064763041
 31
0.0
  0
LINE
  5
AC6
  8
BALSA2MM
 10
-4732.227258712699
 20
1438.7006064763041
 30
0.0
 11
-4747.227258712699
 21
1453.7006064763041
 31
0.0
  0
LINE
  5
AC7
  8
BALSA2MM
 10
-4732.227258712699
 20
1438.7006064763041
 30
0.0
 11
-4732.227258712699
 21
1453.7006064763041
 31
0.0
  0
LINE
  5
AC8
  8
BALSA2MM
 10
-4729.2026787127006
 20
1453.7006064763041
 30
0.0
 11
-4714.2026787127006
 21
1453.7006064763041
 31
0.0
  0
LINE
  5
AC9
  8
BALSA2MM
 10
-4729.2026787127006
 20
1438.7006064763041
 30
0.0
 11
-4729.2026787127006
 21
1453.7006064763041
 31
0.0
  0
LINE
  5
ACA
  8
BALSA2MM
 10
-4729.2026787127006
 20
1438.7006064763041
 30
0.0
 11
-4714.2026787127006
 21
1453.7006064763041
 31
0.0
  0
LINE
  5
ACB
  8
TOBO_ALU_3MM
 10
-4725.2026787126997
 20
1428.7006064763041
 30
0.0
 11
-4725.2026787126997
 21
1425.7006064763041
 31
0.0
  0
LINE
  5
ACC
  8
TRIANG20X5
 10
-4729.2026787127006
 20
1456.7006064763041
 30
0.0
 11
-4732.2235717126969
 21
1456.7006064763041
 31
0.0
  0
LINE
  5
ACD
  8
BALSA_3
 10
-4732.2235717126969
 20
1456.7006064763041
 30
0.0
 11
-4729.2026787127006
 21
1456.7006064763041
 31
0.0
  0
LINE
  5
ACE
  8
TRIANG20X5
 10
-4672.2026787126979
 20
1456.7006064763041
 30
0.0
 11
-4672.2026787126979
 21
1453.7006064763041
 31
0.0
  0
LINE
  5
ACF
  8
TRIANG20X5
 10
-4669.202678712697
 20
1453.7006064763041
 30
0.0
 11
-4669.202678712697
 21
1456.7006064763041
 31
0.0
  0
LINE
  5
AD0
  8
BALSA2MM
 10
-4687.2026787126997
 20
1453.7006064763041
 30
0.0
 11
-4672.2026787126979
 21
1453.7006064763041
 31
0.0
  0
LINE
  5
AD1
  8
BALSA2MM
 10
-4672.2026787126979
 20
1438.7006064763041
 30
0.0
 11
-4687.2026787126997
 21
1453.7006064763041
 31
0.0
  0
LINE
  5
AD2
  8
BALSA2MM
 10
-4669.202678712697
 20
1453.7006064763041
 30
0.0
 11
-4669.202678712697
 21
1438.7006064763041
 31
0.0
  0
LINE
  5
AD3
  8
BALSA2MM
 10
-4672.2026787126979
 20
1453.7006064763041
 30
0.0
 11
-4672.2026787126979
 21
1438.7006064763041
 31
0.0
  0
LINE
  5
AD4
  8
BALSA2MM
 10
-4669.202678712697
 20
1453.7006064763041
 30
0.0
 11
-4654.2026787126979
 21
1453.7006064763041
 31
0.0
  0
LINE
  5
AD5
  8
BALSA2MM
 10
-4669.202678712697
 20
1438.7006064763041
 30
0.0
 11
-4654.2026787126979
 21
1453.7006064763041
 31
0.0
  0
LINE
  5
AD6
  8
TRIANG20X5
 10
-4669.202678712697
 20
1456.7006064763041
 30
0.0
 11
-4672.2026787126979
 21
1456.7006064763041
 31
0.0
  0
LINE
  5
AD7
  8
BALSA_3
 10
-4672.2026787126979
 20
1456.7006064763041
 30
0.0
 11
-4669.202678712697
 21
1456.7006064763041
 31
0.0
  0
TEXT
  5
AD8
  8
COPERTURA_1MM
 10
-4795.4545275333803
 20
1486.217324279181
 30
0.0
 40
5.0
  1
A01
  0
LINE
  5
AD9
  8
COMPENSATO_1_5
 10
-4791.2026787126979
 20
1473.7006064763041
 30
0.0
 11
-4792.702678712697
 21
1473.7006064763041
 31
0.0
  0
TEXT
  5
ADA
  8
COPERTURA_1MM
 10
-4733.7982546061512
 20
1486.217324279181
 30
0.0
 40
5.0
  1
A02
  0
TEXT
  5
ADB
  8
COPERTURA_1MM
 10
-4675.2248056359986
 20
1486.217324279181
 30
0.0
 40
5.0
  1
A04
  0
POLYLINE
  5
ADC
  8
0
 66
     1
 10
0.0
 20
0.0
 30
0.0
 70
     8
  0
VERTEX
  5
ADD
  8
0
 10
-4101.6800000000003
 20
1352.6400000000001
 30
0.0
 70
    32
  0
VERTEX
  5
ADE
  8
0
 10
-4054.0300000000002
 20
1274.46
 30
0.0
 70
    32
  0
VERTEX
  5
ADF
  8
0
 10
-4050.5300000000011
 20
1274.46
 30
0.0
 70
    32
  0
SEQEND
  5
AE0
  8
0
  0
INSERT
  5
AE1
  8
COPERTURA_1MM
  2
*U8
 10
0.0
 20
0.0
 30
0.0
  0
POLYLINE
  5
AE2
  8
0
 66
     1
 10
0.0
 20
0.0
 30
0.0
 70
     8
  0
VERTEX
  5
AE3
  8
0
 10
-4283.0
 20
1352.8399999999999
 30
0.0
 70
    32
  0
VERTEX
  5
AE4
  8
0
 10
-4213.4399999999996
 20
1247.55
 30
0.0
 70
    32
  0
VERTEX
  5
AE5
  8
0
 10
-4209.9399999999987
 20
1247.55
 30
0.0
 70
    32
  0
SEQEND
  5
AE6
  8
0
  0
TEXT
  5
AE7
  8
COPERTURA_1MM
 62
     3
 10
-4210.262814465862
 20
1245.0527031499021
 30
0.0
 40
5.0
  1
Rinforzo in compensato sp 1,5
  0
POLYLINE
  5
AE8
  8
0
 66
     1
 10
0.0
 20
0.0
 30
0.0
 70
     8
  0
VERTEX
  5
AE9
  8
0
 10
-4403.1700000000001
 20
1316.8900000000001
 30
0.0
 70
    32
  0
VERTEX
  5
AEA
  8
0
 10
-4367.630000000001
 20
1234.8299999999999
 30
0.0
 70
    32
  0
SEQEND
  5
AEB
  8
0
  0
LINE
  5
AEC
  8
BALSA_1_5
 10
-4370.7026787126988
 20
1456.7006064763041
 30
0.0
 11
-4370.7026787126988
 21
1291.822804061886
 31
0.0
  0
LINE
  5
AED
  8
BALSA_1_5
 10
-4372.2026787126988
 20
1456.7006064763041
 30
0.0
 11
-4372.2026787126988
 21
1291.722804061885
 31
0.0
  0
LINE
  5
AEE
  8
BALSA_1_5
 10
-4430.7026787127006
 20
1456.7006064763041
 30
0.0
 11
-4430.7026787127006
 21
1287.822804061886
 31
0.0
  0
LINE
  5
AEF
  8
BALSA_1_5
 10
-4490.7026787126997
 20
1456.7006064763041
 30
0.0
 11
-4490.7026787126997
 21
1283.822804061886
 31
0.0
  0
LINE
  5
AF0
  8
BALSA_1_5
 10
-4432.2026787127006
 20
1456.7006064763041
 30
0.0
 11
-4432.2026787127006
 21
1287.722804061885
 31
0.0
  0
LINE
  5
AF1
  8
BALSA_1_5
 10
-4550.7026787126979
 20
1456.7006064763041
 30
0.0
 11
-4550.7026787126979
 21
1279.822804061886
 31
0.0
  0
LINE
  5
AF2
  8
BALSA_1_5
 10
-4610.7026787127006
 20
1456.7006064763041
 30
0.0
 11
-4610.7026787127006
 21
1275.822804061886
 31
0.0
  0
LINE
  5
AF3
  8
BALSA_1_5
 10
-4492.2026787126997
 20
1456.7006064763041
 30
0.0
 11
-4492.2026787126997
 21
1283.722804061885
 31
0.0
  0
LINE
  5
AF4
  8
BALSA_1_5
 10
-4552.2026787126979
 20
1456.7006064763041
 30
0.0
 11
-4552.2026787126979
 21
1279.722804061885
 31
0.0
  0
LINE
  5
AF5
  8
BALSA_1_5
 10
-4612.2026787127006
 20
1456.7006064763041
 30
0.0
 11
-4612.2026787127006
 21
1275.722804061885
 31
0.0
  0
LINE
  5
AF6
  8
BALSA_1_5
 10
-4130.7026787126997
 20
1438.7006064763041
 30
0.0
 11
-4130.7026787126997
 21
1307.822804061886
 31
0.0
  0
LINE
  5
AF7
  8
BALSA_1_5
 10
-4132.2026787126997
 20
1438.7006064763041
 30
0.0
 11
-4132.2026787126997
 21
1307.7228040618861
 31
0.0
  0
LINE
  5
AF8
  8
BALSA_1_5
 10
-4190.7026787126988
 20
1438.7006064763041
 30
0.0
 11
-4190.7026787126988
 21
1303.8228040618851
 31
0.0
  0
LINE
  5
AF9
  8
BALSA_1_5
 10
-4192.2026787126988
 20
1438.7006064763041
 30
0.0
 11
-4192.2026787126988
 21
1303.7228040618861
 31
0.0
  0
LINE
  5
AFA
  8
BALSA_1_5
 10
-4250.7026787126979
 20
1456.7006064763041
 30
0.0
 11
-4250.7026787126979
 21
1299.822804061886
 31
0.0
  0
LINE
  5
AFB
  8
BALSA_1_5
 10
-4252.2026787126979
 20
1456.7006064763041
 30
0.0
 11
-4252.2026787126979
 21
1299.7228040618861
 31
0.0
  0
LINE
  5
AFC
  8
BALSA_1_5
 10
-4310.7026787126997
 20
1456.7006064763041
 30
0.0
 11
-4310.7026787126997
 21
1295.822804061886
 31
0.0
  0
LINE
  5
AFD
  8
BALSA_1_5
 10
-4312.2026787126997
 20
1456.7006064763041
 30
0.0
 11
-4312.2026787126997
 21
1295.7228040618861
 31
0.0
  0
LINE
  5
AFE
  8
BALSA5X5
 10
-4312.2026787126997
 20
1049.470428158274
 30
0.0
 11
-3892.2026787126979
 21
1049.470428158274
 31
0.0
  0
LINE
  5
AFF
  8
BALSA5X5
 10
-4312.2026787126997
 20
1059.470428158274
 30
0.0
 11
-3892.2026787126979
 21
1059.470428158274
 31
0.0
  0
LINE
  5
B00
  8
BALSA5X5
 10
-4312.2026787126997
 20
1054.470428158274
 30
0.0
 11
-3892.2026787126979
 21
1054.470428158274
 31
0.0
  0
LINE
  5
B01
  8
ALETTONE
 10
-4249.202678712697
 20
1047.970428158274
 30
0.0
 11
-3895.2026787126979
 21
1047.970428158274
 31
0.0
  0
LINE
  5
B02
  8
ALETTONE
 10
-3895.2026787126979
 20
1014.470428158273
 30
0.0
 11
-4249.202678712697
 21
1014.470428158273
 31
0.0
  0
LINE
  5
B03
  8
COMPENSATO_1_5
 10
-4250.7026787126979
 20
1133.9022805194991
 30
0.0
 11
-4192.2026787126988
 21
1131.30228055565
 31
0.0
  0
LINE
  5
B04
  8
COMPENSATO_1_5
 10
-4192.2026787126988
 20
1132.8037613062161
 30
0.0
 11
-4250.7026787126979
 21
1135.403761270064
 31
0.0
  0
POLYLINE
  5
B05
  8
0
 66
     1
 10
0.0
 20
0.0
 30
0.0
 70
     8
  0
VERTEX
  5
B06
  8
0
 10
-4367.4699999999993
 20
1038.3699999999999
 30
0.0
 70
    32
  0
VERTEX
  5
B07
  8
0
 10
-4341.7399999999998
 20
994.58799999999997
 30
0.0
 70
    32
  0
VERTEX
  5
B08
  8
0
 10
-4338.2399999999989
 20
994.58799999999997
 30
0.0
 70
    32
  0
SEQEND
  5
B09
  8
0
  0
TEXT
  5
B0A
  8
COPERTURA_1MM
 62
     3
 10
-4338.5690799797158
 20
992.08826299202667
 30
0.0
 40
5.0
  1
Rinforzi Balsa 2mm
  0
TEXT
  5
B0B
  8
COPERTURA_1MM
 10
-4397.9160297202388
 20
931.34129874981772
 30
0.0
 40
5.0
  1
Diedro 3°
  0
LINE
  5
B0C
  8
COMPENSATO_1_5
 10
-4430.7026787127006
 20
1141.8924087378221
 30
0.0
 11
-4372.2026787126988
 21
1139.2924087739709
 31
0.0
  0
LINE
  5
B0D
  8
COMPENSATO_1_5
 10
-4372.2026787126988
 20
1140.79388952454
 30
0.0
 11
-4430.7026787127006
 21
1143.3938894883879
 31
0.0
  0
LINE
  5
B0E
  8
BALSA2MM
 10
-4430.7026787127006
 20
1049.470428158274
 30
0.0
 11
-4415.7026787126979
 21
1034.4704281582731
 31
0.0
  0
LINE
  5
B0F
  8
BALSA2MM
 10
-4430.7026787127006
 20
1034.4704281582731
 30
0.0
 11
-4415.7026787126979
 21
1034.4704281582731
 31
0.0
  0
LINE
  5
B10
  8
TRIANG20X5
 10
-4430.7026787127006
 20
1034.4704281582731
 30
0.0
 11
-4372.2026787126988
 21
1034.4704281582731
 31
0.0
  0
LINE
  5
B11
  8
BALSA_1_5
 10
-4612.2026787127006
 20
1031.470428158274
 30
0.0
 11
-4612.2026787127006
 21
1212.448230572692
 31
0.0
  0
LINE
  5
B12
  8
BALSA_1_5
 10
-4552.2026787126979
 20
1031.470428158274
 30
0.0
 11
-4552.2026787126979
 21
1208.448230572692
 31
0.0
  0
LINE
  5
B13
  8
BALSA_1_5
 10
-4610.7026787127006
 20
1031.470428158274
 30
0.0
 11
-4610.7026787127006
 21
1212.348230572692
 31
0.0
  0
LINE
  5
B14
  8
BALSA_1_5
 10
-4550.7026787126979
 20
1031.470428158274
 30
0.0
 11
-4550.7026787126979
 21
1208.348230572692
 31
0.0
  0
LINE
  5
B15
  8
BALSA_1_5
 10
-4492.2026787126997
 20
1031.470428158274
 30
0.0
 11
-4492.2026787126997
 21
1204.448230572692
 31
0.0
  0
LINE
  5
B16
  8
BALSA_1_5
 10
-4432.2026787127006
 20
1031.470428158274
 30
0.0
 11
-4432.2026787127006
 21
1200.448230572692
 31
0.0
  0
LINE
  5
B17
  8
BALSA_1_5
 10
-4490.7026787126997
 20
1031.470428158274
 30
0.0
 11
-4490.7026787126997
 21
1204.348230572692
 31
0.0
  0
LINE
  5
B18
  8
BALSA_1_5
 10
-4430.7026787127006
 20
1031.470428158274
 30
0.0
 11
-4430.7026787127006
 21
1200.348230572692
 31
0.0
  0
LINE
  5
B19
  8
COMPENSATO_1_5
 10
-4550.7026787126979
 20
1147.225741996999
 30
0.0
 11
-4492.2026787126997
 21
1144.6257420331499
 31
0.0
  0
LINE
  5
B1A
  8
COMPENSATO_1_5
 10
-4492.2026787126997
 20
1146.127222783716
 30
0.0
 11
-4550.7026787126979
 21
1148.727222747566
 31
0.0
  0
LINE
  5
B1B
  8
TRIANG20X5
 10
-4492.2026787126997
 20
1034.4704281582731
 30
0.0
 11
-4550.7026787126979
 21
1034.4704281582731
 31
0.0
  0
LINE
  5
B1C
  8
BALSA2MM
 10
-4550.7026787126979
 20
1049.470428158274
 30
0.0
 11
-4535.7026787126979
 21
1034.4704281582731
 31
0.0
  0
LINE
  5
B1D
  8
BALSA2MM
 10
-4550.7026787126979
 20
1034.4704281582731
 30
0.0
 11
-4535.7026787126979
 21
1034.4704281582731
 31
0.0
  0
LINE
  5
B1E
  8
TRIANG20X5
 10
-4552.2026787126979
 20
1034.4704281582731
 30
0.0
 11
-4610.7026787127006
 21
1034.4704281582731
 31
0.0
  0
LINE
  5
B1F
  8
BALSA2MM
 10
-4612.2026787127006
 20
1049.470428158274
 30
0.0
 11
-4627.2026787126979
 21
1034.4704281582731
 31
0.0
  0
LINE
  5
B20
  8
BALSA2MM
 10
-4627.2026787126979
 20
1034.4704281582731
 30
0.0
 11
-4612.2026787127006
 21
1034.4704281582731
 31
0.0
  0
LINE
  5
B21
  8
BALSA_1_5
 10
-4612.2026787127006
 20
1031.470428158274
 30
0.0
 11
-4610.7026787127006
 21
1031.470428158274
 31
0.0
  0
LINE
  5
B22
  8
BALSA2MM
 10
-4612.2026787127006
 20
1034.4704281582731
 30
0.0
 11
-4612.2026787127006
 21
1049.470428158274
 31
0.0
  0
LINE
  5
B23
  8
BALSA2MM
 10
-4610.7026787127006
 20
1049.470428158274
 30
0.0
 11
-4610.7026787127006
 21
1034.4704281582731
 31
0.0
  0
LINE
  5
B24
  8
TRIANG20X5
 10
-4610.7026787127006
 20
1034.4704281582731
 30
0.0
 11
-4610.7026787127006
 21
1031.470428158274
 31
0.0
  0
LINE
  5
B25
  8
TRIANG20X5
 10
-4610.7026787127006
 20
1031.470428158274
 30
0.0
 11
-4612.2026787127006
 21
1031.470428158274
 31
0.0
  0
LINE
  5
B26
  8
TRIANG20X5
 10
-4612.2026787127006
 20
1031.470428158274
 30
0.0
 11
-4612.2026787127006
 21
1034.4704281582731
 31
0.0
  0
LINE
  5
B27
  8
BALSA2MM
 10
-4610.7026787127006
 20
1049.470428158274
 30
0.0
 11
-4595.7026787126997
 21
1034.4704281582731
 31
0.0
  0
LINE
  5
B28
  8
BALSA2MM
 10
-4610.7026787127006
 20
1034.4704281582731
 30
0.0
 11
-4595.7026787126997
 21
1034.4704281582731
 31
0.0
  0
LINE
  5
B29
  8
BALSA2MM
 10
-4552.2026787126979
 20
1049.470428158274
 30
0.0
 11
-4567.2026787126979
 21
1034.4704281582731
 31
0.0
  0
LINE
  5
B2A
  8
BALSA2MM
 10
-4552.2026787126979
 20
1034.4704281582731
 30
0.0
 11
-4567.2026787126979
 21
1034.4704281582731
 31
0.0
  0
LINE
  5
B2B
  8
BALSA_1_5
 10
-4552.2026787126979
 20
1031.470428158274
 30
0.0
 11
-4550.7026787126979
 21
1031.470428158274
 31
0.0
  0
LINE
  5
B2C
  8
BALSA2MM
 10
-4550.7026787126979
 20
1049.470428158274
 30
0.0
 11
-4550.7026787126979
 21
1034.4704281582731
 31
0.0
  0
LINE
  5
B2D
  8
BALSA2MM
 10
-4552.2026787126979
 20
1049.470428158274
 30
0.0
 11
-4552.2026787126979
 21
1034.4704281582731
 31
0.0
  0
LINE
  5
B2E
  8
TRIANG20X5
 10
-4550.7026787126979
 20
1034.4704281582731
 30
0.0
 11
-4550.7026787126979
 21
1031.5792257776091
 31
0.0
  0
LINE
  5
B2F
  8
TRIANG20X5
 10
-4550.7026787126979
 20
1031.5792257776091
 30
0.0
 11
-4552.2026787126979
 21
1031.470428158274
 31
0.0
  0
LINE
  5
B30
  8
TRIANG20X5
 10
-4552.2026787126979
 20
1031.470428158274
 30
0.0
 11
-4552.2026787126979
 21
1034.4704281582731
 31
0.0
  0
LINE
  5
B31
  8
COMPENSATO_1_5
 10
-4610.7026787127006
 20
1149.8924086265861
 30
0.0
 11
-4552.2026787126979
 21
1147.292408662739
 31
0.0
  0
LINE
  5
B32
  8
COMPENSATO_1_5
 10
-4552.2026787126979
 20
1148.793889413304
 30
0.0
 11
-4610.7026787127006
 21
1151.393889377154
 31
0.0
  0
LINE
  5
B33
  8
COMPENSATO_1_5
 10
-4610.7026787127006
 20
1151.4037611582739
 30
0.0
 11
-4610.7026787127006
 21
1149.8924086265861
 31
0.0
  0
LINE
  5
B34
  8
COMPENSATO_1_5
 10
-4612.2026787127006
 20
1149.9590752923259
 30
0.0
 11
-4612.2026787127006
 21
1151.460556042892
 31
0.0
  0
LINE
  5
B35
  8
COMPENSATO_1_5
 10
-4550.7026787126979
 20
1148.727222747566
 30
0.0
 11
-4550.7026787126979
 21
1147.225741996999
 31
0.0
  0
LINE
  5
B36
  8
COMPENSATO_1_5
 10
-4552.2026787126979
 20
1147.292408662739
 30
0.0
 11
-4552.2026787126979
 21
1148.793889413304
 31
0.0
  0
LINE
  5
B37
  8
TRIANG20X5
 10
-4432.2026787127006
 20
1034.4704281582731
 30
0.0
 11
-4490.7026787126997
 21
1034.4704281582731
 31
0.0
  0
LINE
  5
B38
  8
BALSA2MM
 10
-4490.7026787126997
 20
1049.470428158274
 30
0.0
 11
-4475.7026787126988
 21
1034.4704281582731
 31
0.0
  0
LINE
  5
B39
  8
BALSA2MM
 10
-4490.7026787126997
 20
1034.4704281582731
 30
0.0
 11
-4475.7026787126988
 21
1034.4704281582731
 31
0.0
  0
LINE
  5
B3A
  8
BALSA_1_5
 10
-4492.2026787126997
 20
1031.470428158274
 30
0.0
 11
-4490.7026787126997
 21
1031.470428158274
 31
0.0
  0
LINE
  5
B3B
  8
BALSA2MM
 10
-4492.2026787126997
 20
1049.470428158274
 30
0.0
 11
-4507.2026787126997
 21
1034.4704281582731
 31
0.0
  0
LINE
  5
B3C
  8
BALSA2MM
 10
-4490.7026787126997
 20
1049.470428158274
 30
0.0
 11
-4490.7026787126997
 21
1034.4704281582731
 31
0.0
  0
LINE
  5
B3D
  8
BALSA2MM
 10
-4492.2026787126997
 20
1049.470428158274
 30
0.0
 11
-4492.2026787126997
 21
1034.4704281582731
 31
0.0
  0
LINE
  5
B3E
  8
BALSA2MM
 10
-4492.2026787126997
 20
1034.4704281582731
 30
0.0
 11
-4507.2026787126997
 21
1034.4704281582731
 31
0.0
  0
LINE
  5
B3F
  8
TRIANG20X5
 10
-4490.7026787126997
 20
1034.4704281582731
 30
0.0
 11
-4490.7026787126997
 21
1031.470428158274
 31
0.0
  0
LINE
  5
B40
  8
TRIANG20X5
 10
-4490.7026787126997
 20
1031.470428158274
 30
0.0
 11
-4492.2026787126997
 21
1031.470428158274
 31
0.0
  0
LINE
  5
B41
  8
TRIANG20X5
 10
-4492.2026787126997
 20
1031.470428158274
 30
0.0
 11
-4492.2026787126997
 21
1034.4704281582731
 31
0.0
  0
LINE
  5
B42
  8
BALSA_1_5
 10
-4432.2026787127006
 20
1031.470428158274
 30
0.0
 11
-4430.7026787127006
 21
1031.470428158274
 31
0.0
  0
LINE
  5
B43
  8
BALSA2MM
 10
-4432.2026787127006
 20
1049.470428158274
 30
0.0
 11
-4447.2026787127006
 21
1034.4704281582731
 31
0.0
  0
LINE
  5
B44
  8
BALSA2MM
 10
-4432.2026787127006
 20
1049.470428158274
 30
0.0
 11
-4432.2026787127006
 21
1034.4704281582731
 31
0.0
  0
LINE
  5
B45
  8
BALSA2MM
 10
-4432.2026787127006
 20
1034.4704281582731
 30
0.0
 11
-4447.2026787127006
 21
1034.4704281582731
 31
0.0
  0
LINE
  5
B46
  8
BALSA2MM
 10
-4430.7026787127006
 20
1049.470428158274
 30
0.0
 11
-4430.7026787127006
 21
1034.4704281582731
 31
0.0
  0
LINE
  5
B47
  8
TRIANG20X5
 10
-4430.7026787127006
 20
1034.4704281582731
 30
0.0
 11
-4430.7026787127006
 21
1031.470428158274
 31
0.0
  0
LINE
  5
B48
  8
TRIANG20X5
 10
-4430.7026787127006
 20
1031.470428158274
 30
0.0
 11
-4432.2026787127006
 21
1031.470428158274
 31
0.0
  0
LINE
  5
B49
  8
TRIANG20X5
 10
-4432.2026787127006
 20
1031.470428158274
 30
0.0
 11
-4432.2026787127006
 21
1034.4704281582731
 31
0.0
  0
LINE
  5
B4A
  8
COMPENSATO_1_5
 10
-4490.7026787126997
 20
1144.5590753674089
 30
0.0
 11
-4432.2026787127006
 21
1141.9590754035621
 31
0.0
  0
LINE
  5
B4B
  8
COMPENSATO_1_5
 10
-4432.2026787127006
 20
1143.460556154128
 30
0.0
 11
-4490.7026787126997
 21
1146.0605561179771
 31
0.0
  0
LINE
  5
B4C
  8
COMPENSATO_1_5
 10
-4490.7026787126997
 20
1146.0605561179771
 30
0.0
 11
-4490.7026787126997
 21
1144.5590753674089
 31
0.0
  0
LINE
  5
B4D
  8
COMPENSATO_1_5
 10
-4492.2026787126997
 20
1144.6257420331499
 30
0.0
 11
-4492.2026787126997
 21
1146.127222783716
 31
0.0
  0
LINE
  5
B4E
  8
COMPENSATO_1_5
 10
-4430.7026787127006
 20
1143.3938894883879
 30
0.0
 11
-4430.7026787127006
 21
1141.8924087378221
 31
0.0
  0
LINE
  5
B4F
  8
COMPENSATO_1_5
 10
-4432.2026787127006
 20
1141.9590754035621
 30
0.0
 11
-4432.2026787127006
 21
1143.460556154128
 31
0.0
  0
LINE
  5
B50
  8
BALSA_1_5
 10
-4612.2026787127006
 20
1212.448230572692
 30
0.0
 11
-4610.7026787127006
 21
1212.348230572692
 31
0.0
  0
LINE
  5
B51
  8
BALSA_1_5
 10
-4552.2026787126979
 20
1208.448230572692
 30
0.0
 11
-4550.7026787126979
 21
1208.348230572692
 31
0.0
  0
LINE
  5
B52
  8
BALSA_1_5
 10
-4612.2026787127006
 20
1275.722804061885
 30
0.0
 11
-4610.7026787127006
 21
1275.822804061886
 31
0.0
  0
LINE
  5
B53
  8
BALSA_1_5
 10
-4552.2026787126979
 20
1279.722804061885
 30
0.0
 11
-4550.7026787126979
 21
1279.822804061886
 31
0.0
  0
LINE
  5
B54
  8
BALSA_1_5
 10
-4492.2026787126997
 20
1204.448230572692
 30
0.0
 11
-4490.7026787126997
 21
1204.348230572692
 31
0.0
  0
LINE
  5
B55
  8
BALSA_1_5
 10
-4432.2026787127006
 20
1200.448230572692
 30
0.0
 11
-4430.7026787127006
 21
1200.348230572692
 31
0.0
  0
LINE
  5
B56
  8
BALSA_1_5
 10
-4492.2026787126997
 20
1283.722804061885
 30
0.0
 11
-4490.7026787126997
 21
1283.822804061886
 31
0.0
  0
LINE
  5
B57
  8
BALSA_1_5
 10
-4432.2026787127006
 20
1287.722804061885
 30
0.0
 11
-4430.7026787127006
 21
1287.822804061886
 31
0.0
  0
LINE
  5
B58
  8
BALSA_1_5
 10
-4372.2026787126988
 20
1031.470428158274
 30
0.0
 11
-4372.2026787126988
 21
1196.448230572691
 31
0.0
  0
LINE
  5
B59
  8
BALSA_1_5
 10
-4370.7026787126988
 20
1031.470428158274
 30
0.0
 11
-4370.7026787126988
 21
1196.348230572692
 31
0.0
  0
LINE
  5
B5A
  8
BALSA_1_5
 10
-4312.2026787126997
 20
1031.470428158274
 30
0.0
 11
-4312.2026787126997
 21
1192.448230572692
 31
0.0
  0
LINE
  5
B5B
  8
BALSA_1_5
 10
-4310.7026787126997
 20
1031.470428158274
 30
0.0
 11
-4310.7026787126997
 21
1192.348230572692
 31
0.0
  0
LINE
  5
B5C
  8
BALSA_1_5
 10
-4252.2026787126979
 20
1031.470428158274
 30
0.0
 11
-4252.2026787126979
 21
1188.448230572691
 31
0.0
  0
LINE
  5
B5D
  8
BALSA_1_5
 10
-4250.7026787126979
 20
1031.470428158274
 30
0.0
 11
-4250.7026787126979
 21
1188.348230572692
 31
0.0
  0
LINE
  5
B5E
  8
COMPENSATO_1_5
 10
-4370.7026787126988
 20
1140.7272228587999
 30
0.0
 11
-4312.2026787126997
 21
1138.127222894951
 31
0.0
  0
LINE
  5
B5F
  8
COMPENSATO_1_5
 10
-4312.2026787126997
 20
1136.625742144385
 30
0.0
 11
-4370.7026787126988
 21
1139.225742108234
 31
0.0
  0
LINE
  5
B60
  8
BALSA2MM
 10
-4312.2026787126997
 20
1049.470428158274
 30
0.0
 11
-4327.2026787126997
 21
1034.4704281582731
 31
0.0
  0
LINE
  5
B61
  8
BALSA2MM
 10
-4312.2026787126997
 20
1034.4704281582731
 30
0.0
 11
-4327.2026787126997
 21
1034.4704281582731
 31
0.0
  0
LINE
  5
B62
  8
TRIANG20X5
 10
-4370.7026787126988
 20
1034.4704281582731
 30
0.0
 11
-4312.2026787126997
 21
1034.4704281582731
 31
0.0
  0
LINE
  5
B63
  8
BALSA_1_5
 10
-4372.2026787126988
 20
1031.470428158274
 30
0.0
 11
-4370.7026787126988
 21
1031.470428158274
 31
0.0
  0
LINE
  5
B64
  8
TRIANG20X5
 10
-4370.7026787126988
 20
1031.470428158274
 30
0.0
 11
-4372.2026787126988
 21
1031.470428158274
 31
0.0
  0
LINE
  5
B65
  8
BALSA2MM
 10
-4372.2026787126988
 20
1049.470428158274
 30
0.0
 11
-4372.2026787126988
 21
1034.4704281582731
 31
0.0
  0
LINE
  5
B66
  8
TRIANG20X5
 10
-4372.2026787126988
 20
1031.470428158274
 30
0.0
 11
-4372.2026787126988
 21
1034.4704281582731
 31
0.0
  0
LINE
  5
B67
  8
BALSA2MM
 10
-4372.2026787126988
 20
1049.470428158274
 30
0.0
 11
-4387.2026787126988
 21
1034.4704281582731
 31
0.0
  0
LINE
  5
B68
  8
BALSA2MM
 10
-4372.2026787126988
 20
1034.4704281582731
 30
0.0
 11
-4387.2026787126988
 21
1034.4704281582731
 31
0.0
  0
LINE
  5
B69
  8
BALSA2MM
 10
-4370.7026787126988
 20
1049.470428158274
 30
0.0
 11
-4355.7026787127006
 21
1034.4704281582731
 31
0.0
  0
LINE
  5
B6A
  8
BALSA2MM
 10
-4370.7026787126988
 20
1034.4704281582731
 30
0.0
 11
-4355.7026787127006
 21
1034.4704281582731
 31
0.0
  0
LINE
  5
B6B
  8
BALSA2MM
 10
-4370.7026787126988
 20
1049.470428158274
 30
0.0
 11
-4370.7026787126988
 21
1034.4704281582731
 31
0.0
  0
LINE
  5
B6C
  8
TRIANG20X5
 10
-4370.7026787126988
 20
1034.4704281582731
 30
0.0
 11
-4370.7026787126988
 21
1031.470428158274
 31
0.0
  0
LINE
  5
B6D
  8
COMPENSATO_1_5
 10
-4372.2026787126988
 20
1139.2924087739709
 30
0.0
 11
-4372.2026787126988
 21
1140.79388952454
 31
0.0
  0
LINE
  5
B6E
  8
COMPENSATO_1_5
 10
-4370.7026787126988
 20
1139.225742108234
 30
0.0
 11
-4370.7026787126988
 21
1140.7272228587999
 31
0.0
  0
INSERT
  5
B6F
  8
SERVI
  2
SERVO_PIANTA
 10
-4226.076526668975
 20
1108.806020774098
 30
0.0
 41
-1.0
 50
90.0
  0
LINE
  5
B70
  8
SERVI
 10
-4233.576526668975
 20
1108.806020774098
 30
0.0
 11
-4233.576526668975
 21
1039.970428158274
 31
0.0
  0
LINE
  5
B71
  8
TRIANG20X5
 10
-4310.7026787126997
 20
1034.4704281582731
 30
0.0
 11
-4252.2026787126979
 21
1034.4704281582731
 31
0.0
  0
LINE
  5
B72
  8
BALSA2MM
 10
-4252.2026787126979
 20
1049.470428158274
 30
0.0
 11
-4267.2026787126979
 21
1034.4704281582731
 31
0.0
  0
LINE
  5
B73
  8
BALSA2MM
 10
-4267.2026787126979
 20
1034.4704281582731
 30
0.0
 11
-4252.2026787126979
 21
1034.4704281582731
 31
0.0
  0
LINE
  5
B74
  8
BALSA2MM
 10
-4310.7026787126997
 20
1049.470428158274
 30
0.0
 11
-4295.7026787126988
 21
1034.4704281582731
 31
0.0
  0
LINE
  5
B75
  8
BALSA_1_5
 10
-4312.2026787126997
 20
1031.470428158274
 30
0.0
 11
-4310.7026787126997
 21
1031.470428158274
 31
0.0
  0
LINE
  5
B76
  8
BALSA2MM
 10
-4295.7026787126988
 20
1034.4704281582731
 30
0.0
 11
-4310.7026787126997
 21
1034.4704281582731
 31
0.0
  0
LINE
  5
B77
  8
BALSA2MM
 10
-4310.7026787126997
 20
1034.4704281582731
 30
0.0
 11
-4310.7026787126997
 21
1049.470428158274
 31
0.0
  0
LINE
  5
B78
  8
BALSA2MM
 10
-4312.2026787126997
 20
1034.4704281582731
 30
0.0
 11
-4312.2026787126997
 21
1049.470428158274
 31
0.0
  0
LINE
  5
B79
  8
TRIANG20X5
 10
-4310.7026787126997
 20
1034.4704281582731
 30
0.0
 11
-4310.7026787126997
 21
1031.470428158274
 31
0.0
  0
LINE
  5
B7A
  8
TRIANG20X5
 10
-4310.7026787126997
 20
1031.470428158274
 30
0.0
 11
-4312.2026787126997
 21
1031.470428158274
 31
0.0
  0
LINE
  5
B7B
  8
TRIANG20X5
 10
-4312.2026787126997
 20
1031.470428158274
 30
0.0
 11
-4312.2026787126997
 21
1034.4704281582731
 31
0.0
  0
LINE
  5
B7C
  8
BALSA_1_5
 10
-4312.2026787126997
 20
1059.470428158274
 30
0.0
 11
-4310.7026787126997
 21
1059.470428158274
 31
0.0
  0
LINE
  5
B7D
  8
SERVI
 10
-4238.576526668975
 20
1034.970428158274
 30
0.0
 11
-4238.576526668975
 21
1044.970428158274
 31
0.0
  0
LINE
  5
B7E
  8
SERVI
 10
-4238.576526668975
 20
1044.970428158274
 30
0.0
 11
-4228.576526668975
 21
1044.970428158274
 31
0.0
  0
LINE
  5
B7F
  8
SERVI
 10
-4228.576526668975
 20
1044.970428158274
 30
0.0
 11
-4228.576526668975
 21
1034.970428158274
 31
0.0
  0
LINE
  5
B80
  8
SERVI
 10
-4228.576526668975
 20
1034.970428158274
 30
0.0
 11
-4238.576526668975
 21
1034.970428158274
 31
0.0
  0
LINE
  5
B81
  8
BALSA_1_5
 10
-4252.2026787126979
 20
1031.470428158274
 30
0.0
 11
-4250.7026787126979
 21
1031.470428158274
 31
0.0
  0
LINE
  5
B82
  8
BALSA2MM
 10
-4252.2026787126979
 20
1034.4704281582731
 30
0.0
 11
-4252.2026787126979
 21
1049.470428158274
 31
0.0
  0
LINE
  5
B83
  8
TRIANG20X5
 10
-4252.2026787126979
 20
1034.4704281582731
 30
0.0
 11
-4252.2026787126979
 21
1031.470428158274
 31
0.0
  0
LINE
  5
B84
  8
TRIANG20X5
 10
-4252.2026787126979
 20
1031.470428158274
 30
0.0
 11
-4250.7026787126979
 21
1031.470428158274
 31
0.0
  0
LINE
  5
B85
  8
ALETTONE
 10
-4249.202678712697
 20
1014.470428158273
 30
0.0
 11
-4249.202678712697
 21
1047.970428158274
 31
0.0
  0
LINE
  5
B86
  8
TRIANG20X5
 10
-4250.7026787126979
 20
1031.470428158274
 30
0.0
 11
-4250.7026787126979
 21
1014.470428158273
 31
0.0
  0
LINE
  5
B87
  8
COMPENSATO_1_5
 10
-4310.7026787126997
 20
1138.0605562292119
 30
0.0
 11
-4252.2026787126979
 21
1135.460556265363
 31
0.0
  0
LINE
  5
B88
  8
COMPENSATO_1_5
 10
-4252.2026787126979
 20
1133.959075514797
 30
0.0
 11
-4310.7026787126997
 21
1136.559075478644
 31
0.0
  0
LINE
  5
B89
  8
COMPENSATO_1_5
 10
-4310.7026787126997
 20
1136.559075478644
 30
0.0
 11
-4310.7026787126997
 21
1138.0605562292119
 31
0.0
  0
LINE
  5
B8A
  8
COMPENSATO_1_5
 10
-4312.2026787126997
 20
1138.127222894951
 30
0.0
 11
-4312.2026787126997
 21
1136.625742144385
 31
0.0
  0
LINE
  5
B8B
  8
COMPENSATO_1_5
 10
-4250.7026787126979
 20
1135.403761270064
 30
0.0
 11
-4250.7026787126979
 21
1133.9022805194991
 31
0.0
  0
LINE
  5
B8C
  8
COMPENSATO_1_5
 10
-4252.2026787126979
 20
1135.460556265363
 30
0.0
 11
-4252.2026787126979
 21
1133.959075514797
 31
0.0
  0
TEXT
  5
B8D
  8
COPERTURA_1MM
 62
     3
 10
-4364.4608776121549
 20
1232.3338016140799
 30
0.0
 40
5.0
  1
Ricoprire con balsa sp.1mm
  0
POLYLINE
  5
B8E
  8
0
 66
     1
 10
0.0
 20
0.0
 30
0.0
 70
     8
  0
VERTEX
  5
B8F
  8
0
 10
-4401.8999999999996
 20
1173.2299999999991
 30
0.0
 70
    32
  0
VERTEX
  5
B90
  8
0
 10
-4367.630000000001
 20
1234.8299999999999
 30
0.0
 70
    32
  0
VERTEX
  5
B91
  8
0
 10
-4364.1300000000001
 20
1234.8299999999999
 30
0.0
 70
    32
  0
SEQEND
  5
B92
  8
0
  0
LINE
  5
B93
  8
BALSA_1_5
 10
-4372.2026787126988
 20
1196.448230572691
 30
0.0
 11
-4370.7026787126988
 21
1196.348230572692
 31
0.0
  0
LINE
  5
B94
  8
BALSA_1_5
 10
-4372.2026787126988
 20
1291.722804061885
 30
0.0
 11
-4370.7026787126988
 21
1291.822804061886
 31
0.0
  0
LINE
  5
B95
  8
BALSA_1_5
 10
-4312.2026787126997
 20
1192.448230572692
 30
0.0
 11
-4310.7026787126997
 21
1192.348230572692
 31
0.0
  0
LINE
  5
B96
  8
BALSA_1_5
 10
-4252.2026787126979
 20
1188.448230572691
 30
0.0
 11
-4250.7026787126979
 21
1188.348230572692
 31
0.0
  0
LINE
  5
B97
  8
BALSA_1_5
 10
-4312.2026787126997
 20
1295.7228040618861
 30
0.0
 11
-4310.7026787126997
 21
1295.822804061886
 31
0.0
  0
LINE
  5
B98
  8
BALSA_1_5
 10
-4252.2026787126979
 20
1299.7228040618861
 30
0.0
 11
-4250.7026787126979
 21
1299.822804061886
 31
0.0
  0
POLYLINE
  5
B99
  8
0
 66
     1
 10
0.0
 20
0.0
 30
0.0
 70
     8
  0
VERTEX
  5
B9A
  8
0
 10
-4143.0500000000002
 20
1034.2
 30
0.0
 70
    32
  0
VERTEX
  5
B9B
  8
0
 10
-4120.4499999999989
 20
993.54600000000005
 30
0.0
 70
    32
  0
VERTEX
  5
B9C
  8
0
 10
-4116.9499999999998
 20
993.54600000000005
 30
0.0
 70
    32
  0
SEQEND
  5
B9D
  8
0
  0
INSERT
  5
B9E
  8
COPERTURA_1MM
  2
*U9
 10
0.0
 20
0.0
 30
0.0
  0
TEXT
  5
B9F
  8
COPERTURA_1MM
 62
     3
 10
-3971.8965145424281
 20
760.15661356026158
 30
0.0
 40
2.96875
  1
www.geocities.com/Aeromodelli2000
  0
INSERT
  5
BA0
  8
COPERTURA_1MM
  2
*U10
 10
0.0
 20
0.0
 30
0.0
  0
INSERT
  5
BA1
  8
COPERTURA_1MM
  2
*U11
 10
0.0
 20
0.0
 30
0.0
  0
DIMENSION
  5
BA2
  8
SERVI
  2
*D17
 10
-3776.3320849003248
 20
906.02707649837214
 30
0.0
 11
-3776.3320849003248
 21
928.52707649837168
 31
0.0
 70
     0
 13
-3786.6030783273368
 23
951.02707649837237
 33
0.0
 14
-3786.6030783273368
 24
906.02707649837214
 34
0.0
 50
90.0
  0
LINE
  5
BB0
  8
ASSIEME
 10
-3786.6030783273368
 20
968.02707649837237
 30
0.0
 11
-3786.6030783273368
 21
951.02707649837237
 31
0.0
  0
LINE
  5
BB1
  8
COMPENSATO_1_5
 10
-3952.2026787127002
 20
1122.137094787862
 30
0.0
 11
-4010.7026787127002
 21
1124.737094751709
 31
0.0
  0
LINE
  5
BB2
  8
COMPENSATO_1_5
 10
-4010.7026787127002
 20
1123.235614001145
 30
0.0
 11
-3952.2026787127002
 21
1120.635614037295
 31
0.0
  0
TEXT
  5
BB3
  8
COPERTURA_1MM
 62
     3
 10
-4026.6337946395288
 20
1215.096807456991
 30
0.0
 40
5.0
  1
Terminale in balsa sagomata
  0
LINE
  5
BB4
  8
BALSA_1_5
 10
-4192.2026787126988
 20
1049.470428158274
 30
0.0
 11
-4192.2026787126988
 21
1184.448230572692
 31
0.0
  0
LINE
  5
BB5
  8
BALSA_1_5
 10
-4190.7026787126988
 20
1049.470428158274
 30
0.0
 11
-4190.7026787126988
 21
1184.348230572693
 31
0.0
  0
LINE
  5
BB6
  8
BALSA_1_5
 10
-4132.2026787126997
 20
1049.470428158274
 30
0.0
 11
-4132.2026787126997
 21
1180.448230572691
 31
0.0
  0
LINE
  5
BB7
  8
BALSA_1_5
 10
-4130.7026787126997
 20
1049.470428158274
 30
0.0
 11
-4130.7026787126997
 21
1180.348230572692
 31
0.0
  0
LINE
  5
BB8
  8
BALSA_1_5
 10
-4072.2026787127002
 20
1049.470428158274
 30
0.0
 11
-4072.2026787127002
 21
1176.448230572691
 31
0.0
  0
LINE
  5
BB9
  8
BALSA_1_5
 10
-4070.7026787127002
 20
1049.470428158274
 30
0.0
 11
-4070.7026787127002
 21
1176.348230572692
 31
0.0
  0
LINE
  5
BBA
  8
BALSA_1_5
 10
-4012.2026787126979
 20
1049.470428158274
 30
0.0
 11
-4012.2026787126979
 21
1172.448230572691
 31
0.0
  0
LINE
  5
BBB
  8
BALSA_1_5
 10
-4010.7026787126979
 20
1049.470428158274
 30
0.0
 11
-4010.7026787127002
 21
1172.34823057269
 31
0.0
  0
LINE
  5
BBC
  8
COMPENSATO_1_5
 10
-4130.7026787126997
 20
1128.568947260321
 30
0.0
 11
-4072.2026787127002
 21
1125.9689472964719
 31
0.0
  0
LINE
  5
BBD
  8
COMPENSATO_1_5
 10
-4072.2026787127002
 20
1127.470428047038
 30
0.0
 11
-4130.7026787126997
 21
1130.0704280108871
 31
0.0
  0
LINE
  5
BBE
  8
BALSA_1_5
 10
-4192.2026787126988
 20
1049.470428158274
 30
0.0
 11
-4190.7026787126988
 21
1049.470428158274
 31
0.0
  0
LINE
  5
BBF
  8
BALSA_1_5
 10
-4192.2026787126988
 20
1059.470428158274
 30
0.0
 11
-4190.7026787126988
 21
1059.470428158274
 31
0.0
  0
LINE
  5
BC0
  8
BALSA_1_5
 10
-4132.2026787126997
 20
1049.470428158274
 30
0.0
 11
-4130.7026787126997
 21
1049.470428158274
 31
0.0
  0
LINE
  5
BC1
  8
BALSA_1_5
 10
-4132.2026787126997
 20
1059.470428158274
 30
0.0
 11
-4130.7026787126997
 21
1059.470428158274
 31
0.0
  0
LINE
  5
BC2
  8
COMPENSATO_1_5
 10
-4190.7026787126988
 20
1131.2356138899099
 30
0.0
 11
-4132.2026787126997
 21
1128.6356139260599
 31
0.0
  0
LINE
  5
BC3
  8
COMPENSATO_1_5
 10
-4132.2026787126997
 20
1130.137094676626
 30
0.0
 11
-4190.7026787126988
 21
1132.737094640476
 31
0.0
  0
LINE
  5
BC4
  8
COMPENSATO_1_5
 10
-4190.7026787126988
 20
1132.737094640476
 30
0.0
 11
-4190.7026787126988
 21
1131.2356138899099
 31
0.0
  0
LINE
  5
BC5
  8
COMPENSATO_1_5
 10
-4192.2026787126988
 20
1131.30228055565
 30
0.0
 11
-4192.2026787126988
 21
1132.8037613062161
 31
0.0
  0
LINE
  5
BC6
  8
COMPENSATO_1_5
 10
-4130.7026787126997
 20
1130.0704280108871
 30
0.0
 11
-4130.7026787126997
 21
1128.568947260321
 31
0.0
  0
LINE
  5
BC7
  8
COMPENSATO_1_5
 10
-4132.2026787126997
 20
1128.6356139260599
 30
0.0
 11
-4132.2026787126997
 21
1130.137094676626
 31
0.0
  0
LINE
  5
BC8
  8
BALSA_1_5
 10
-4072.2026787127002
 20
1049.470428158274
 30
0.0
 11
-4070.7026787127002
 21
1049.470428158274
 31
0.0
  0
LINE
  5
BC9
  8
BALSA_1_5
 10
-4072.2026787127002
 20
1059.470428158274
 30
0.0
 11
-4070.7026787127002
 21
1059.470428158274
 31
0.0
  0
LINE
  5
BCA
  8
BALSA_1_5
 10
-4012.2026787126979
 20
1049.470428158274
 30
0.0
 11
-4010.7026787126979
 21
1049.470428158274
 31
0.0
  0
LINE
  5
BCB
  8
BALSA_1_5
 10
-4012.2026787126979
 20
1059.470428158274
 30
0.0
 11
-4010.7026787126979
 21
1059.470428158274
 31
0.0
  0
LINE
  5
BCC
  8
COMPENSATO_1_5
 10
-4070.7026787127002
 20
1125.902280630733
 30
0.0
 11
-4012.2026787126979
 21
1123.3022806668851
 31
0.0
  0
LINE
  5
BCD
  8
COMPENSATO_1_5
 10
-4012.2026787126979
 20
1124.8037614174491
 30
0.0
 11
-4070.7026787127002
 21
1127.4037613812991
 31
0.0
  0
LINE
  5
BCE
  8
COMPENSATO_1_5
 10
-4072.2026787127002
 20
1125.9689472964719
 30
0.0
 11
-4072.2026787127002
 21
1127.470428047038
 31
0.0
  0
LINE
  5
BCF
  8
COMPENSATO_1_5
 10
-4070.7026787127002
 20
1127.4037613812991
 30
0.0
 11
-4070.7026787127002
 21
1125.902280630733
 31
0.0
  0
LINE
  5
BD0
  8
COMPENSATO_1_5
 10
-4010.7026787127002
 20
1124.737094751709
 30
0.0
 11
-4010.7026787127002
 21
1123.235614001145
 31
0.0
  0
LINE
  5
BD1
  8
COMPENSATO_1_5
 10
-4012.2026787126979
 20
1123.3022806668851
 30
0.0
 11
-4012.2026787126979
 21
1124.8037614174491
 31
0.0
  0
LINE
  5
BD2
  8
BALSA_1_5
 10
-4190.7026787126988
 20
1184.348230572693
 30
0.0
 11
-4192.2026787126988
 21
1184.448230572692
 31
0.0
  0
LINE
  5
BD3
  8
BALSA_1_5
 10
-4132.2026787126997
 20
1180.448230572691
 30
0.0
 11
-4130.7026787126997
 21
1180.348230572692
 31
0.0
  0
LINE
  5
BD4
  8
BALSA_1_5
 10
-4190.7026787126988
 20
1303.8228040618851
 30
0.0
 11
-4192.2026787126988
 21
1303.7228040618861
 31
0.0
  0
LINE
  5
BD5
  8
BALSA_1_5
 10
-4132.2026787126997
 20
1307.7228040618861
 30
0.0
 11
-4130.7026787126997
 21
1307.822804061886
 31
0.0
  0
LINE
  5
BD6
  8
BALSA_1_5
 10
-4072.2026787127002
 20
1176.448230572691
 30
0.0
 11
-4070.7026787127002
 21
1176.348230572692
 31
0.0
  0
LINE
  5
BD7
  8
BALSA_1_5
 10
-4012.2026787126979
 20
1172.448230572691
 30
0.0
 11
-4010.7026787127002
 21
1172.34823057269
 31
0.0
  0
POLYLINE
  5
BD8
  8
0
 66
     1
 10
0.0
 20
0.0
 30
0.0
 70
     8
  0
VERTEX
  5
BD9
  8
0
 10
-3877.5700000000002
 20
1147.829999999999
 30
0.0
 70
    32
  0
VERTEX
  5
BDA
  8
0
 10
-3910.369999999999
 20
1215.9300000000001
 30
0.0
 70
    32
  0
VERTEX
  5
BDB
  8
0
 10
-3913.8699999999999
 20
1215.9300000000001
 30
0.0
 70
    32
  0
SEQEND
  5
BDC
  8
0
  0
LINE
  5
BDD
  8
BALSA_1_5
 10
-3762.754252381701
 20
1159.186987451091
 30
0.0
 11
-3762.754252381701
 21
1164.186987451091
 31
0.0
  0
LINE
  5
BDE
  8
BALSA_1_5
 10
-3794.049926381701
 20
1160.63973145109
 30
0.0
 11
-3800.591526381701
 21
1159.19205145109
 31
0.0
  0
LINE
  5
BDF
  8
BALSA_1_5
 10
-3950.7026787126979
 20
1049.470428158274
 30
0.0
 11
-3950.7026787126979
 21
1168.370428158272
 31
0.0
  0
LINE
  5
BE0
  8
BALSA_1_5
 10
-3952.2026787127002
 20
1049.470428158274
 30
0.0
 11
-3952.2026787127002
 21
1168.448230572691
 31
0.0
  0
LINE
  5
BE1
  8
BALSA_1_5
 10
-3892.2026787126979
 20
1174.470428158274
 30
0.0
 11
-3892.2026787126979
 21
1049.470428158274
 31
0.0
  0
POLYLINE
  5
BE2
  8
BALSA_3
 66
     1
 10
0.0
 20
0.0
 30
0.0
1001
ACAD
1000
ASC_BOUNDS
1002
{
1070
    19
1005
230
1002
}
  0
VERTEX
  5
10A0
  8
BALSA_3
 10
-3892.2026787126979
 20
1174.470428158274
 30
0.0
  0
VERTEX
  5
10A1
  8
BALSA_3
 10
-3872.2026787126979
 20
1164.470428158274
 30
0.0
  0
VERTEX
  5
10A2
  8
BALSA_3
 10
-3862.2026787127002
 20
1134.470428158274
 30
0.0
  0
VERTEX
  5
10A3
  8
BALSA_3
 10
-3862.2026787127002
 20
1094.470428158274
 30
0.0
  0
VERTEX
  5
10A4
  8
BALSA_3
 10
-3882.2026787127002
 20
1014.470428158273
 30
0.0
  0
SEQEND
  5
10A5
  8
BALSA_3
  0
LINE
  5
BE9
  8
BALSA_3
 10
-3892.2026787126979
 20
1174.470428158274
 30
0.0
 11
-3892.2026787126979
 21
1049.470428158274
 31
0.0
1001
ACAD
1000
ASC_BOUNDS
1002
{
1070
    19
1005
230
1002
}
  0
LINE
  5
BEA
  8
BALSA_1_5
 10
-3893.7026787127002
 20
1164.548230572691
 30
0.0
 11
-3893.7026787126979
 21
1049.470428158274
 31
0.0
  0
INSERT
  5
BEB
  8
BALSA_BLOCK
  6
CONTINUOUS
  2
*X12
 10
0.0
 20
0.0
 30
0.0
1001
ACAD
1000
HATCH
1002
{
1070
    19
1000
ANSI31
1040
20.0
1040
0.0
1000
ASC_BOUNDS
1070
     1
1070
     1
1070
     4
1005
237
1005
239
1005
22E
1005
22D
1000
ASC_SEEDPOINT
1011
-3879.7473736275952
1021
0.0
1031
0.0
1021
1107.8892426463401
1031
0.0
1000
R14_HATCH_DATA
1000
230
1011
1.0
1021
0.0
1031
0.0
1021
0.0
1031
0.0
1011
0.0
1021
0.0
1031
0.0
1021
1.0
1031
0.0
1011
0.0
1021
0.0
1031
0.0
1021
0.0
1031
1.0
1040
0.0
1010
0.0
1020
0.0
1030
1.0
1000
ANSI31
1070
     0
1070
     1
1071
        1
1071
        7
1070
     0
1070
     1
1071
        7
1040
-3892.2026787126979
1040
1049.470428158274
1040
-3892.2026787126979
1040
1014.470428158275
1040
-3882.2026787127002
1040
1014.470428158273
1040
-3862.2026787127002
1040
1094.470428158274
1040
-3862.2026787127002
1040
1134.470428158274
1040
-3872.2026787126979
1040
1164.470428158274
1040
-3892.2026787126979
1040
1174.470428158274
1071
        4
1005
22D
1005
22E
1005
239
1005
237
1070
     0
1070
     1
1040
0.0
1040
20.0
1070
     0
1070
     1
1040
0.7853981633974483
1040
0.0
1040
-2290.506810382356
1040
-1.767766952966368
1040
1.767766952966368
1070
     0
1040
0.964423900501078
1071
        1
1040
-3879.7473736275952
1040
1107.8892426463401
1040
0.0
1002
}
  0
LINE
  5
BEC
  8
BALSA_1_5
 10
-3952.2026787127002
 20
1049.470428158274
 30
0.0
 11
-3950.7026787126979
 21
1049.470428158274
 31
0.0
  0
LINE
  5
BED
  8
BALSA_3
 10
-3893.7026787126979
 20
1031.470428158274
 30
0.0
 11
-3892.2026787126979
 21
1031.470428158274
 31
0.0
  0
LINE
  5
BEE
  8
BALSA_1_5
 10
-3893.7026787126979
 20
1049.470428158274
 30
0.0
 11
-3892.2026787126979
 21
1049.470428158274
 31
0.0
  0
LINE
  5
BEF
  8
BALSA_3
 10
-3893.7026787126979
 20
1049.470428158274
 30
0.0
 11
-3892.2026787126979
 21
1049.470428158274
 31
0.0
  0
LINE
  5
BF0
  8
BALSA_1_5
 10
-3893.7026787126979
 20
1059.470428158274
 30
0.0
 11
-3892.2026787126979
 21
1059.470428158274
 31
0.0
  0
LINE
  5
BF1
  8
BALSA_3
 10
-3892.2026787126979
 20
1014.470428158273
 30
0.0
 11
-3893.7026787126979
 21
1014.470428158273
 31
0.0
  0
LINE
  5
BF2
  8
BALSA_3
 10
-3882.2026787127002
 20
1014.470428158273
 30
0.0
 11
-3892.2026787126979
 21
1014.470428158273
 31
0.0
1001
ACAD
1000
ASC_BOUNDS
1002
{
1070
    19
1005
230
1002
}
  0
LINE
  5
BF3
  8
BALSA_3
 10
-3893.7026787126979
 20
1014.470428158273
 30
0.0
 11
-3893.7026787126979
 21
1049.470428158274
 31
0.0
  0
LINE
  5
BF4
  8
BALSA_3
 10
-3892.2026787126979
 20
1049.470428158274
 30
0.0
 11
-3892.2026787126979
 21
1014.470428158273
 31
0.0
1001
ACAD
1000
ASC_BOUNDS
1002
{
1070
    19
1005
230
1002
}
  0
LINE
  5
BF5
  8
ALETTONE
 10
-3895.2026787126979
 20
1014.470428158273
 30
0.0
 11
-3895.2026787126979
 21
1047.970428158274
 31
0.0
  0
LINE
  5
BF6
  8
COMPENSATO_1_5
 10
-3950.7026787126979
 20
1120.568947371554
 30
0.0
 11
-3893.7026787127002
 21
1118.0356140734471
 31
0.0
  0
LINE
  5
BF7
  8
COMPENSATO_1_5
 10
-3893.7026787127002
 20
1119.537094824014
 30
0.0
 11
-3950.7026787126979
 21
1122.0704281221219
 31
0.0
  0
LINE
  5
BF8
  8
COMPENSATO_1_5
 10
-3950.7026787126979
 20
1122.0704281221219
 30
0.0
 11
-3950.7026787126979
 21
1120.568947371554
 31
0.0
  0
LINE
  5
BF9
  8
COMPENSATO_1_5
 10
-3952.2026787127002
 20
1120.635614037295
 30
0.0
 11
-3952.2026787127002
 21
1122.137094787862
 31
0.0
  0
LINE
  5
BFA
  8
COMPENSATO_1_5
 10
-3893.7026787127002
 20
1118.0356140734471
 30
0.0
 11
-3893.7026787127002
 21
1119.537094824014
 31
0.0
  0
LINE
  5
BFB
  8
TIGLIO10X5
 10
-3892.2026787126979
 20
1129.470428158274
 30
0.0
 11
-3892.2026787126979
 21
1119.460556487832
 31
0.0
  0
LINE
  5
BFC
  8
BALSA_3
 10
-3814.625096381702
 20
1088.1957844831461
 30
0.0
 11
-3814.625096381702
 21
1080.5377864831451
 31
0.0
  0
LINE
  5
BFD
  8
BALSA_3
 10
-3809.2821973817022
 20
1090.073852483144
 30
0.0
 11
-3809.2821973817022
 21
1079.441472483144
 31
0.0
  0
LINE
  5
BFE
  8
BALSA_3
 10
-3814.625096381702
 20
1087.195784483145
 30
0.0
 11
-3814.625096381702
 21
1079.5377864831451
 31
0.0
  0
LINE
  5
BFF
  8
BALSA_3
 10
-3809.2821973817022
 20
1090.073852483144
 30
0.0
 11
-3809.2821973817022
 21
1079.441472483144
 31
0.0
  0
LINE
  5
C00
  8
BALSA_3
 10
-3816.6058373817009
 20
1086.7504234831431
 30
0.0
 11
-3818.258117381702
 21
1084.9751934831461
 31
0.0
  0
LINE
  5
C01
  8
BALSA_3
 10
-3818.4695063817021
 20
1081.231459483146
 30
0.0
 11
-3816.674862381702
 21
1080.1917734831441
 31
0.0
  0
LINE
  5
C02
  8
BALSA_3
 10
-3818.258117381702
 20
1084.9751934831461
 30
0.0
 11
-3818.967778381701
 21
1083.4415494831451
 31
0.0
  0
LINE
  5
C03
  8
BALSA_3
 10
-3818.967778381701
 20
1082.441549483146
 30
0.0
 11
-3818.4695063817021
 21
1081.231459483146
 31
0.0
  0
LINE
  5
C04
  8
BALSA_3
 10
-3818.967778381701
 20
1083.4415494831451
 30
0.0
 11
-3818.967778381701
 21
1082.441549483146
 31
0.0
  0
LINE
  5
C05
  8
BALSA_3
 10
-3810.7754523817021
 20
1044.898071977974
 30
0.0
 11
-3806.6570523817022
 21
1044.114871977974
 31
0.0
  0
LINE
  5
C06
  8
BALSA_3
 10
-3801.4254523817008
 20
1044.5054719779721
 30
0.0
 11
-3795.1224523817009
 21
1044.067671977974
 31
0.0
  0
LINE
  5
C07
  8
BALSA_3
 10
-3795.1224523817009
 20
1044.067671977974
 30
0.0
 11
-3787.7964523817018
 21
1043.790471977974
 31
0.0
  0
LINE
  5
C08
  8
BALSA_3
 10
-3795.1224523817009
 20
1043.067671977974
 30
0.0
 11
-3787.7964523817018
 21
1042.7904719779731
 31
0.0
  0
LINE
  5
C09
  8
BALSA_3
 10
-3787.7964523817018
 20
1043.790471977974
 30
0.0
 11
-3779.5178523817021
 21
1043.662871977974
 31
0.0
  0
LINE
  5
C0A
  8
BALSA_3
 10
-3779.5178523817021
 20
1043.662871977974
 30
0.0
 11
-3770.3746523816999
 21
1043.665071977972
 31
0.0
  0
LINE
  5
C0B
  8
BALSA_3
 10
-3787.7964523817018
 20
1042.7904719779731
 30
0.0
 11
-3779.5178523817021
 21
1042.662871977974
 31
0.0
  0
LINE
  5
C0C
  8
BALSA_3
 10
-3779.5178523817021
 20
1042.662871977974
 30
0.0
 11
-3770.3746523816999
 21
1042.665071977973
 31
0.0
  0
LINE
  5
C0D
  8
BALSA_3
 10
-3806.6570523817022
 20
1044.114871977974
 30
0.0
 11
-3801.4254523817008
 21
1043.505471977973
 31
0.0
  0
LINE
  5
C0E
  8
BALSA_3
 10
-3801.4254523817008
 20
1043.505471977973
 30
0.0
 11
-3795.1224523817009
 21
1043.067671977974
 31
0.0
  0
LINE
  5
C0F
  8
BALSA_3
 10
-3798.4070283817009
 20
1078.4652954831431
 30
0.0
 11
-3791.2241393817021
 21
1078.193510483145
 31
0.0
  0
LINE
  5
C10
  8
BALSA_3
 10
-3798.4070283817009
 20
1077.465295483144
 30
0.0
 11
-3791.2241393817021
 21
1077.1935104831459
 31
0.0
  0
LINE
  5
C11
  8
BALSA_3
 10
-3791.5518523817018
 20
1061.806271977973
 30
0.0
 11
-3797.705252381701
 21
1060.110071977974
 31
0.0
  0
LINE
  5
C12
  8
BALSA_3
 10
-3791.5518523817018
 20
1060.8062719779721
 30
0.0
 11
-3797.705252381701
 21
1059.110071977974
 31
0.0
  0
LINE
  5
C13
  8
BALSA_3
 10
-3784.632852381701
 20
1063.337471977974
 30
0.0
 11
-3791.5518523817018
 21
1061.806271977973
 31
0.0
  0
LINE
  5
C14
  8
BALSA_3
 10
-3777.016452381702
 20
1064.666271977974
 30
0.0
 11
-3784.632852381701
 21
1063.337471977974
 31
0.0
  0
LINE
  5
C15
  8
BALSA_3
 10
-3768.779652381701
 20
1065.755271977974
 30
0.0
 11
-3777.016452381702
 21
1064.666271977974
 31
0.0
  0
LINE
  5
C16
  8
BALSA_3
 10
-3784.632852381701
 20
1062.337471977974
 30
0.0
 11
-3791.5518523817018
 21
1060.8062719779721
 31
0.0
  0
LINE
  5
C17
  8
BALSA_3
 10
-3768.779652381701
 20
1064.755271977974
 30
0.0
 11
-3777.016452381702
 21
1063.666271977974
 31
0.0
  0
LINE
  5
C18
  8
BALSA_3
 10
-3777.016452381702
 20
1063.666271977974
 30
0.0
 11
-3784.632852381701
 21
1062.337471977974
 31
0.0
  0
LINE
  5
C19
  8
BALSA_3
 10
-3791.2241393817021
 20
1078.193510483145
 30
0.0
 11
-3783.1072583817022
 21
1078.0684034831461
 31
0.0
  0
LINE
  5
C1A
  8
BALSA_3
 10
-3783.1072583817022
 20
1078.0684034831461
 30
0.0
 11
-3774.1426673817009
 21
1078.070560483146
 31
0.0
  0
LINE
  5
C1B
  8
BALSA_3
 10
-3783.1072583817022
 20
1077.0684034831461
 30
0.0
 11
-3774.1426673817009
 21
1077.070560483146
 31
0.0
  0
LINE
  5
C1C
  8
BALSA_3
 10
-3791.2241393817021
 20
1077.1935104831459
 30
0.0
 11
-3783.1072583817022
 21
1077.0684034831461
 31
0.0
  0
LINE
  5
C1D
  8
BALSA_3
 10
-3774.1426673817009
 20
1078.070560483146
 30
0.0
 11
-3764.420961381702
 21
1078.1805684831461
 31
0.0
  0
LINE
  5
C1E
  8
BALSA_3
 10
-3774.1426673817009
 20
1077.070560483146
 30
0.0
 11
-3764.420961381702
 21
1077.1805684831461
 31
0.0
  0
LINE
  5
C1F
  8
BALSA_3
 10
-3816.0508893817009
 20
1048.041162977974
 30
0.0
 11
-3816.0508893817009
 21
1049.2337579779739
 31
0.0
  0
LINE
  5
C20
  8
BALSA_3
 10
-3805.9842223817018
 20
1045.036497977974
 30
0.0
 11
-3805.9842223817018
 21
1056.025799977974
 31
0.0
  0
LINE
  5
C21
  8
BALSA_3
 10
-3811.0508893817018
 20
1045.985951977972
 30
0.0
 11
-3810.7754523817021
 21
1045.898071977974
 31
0.0
  0
LINE
  5
C22
  8
BALSA_3
 10
-3810.7754523817021
 20
1045.898071977974
 30
0.0
 11
-3806.6570523817022
 21
1045.1148719779731
 31
0.0
  0
LINE
  5
C23
  8
BALSA_3
 10
-3806.6570523817022
 20
1045.1148719779731
 30
0.0
 11
-3801.4254523817008
 21
1044.5054719779721
 31
0.0
  0
LINE
  5
C24
  8
BALSA_3
 10
-3807.4974523817009
 20
1056.378871977972
 30
0.0
 11
-3811.054852381701
 21
1054.436271977974
 31
0.0
  0
LINE
  5
C25
  8
BALSA_3
 10
-3803.0358523817022
 20
1058.286271977973
 30
0.0
 11
-3807.4974523817009
 21
1056.378871977972
 31
0.0
  0
LINE
  5
C26
  8
BALSA_3
 10
-3815.3690523817022
 20
1050.707271977974
 30
0.0
 11
-3816.092852381702
 21
1049.143071977973
 31
0.0
  0
LINE
  5
C27
  8
BALSA_3
 10
-3813.6838523817019
 20
1052.5178719779731
 30
0.0
 11
-3815.3690523817022
 21
1050.707271977974
 31
0.0
  0
LINE
  5
C28
  8
BALSA_3
 10
-3811.054852381701
 20
1054.436271977974
 30
0.0
 11
-3813.6838523817019
 21
1052.5178719779731
 31
0.0
  0
LINE
  5
C29
  8
BALSA_3
 10
-3811.0508893817018
 20
1045.985951977972
 30
0.0
 11
-3811.0508893817018
 21
1054.4384359779731
 31
0.0
  0
LINE
  5
C2A
  8
BALSA_3
 10
-3807.4974523817009
 20
1055.378871977972
 30
0.0
 11
-3811.054852381701
 21
1053.4362719779731
 31
0.0
  0
LINE
  5
C2B
  8
BALSA_3
 10
-3805.9842223817018
 20
1045.036497977974
 30
0.0
 11
-3805.9842223817018
 21
1056.025799977974
 31
0.0
  0
LINE
  5
C2C
  8
BALSA_3
 10
-3803.0358523817022
 20
1057.2862719779721
 30
0.0
 11
-3807.4974523817009
 21
1055.378871977972
 31
0.0
  0
LINE
  5
C2D
  8
BALSA_3
 10
-3811.0508893817018
 20
1044.9859519779741
 30
0.0
 11
-3811.0508893817018
 21
1053.438435977974
 31
0.0
  0
LINE
  5
C2E
  8
BALSA_3
 10
-3815.5846523817008
 20
1046.908871977972
 30
0.0
 11
-3813.7542523817019
 21
1045.848471977974
 31
0.0
  0
LINE
  5
C2F
  8
BALSA_3
 10
-3813.7542523817019
 20
1045.848471977974
 30
0.0
 11
-3810.7754523817021
 21
1044.898071977974
 31
0.0
  0
LINE
  5
C30
  8
BALSA_3
 10
-3816.092852381702
 20
1048.1430719779739
 30
0.0
 11
-3815.5846523817008
 21
1046.908871977972
 31
0.0
  0
LINE
  5
C31
  8
BALSA_3
 10
-3797.705252381701
 20
1060.110071977974
 30
0.0
 11
-3803.0358523817022
 21
1058.286271977973
 31
0.0
  0
LINE
  5
C32
  8
BALSA_3
 10
-3797.705252381701
 20
1059.110071977974
 30
0.0
 11
-3803.0358523817022
 21
1057.2862719779721
 31
0.0
  0
LINE
  5
C33
  8
BALSA_3
 10
-3814.625096381702
 20
1080.5377864831451
 30
0.0
 11
-3813.7542523817019
 21
1080.2599394831459
 31
0.0
  0
LINE
  5
C34
  8
BALSA_3
 10
-3813.7542523817019
 20
1080.2599394831459
 30
0.0
 11
-3809.716303381701
 21
1079.4920394831461
 31
0.0
  0
LINE
  5
C35
  8
BALSA_3
 10
-3809.716303381701
 20
1079.4920394831461
 30
0.0
 11
-3804.5869013817019
 21
1078.8945434831451
 31
0.0
  0
LINE
  5
C36
  8
BALSA_3
 10
-3816.674862381702
 20
1080.1917734831441
 30
0.0
 11
-3814.625096381702
 21
1079.5377864831451
 31
0.0
  0
LINE
  5
C37
  8
BALSA_3
 10
-3809.716303381701
 20
1078.4920394831461
 30
0.0
 11
-3804.5869013817019
 21
1077.8945434831451
 31
0.0
  0
LINE
  5
C38
  8
BALSA_3
 10
-3813.7542523817019
 20
1079.259939483145
 30
0.0
 11
-3809.716303381701
 21
1078.4920394831461
 31
0.0
  0
LINE
  5
C39
  8
BALSA_3
 10
-3813.7542523817019
 20
1079.259939483145
 30
0.0
 11
-3814.625096381702
 21
1079.5377864831451
 31
0.0
  0
LINE
  5
C3A
  8
BALSA_3
 10
-3804.5869013817019
 20
1078.8945434831451
 30
0.0
 11
-3798.4070283817009
 21
1078.4652954831431
 31
0.0
  0
LINE
  5
C3B
  8
BALSA_3
 10
-3804.5869013817019
 20
1077.8945434831451
 30
0.0
 11
-3798.4070283817009
 21
1077.465295483144
 31
0.0
  0
LINE
  5
C3C
  8
BALSA_1_5
 10
-3797.0409663816999
 20
1143.1589314510891
 30
0.0
 11
-3789.2139263817021
 21
1143.038291451091
 31
0.0
  0
LINE
  5
C3D
  8
BALSA_3
 10
-3796.4868123817032
 20
1113.0998174671181
 30
0.0
 11
-3788.509252381702
 21
1112.9768574671191
 31
0.0
  0
LINE
  5
C3E
  8
BALSA_3
 10
-3786.098812381701
 20
1132.2164974671191
 30
0.0
 11
-3793.4382523817021
 21
1130.9360174671181
 31
0.0
  0
LINE
  5
C3F
  8
BALSA_3
 10
-3779.6985323817021
 20
1112.978977467119
 30
0.0
 11
-3770.1436923817018
 21
1113.0870974671179
 31
0.0
  0
LINE
  5
C40
  8
BALSA_3
 10
-3769.7069723817008
 20
1134.0375774671179
 30
0.0
 11
-3778.1615323817018
 21
1133.265897467119
 31
0.0
  0
LINE
  5
C41
  8
BALSA_3
 10
-3788.509252381702
 20
1112.9768574671191
 30
0.0
 11
-3779.6985323817021
 21
1112.978977467119
 31
0.0
  0
LINE
  5
C42
  8
BALSA_3
 10
-3778.1615323817018
 20
1133.265897467119
 30
0.0
 11
-3786.098812381701
 21
1132.2164974671191
 31
0.0
  0
LINE
  5
C43
  8
BALSA_1_5
 10
-3780.5694463817022
 20
1143.040371451091
 30
0.0
 11
-3771.1948863817029
 21
1143.146451451091
 31
0.0
  0
LINE
  5
C44
  8
BALSA_1_5
 10
-3771.1948863817029
 20
1143.146451451091
 30
0.0
 11
-3762.754252381701
 21
1143.307994451091
 31
0.0
  0
LINE
  5
C45
  8
BALSA_1_5
 10
-3762.754252381701
 20
1148.5450194510911
 30
0.0
 11
-3762.754252381701
 21
1143.307994451091
 31
0.0
  0
LINE
  5
C46
  8
BALSA_1_5
 10
-3789.2139263817021
 20
1143.038291451091
 30
0.0
 11
-3780.5694463817022
 21
1143.040371451091
 31
0.0
  0
LINE
  5
C47
  8
BALSA_3
 10
-3813.7542523817019
 20
1114.270368467118
 30
0.0
 11
-3813.7542523817019
 21
1124.9645684671191
 31
0.0
  0
LINE
  5
C48
  8
BALSA_3
 10
-3803.5464123817019
 20
1113.3669374671181
 30
0.0
 11
-3796.4868123817032
 21
1113.0998174671181
 31
0.0
  0
LINE
  5
C49
  8
BALSA_3
 10
-3809.620212381702
 20
1113.788817467118
 30
0.0
 11
-3803.5464123817019
 21
1113.3669374671181
 31
0.0
  0
LINE
  5
C4A
  8
BALSA_3
 10
-3800.105652381701
 20
1129.4604974671181
 30
0.0
 11
-3806.0352923817022
 21
1127.825977467118
 31
0.0
  0
LINE
  5
C4B
  8
BALSA_3
 10
-3806.0352923817022
 20
1127.825977467118
 30
0.0
 11
-3811.1720523817021
 21
1126.068497467118
 31
0.0
  0
LINE
  5
C4C
  8
BALSA_3
 10
-3793.4382523817021
 20
1130.9360174671181
 30
0.0
 11
-3800.105652381701
 21
1129.4604974671181
 31
0.0
  0
LINE
  5
C4D
  8
BALSA_3
 10
-3813.7542523817019
 20
1114.270368467118
 30
0.0
 11
-3809.620212381702
 21
1113.788817467118
 31
0.0
  0
LINE
  5
C4E
  8
BALSA_3
 10
-3811.1720523817021
 20
1126.068497467118
 30
0.0
 11
-3813.7542523817019
 21
1124.9645684671191
 31
0.0
  0
LINE
  5
C4F
  8
BALSA_1_5
 10
-3813.7542523817019
 20
1144.2807974510911
 30
0.0
 11
-3813.7542523817019
 21
1154.87857545109
 31
0.0
  0
LINE
  5
C50
  8
BALSA_1_5
 10
-3813.7542523817019
 20
1144.2807974510911
 30
0.0
 11
-3809.9265663817018
 21
1143.8349314510911
 31
0.0
  0
LINE
  5
C51
  8
BALSA_1_5
 10
-3803.9673663817011
 20
1143.4210114510911
 30
0.0
 11
-3797.0409663816999
 21
1143.1589314510891
 31
0.0
  0
LINE
  5
C52
  8
BALSA_1_5
 10
-3809.9265663817018
 20
1143.8349314510911
 30
0.0
 11
-3803.9673663817011
 21
1143.4210114510911
 31
0.0
  0
LINE
  5
C53
  8
BALSA_1_5
 10
-3800.591526381701
 20
1159.19205145109
 30
0.0
 11
-3806.4092863817
 21
1157.588371451091
 31
0.0
  0
LINE
  5
C54
  8
BALSA_1_5
 10
-3811.4491263817008
 20
1155.864051451091
 30
0.0
 11
-3813.7542523817019
 21
1154.87857545109
 31
0.0
  0
LINE
  5
C55
  8
BALSA_1_5
 10
-3806.4092863817
 20
1157.588371451091
 30
0.0
 11
-3811.4491263817008
 21
1155.864051451091
 31
0.0
  0
LINE
  5
C56
  8
BALSA_3
 10
-3788.1223383817019
 20
1097.358666483146
 30
0.0
 11
-3794.906178381701
 21
1095.857378483146
 31
0.0
  0
LINE
  5
C57
  8
BALSA_3
 10
-3788.1223383817019
 20
1096.358666483146
 30
0.0
 11
-3794.906178381701
 21
1094.857378483146
 31
0.0
  0
LINE
  5
C58
  8
BALSA_3
 10
-3763.9766153817018
 20
1100.514392483145
 30
0.0
 11
-3772.5788253817018
 21
1099.7292354831461
 31
0.0
  0
LINE
  5
C59
  8
BALSA_3
 10
-3780.6547223817029
 20
1098.6615094831459
 30
0.0
 11
-3788.1223383817019
 21
1097.358666483146
 31
0.0
  0
LINE
  5
C5A
  8
BALSA_3
 10
-3780.6547223817029
 20
1097.661509483145
 30
0.0
 11
-3788.1223383817019
 21
1096.358666483146
 31
0.0
  0
LINE
  5
C5B
  8
BALSA_3
 10
-3772.5788253817018
 20
1098.7292354831461
 30
0.0
 11
-3780.6547223817029
 21
1097.661509483145
 31
0.0
  0
LINE
  5
C5C
  8
BALSA_3
 10
-3772.5788253817018
 20
1099.7292354831461
 30
0.0
 11
-3780.6547223817029
 21
1098.6615094831459
 31
0.0
  0
LINE
  5
C5D
  8
BALSA_3
 10
-3763.9766153817018
 20
1099.5143924831459
 30
0.0
 11
-3772.5788253817018
 21
1098.7292354831461
 31
0.0
  0
LINE
  5
C5E
  8
BALSA_3
 10
-3810.5402863817012
 20
1090.536000483145
 30
0.0
 11
-3814.0281943817022
 21
1088.6313484831451
 31
0.0
  0
LINE
  5
C5F
  8
BALSA_3
 10
-3806.1658423817021
 20
1092.406140483145
 30
0.0
 11
-3810.5402863817012
 21
1090.536000483145
 31
0.0
  0
LINE
  5
C60
  8
BALSA_3
 10
-3814.0281943817022
 20
1088.6313484831451
 30
0.0
 11
-3816.6058373817009
 21
1086.7504234831431
 31
0.0
  0
LINE
  5
C61
  8
BALSA_3
 10
-3814.0281943817022
 20
1087.6313484831451
 30
0.0
 11
-3814.625096381702
 21
1087.195784483145
 31
0.0
  0
LINE
  5
C62
  8
BALSA_3
 10
-3806.1658423817021
 20
1091.406140483145
 30
0.0
 11
-3810.5402863817012
 21
1089.5360004831459
 31
0.0
  0
LINE
  5
C63
  8
BALSA_3
 10
-3810.5402863817012
 20
1089.5360004831459
 30
0.0
 11
-3814.0281943817022
 21
1087.6313484831451
 31
0.0
  0
LINE
  5
C64
  8
BALSA_3
 10
-3794.906178381701
 20
1095.857378483146
 30
0.0
 11
-3800.9393743817018
 21
1094.194312483145
 31
0.0
  0
LINE
  5
C65
  8
BALSA_3
 10
-3794.906178381701
 20
1094.857378483146
 30
0.0
 11
-3800.9393743817018
 21
1093.1943124831459
 31
0.0
  0
LINE
  5
C66
  8
BALSA_3
 10
-3800.9393743817018
 20
1094.194312483145
 30
0.0
 11
-3806.1658423817021
 21
1092.406140483145
 31
0.0
  0
LINE
  5
C67
  8
BALSA_3
 10
-3800.9393743817018
 20
1093.1943124831459
 30
0.0
 11
-3806.1658423817021
 21
1091.406140483145
 31
0.0
  0
LINE
  5
C68
  8
BALSA_1_5
 10
-3952.2026787127002
 20
1168.448230572691
 30
0.0
 11
-3950.7026787126979
 21
1168.348230572692
 31
0.0
  0
LINE
  5
C69
  8
BALSA5X5
 10
-3892.2026787127002
 20
1164.448230572691
 30
0.0
 11
-3892.2026787126979
 21
1174.470428158274
 31
0.0
  0
LINE
  5
C6A
  8
BALSA_1_5
 10
-3893.7026787127002
 20
1164.548230572691
 30
0.0
 11
-3892.2026787127002
 21
1164.448230572691
 31
0.0
  0
LINE
  5
C6B
  8
BALSA_1_5
 10
-3813.7542523817019
 20
1229.619389068994
 30
0.0
 11
-3813.7542523817019
 21
1239.841573068994
 31
0.0
  0
LINE
  5
C6C
  8
BALSA_1_5
 10
-3798.544732381702
 20
1228.625094068994
 30
0.0
 11
-3791.169252381701
 21
1228.5114140689941
 31
0.0
  0
LINE
  5
C6D
  8
BALSA_1_5
 10
-3788.2684003817012
 20
1219.0504356504271
 30
0.0
 11
-3795.1924003817021
 21
1217.8424356504279
 31
0.0
  0
LINE
  5
C6E
  8
BALSA_1_5
 10
-3798.0684003817009
 20
1201.0724356504279
 30
0.0
 11
-3790.5424003817011
 21
1200.9564356504279
 31
0.0
  0
LINE
  5
C6F
  8
BALSA_1_5
 10
-3787.5586833817019
 20
1190.5735048696581
 30
0.0
 11
-3794.621163381702
 21
1189.3413448696581
 31
0.0
  0
LINE
  5
C70
  8
BALSA_1_5
 10
-3779.920923381701
 20
1191.5833048696579
 30
0.0
 11
-3787.5586833817019
 21
1190.5735048696581
 31
0.0
  0
LINE
  5
C71
  8
BALSA_1_5
 10
-3764.087585381702
 20
1192.7049868696579
 30
0.0
 11
-3771.7854033817021
 21
1192.3258648696581
 31
0.0
  0
LINE
  5
C72
  8
BALSA_1_5
 10
-3771.7854033817021
 20
1192.3258648696581
 30
0.0
 11
-3779.920923381701
 21
1191.5833048696579
 31
0.0
  0
LINE
  5
C73
  8
BALSA_1_5
 10
-3764.087585381702
 20
1187.8194528696581
 30
0.0
 11
-3764.087585381702
 21
1192.8194528696581
 31
0.0
  0
LINE
  5
C74
  8
BALSA_1_5
 10
-3765.4209193817019
 20
1221.1320756504281
 30
0.0
 11
-3772.8044003817022
 21
1220.768435650428
 31
0.0
  0
LINE
  5
C75
  8
BALSA_1_5
 10
-3780.7804003817018
 20
1220.0404356504271
 30
0.0
 11
-3788.2684003817012
 21
1219.0504356504271
 31
0.0
  0
LINE
  5
C76
  8
BALSA_1_5
 10
-3772.8044003817022
 20
1220.768435650428
 30
0.0
 11
-3780.7804003817018
 21
1220.0404356504271
 31
0.0
  0
LINE
  5
C77
  8
BALSA_1_5
 10
-3765.4209193817019
 20
1216.251396650428
 30
0.0
 11
-3765.4209193817019
 21
1221.1320756504281
 31
0.0
  0
LINE
  5
C78
  8
BALSA_1_5
 10
-3782.2304003817021
 20
1200.958435650427
 30
0.0
 11
-3773.216400381702
 21
1201.0604356504271
 31
0.0
  0
LINE
  5
C79
  8
BALSA_1_5
 10
-3773.216400381702
 20
1201.0604356504271
 30
0.0
 11
-3765.4209193817019
 21
1201.209631650428
 31
0.0
  0
LINE
  5
C7A
  8
BALSA_1_5
 10
-3790.5424003817011
 20
1200.9564356504279
 30
0.0
 11
-3782.2304003817021
 21
1200.958435650427
 31
0.0
  0
LINE
  5
C7B
  8
BALSA_1_5
 10
-3765.4209193817019
 20
1201.209631650428
 30
0.0
 11
-3765.4209193817019
 21
1206.445247650428
 31
0.0
  0
LINE
  5
C7C
  8
BALSA_1_5
 10
-3783.023492381702
 20
1228.513374068993
 30
0.0
 11
-3774.189772381701
 21
1228.613334068993
 31
0.0
  0
LINE
  5
C7D
  8
BALSA_1_5
 10
-3791.169252381701
 20
1228.5114140689941
 30
0.0
 11
-3783.023492381702
 21
1228.513374068993
 31
0.0
  0
LINE
  5
C7E
  8
BALSA_1_5
 10
-3766.754252381701
 20
1228.755641068994
 30
0.0
 11
-3766.754252381701
 21
1233.990351068994
 31
0.0
  0
LINE
  5
C7F
  8
BALSA_1_5
 10
-3774.189772381701
 20
1228.613334068993
 30
0.0
 11
-3766.754252381701
 21
1228.755641068994
 31
0.0
  0
LINE
  5
C80
  8
BALSA_1_5
 10
-3806.7428433817022
 20
1186.348664869658
 30
0.0
 11
-3811.6857633817008
 21
1184.657504869657
 31
0.0
  0
LINE
  5
C81
  8
BALSA_1_5
 10
-3801.0369633817022
 20
1187.9215048696581
 30
0.0
 11
-3806.7428433817022
 21
1186.348664869658
 31
0.0
  0
LINE
  5
C82
  8
BALSA_1_5
 10
-3794.621163381702
 20
1189.3413448696581
 30
0.0
 11
-3801.0369633817022
 21
1187.9215048696581
 31
0.0
  0
LINE
  5
C83
  8
BALSA_1_5
 10
-3811.6857633817008
 20
1184.657504869657
 30
0.0
 11
-3813.7542523817019
 21
1183.773194869658
 31
0.0
  0
LINE
  5
C84
  8
BALSA_1_5
 10
-3807.0764003817021
 20
1214.9084356504279
 30
0.0
 11
-3811.9224003817021
 21
1213.250435650428
 31
0.0
  0
LINE
  5
C85
  8
BALSA_1_5
 10
-3801.4824003817021
 20
1216.4504356504281
 30
0.0
 11
-3807.0764003817021
 21
1214.9084356504279
 31
0.0
  0
LINE
  5
C86
  8
BALSA_1_5
 10
-3795.1924003817021
 20
1217.8424356504279
 30
0.0
 11
-3801.4824003817021
 21
1216.4504356504281
 31
0.0
  0
LINE
  5
C87
  8
BALSA_1_5
 10
-3813.7542523817019
 20
1202.106350650427
 30
0.0
 11
-3813.7542523817019
 21
1212.467291650428
 31
0.0
  0
LINE
  5
C88
  8
BALSA_1_5
 10
-3813.7542523817019
 20
1202.106350650427
 30
0.0
 11
-3810.4584003817008
 21
1201.722435650428
 31
0.0
  0
LINE
  5
C89
  8
BALSA_1_5
 10
-3804.7284003817008
 20
1201.3244356504281
 30
0.0
 11
-3798.0684003817009
 21
1201.0724356504279
 31
0.0
  0
LINE
  5
C8A
  8
BALSA_1_5
 10
-3810.4584003817008
 20
1201.722435650428
 30
0.0
 11
-3804.7284003817008
 21
1201.3244356504281
 31
0.0
  0
LINE
  5
C8B
  8
BALSA_1_5
 10
-3811.9224003817021
 20
1213.250435650428
 30
0.0
 11
-3813.7542523817019
 21
1212.467291650428
 31
0.0
  0
LINE
  5
C8C
  8
BALSA_1_5
 10
-3813.7542523817019
 20
1229.619389068994
 30
0.0
 11
-3810.6869323817009
 21
1229.262094068994
 31
0.0
  0
LINE
  5
C8D
  8
BALSA_1_5
 10
-3805.0715323817021
 20
1228.872054068994
 30
0.0
 11
-3798.544732381702
 21
1228.625094068994
 31
0.0
  0
LINE
  5
C8E
  8
BALSA_1_5
 10
-3810.6869323817009
 20
1229.262094068994
 30
0.0
 11
-3805.0715323817021
 21
1228.872054068994
 31
0.0
  0
LINE
  5
C8F
  8
BALSA_1_5
 10
-3786.8489663816999
 20
1161.89605145109
 30
0.0
 11
-3794.049926381701
 21
1160.63973145109
 31
0.0
  0
LINE
  5
C90
  8
BALSA_1_5
 10
-3762.754252381701
 20
1164.07737445109
 30
0.0
 11
-3770.7664063817028
 21
1163.68277145109
 31
0.0
  0
LINE
  5
C91
  8
BALSA_1_5
 10
-3770.7664063817028
 20
1163.68277145109
 30
0.0
 11
-3779.061446381701
 21
1162.925651451091
 31
0.0
  0
LINE
  5
C92
  8
BALSA_1_5
 10
-3779.061446381701
 20
1162.925651451091
 30
0.0
 11
-3786.8489663816999
 21
1161.89605145109
 31
0.0
  0
LINE
  5
C93
  8
BALSA_1_5
 10
-3797.5546833817029
 20
1172.215944869658
 30
0.0
 11
-3789.8781633816998
 21
1172.0976248696579
 31
0.0
  0
LINE
  5
C94
  8
BALSA_1_5
 10
-3781.3999233817021
 20
1172.0996648696571
 30
0.0
 11
-3772.205643381702
 21
1172.2037048696579
 31
0.0
  0
LINE
  5
C95
  8
BALSA_1_5
 10
-3772.205643381702
 20
1172.2037048696579
 30
0.0
 11
-3764.087585381702
 21
1172.359073869658
 31
0.0
  0
LINE
  5
C96
  8
BALSA_1_5
 10
-3789.8781633816998
 20
1172.0976248696579
 30
0.0
 11
-3781.3999233817021
 21
1172.0996648696571
 31
0.0
  0
LINE
  5
C97
  8
BALSA_1_5
 10
-3813.7542523817019
 20
1173.2938358696581
 30
0.0
 11
-3810.192483381702
 21
1172.8789448696571
 31
0.0
  0
LINE
  5
C98
  8
BALSA_1_5
 10
-3804.3478833817012
 20
1172.4729848696579
 30
0.0
 11
-3797.5546833817029
 21
1172.215944869658
 31
0.0
  0
LINE
  5
C99
  8
BALSA_1_5
 10
-3810.192483381702
 20
1172.8789448696571
 30
0.0
 11
-3804.3478833817012
 21
1172.4729848696579
 31
0.0
  0
LINE
  5
C9A
  8
BALSA_1_5
 10
-3764.087585381702
 20
1177.5953948696581
 30
0.0
 11
-3764.087585381702
 21
1172.359073869658
 31
0.0
  0
LINE
  5
C9B
  8
BALSA_1_5
 10
-3813.7542523817019
 20
1173.2938358696581
 30
0.0
 11
-3813.7542523817019
 21
1183.773194869658
 31
0.0
  0
LINE
  5
C9C
  8
BALSA_1_5
 10
-3799.0592123817009
 20
1257.481672849761
 30
0.0
 11
-3791.8342523817009
 21
1257.3703128497621
 31
0.0
  0
LINE
  5
C9D
  8
BALSA_1_5
 10
-3789.651212381702
 20
1274.7005528497621
 30
0.0
 11
-3796.2982523817009
 21
1273.54087284976
 31
0.0
  0
LINE
  5
C9E
  8
BALSA_1_5
 10
-3783.8547323817011
 20
1257.372232849762
 30
0.0
 11
-3775.201292381701
 21
1257.4701528497619
 31
0.0
  0
LINE
  5
C9F
  8
BALSA_1_5
 10
-3791.8342523817009
 20
1257.3703128497621
 30
0.0
 11
-3783.8547323817011
 21
1257.372232849762
 31
0.0
  0
LINE
  5
CA0
  8
BALSA_1_5
 10
-3782.4627323817022
 20
1275.650952849762
 30
0.0
 11
-3789.651212381702
 21
1274.7005528497621
 31
0.0
  0
LINE
  5
CA1
  8
BALSA_1_5
 10
-3774.805772381701
 20
1276.3498328497619
 30
0.0
 11
-3782.4627323817022
 21
1275.650952849762
 31
0.0
  0
LINE
  5
CA2
  8
BALSA_1_5
 10
-3768.0875853817029
 20
1276.6807068497619
 30
0.0
 11
-3768.0875853817029
 21
1271.812602849762
 31
0.0
  0
LINE
  5
CA3
  8
BALSA_1_5
 10
-3768.0875853817029
 20
1257.60629984976
 30
0.0
 11
-3768.0875853817029
 21
1262.840309849762
 31
0.0
  0
LINE
  5
CA4
  8
BALSA_1_5
 10
-3775.201292381701
 20
1257.4701528497619
 30
0.0
 11
-3768.0875853817029
 21
1257.60629984976
 31
0.0
  0
LINE
  5
CA5
  8
BALSA_1_5
 10
-3768.0875853817029
 20
1276.6807068497619
 30
0.0
 11
-3774.805772381701
 21
1276.3498328497619
 31
0.0
  0
LINE
  5
CA6
  8
BALSA_1_5
 10
-3813.7542523817019
 20
1258.431903849762
 30
0.0
 11
-3813.7542523817019
 21
1268.536083849762
 31
0.0
  0
LINE
  5
CA7
  8
BALSA_1_5
 10
-3813.7542523817019
 20
1258.431903849762
 30
0.0
 11
-3810.953612381702
 21
1258.105672849762
 31
0.0
  0
LINE
  5
CA8
  8
BALSA_1_5
 10
-3810.953612381702
 20
1258.105672849762
 30
0.0
 11
-3805.4528123816999
 21
1257.7235928497601
 31
0.0
  0
LINE
  5
CA9
  8
BALSA_1_5
 10
-3812.359052381702
 20
1269.132552849763
 30
0.0
 11
-3813.7542523817019
 21
1268.536083849762
 31
0.0
  0
LINE
  5
CAA
  8
BALSA_1_5
 10
-3807.7068923816992
 20
1270.7242328497621
 30
0.0
 11
-3812.359052381702
 21
1269.132552849763
 31
0.0
  0
LINE
  5
CAB
  8
BALSA_1_5
 10
-3796.2982523817009
 20
1273.54087284976
 30
0.0
 11
-3802.3366523817022
 21
1272.204552849762
 31
0.0
  0
LINE
  5
CAC
  8
BALSA_1_5
 10
-3805.4528123816999
 20
1257.7235928497601
 30
0.0
 11
-3799.0592123817009
 21
1257.481672849761
 31
0.0
  0
LINE
  5
CAD
  8
BALSA_1_5
 10
-3802.3366523817022
 20
1272.204552849762
 30
0.0
 11
-3807.7068923816992
 21
1270.7242328497621
 31
0.0
  0
LINE
  5
CAE
  8
BALSA_1_5
 10
-3792.4992523817018
 20
1286.0286879927321
 30
0.0
 11
-3784.685972381701
 21
1286.030567992733
 31
0.0
  0
LINE
  5
CAF
  8
BALSA_1_5
 10
-3790.3616923817021
 20
1302.977047992732
 30
0.0
 11
-3796.870252381701
 21
1301.8415279927331
 31
0.0
  0
LINE
  5
CB0
  8
BALSA_1_5
 10
-3769.420919381701
 20
1304.9073989927331
 30
0.0
 11
-3769.420919381701
 21
1300.044087992731
 31
0.0
  0
LINE
  5
CB1
  8
BALSA_1_5
 10
-3775.825532381702
 20
1304.591967992732
 30
0.0
 11
-3783.3229723817021
 21
1303.907647992733
 31
0.0
  0
LINE
  5
CB2
  8
BALSA_1_5
 10
-3783.3229723817021
 20
1303.907647992733
 30
0.0
 11
-3790.3616923817021
 21
1302.977047992732
 31
0.0
  0
LINE
  5
CB3
  8
BALSA_1_5
 10
-3776.212812381702
 20
1286.126447992732
 30
0.0
 11
-3769.420919381701
 21
1286.256435992731
 31
0.0
  0
LINE
  5
CB4
  8
BALSA_1_5
 10
-3769.420919381701
 20
1291.4897459927331
 30
0.0
 11
-3769.420919381701
 21
1286.256435992731
 31
0.0
  0
LINE
  5
CB5
  8
BALSA_1_5
 10
-3784.685972381701
 20
1286.030567992733
 30
0.0
 11
-3776.212812381702
 21
1286.126447992732
 31
0.0
  0
LINE
  5
CB6
  8
BALSA_1_5
 10
-3769.420919381701
 20
1304.9073989927331
 30
0.0
 11
-3775.825532381702
 21
1304.591967992732
 31
0.0
  0
LINE
  5
CB7
  8
BALSA_1_5
 10
-3813.7542523817019
 20
1287.043894992732
 30
0.0
 11
-3813.7542523817019
 21
1297.0300709927319
 31
0.0
  0
LINE
  5
CB8
  8
BALSA_1_5
 10
-3813.7542523817019
 20
1287.043894992732
 30
0.0
 11
-3811.2202923817022
 21
1286.748727992732
 31
0.0
  0
LINE
  5
CB9
  8
BALSA_1_5
 10
-3812.5964523817011
 20
1297.5250479927331
 30
0.0
 11
-3813.7542523817019
 21
1297.0300709927319
 31
0.0
  0
LINE
  5
CBA
  8
BALSA_1_5
 10
-3808.0412123817018
 20
1299.083567992732
 30
0.0
 11
-3812.5964523817011
 21
1297.5250479927331
 31
0.0
  0
LINE
  5
CBB
  8
BALSA_1_5
 10
-3799.5736923817021
 20
1286.137727992731
 30
0.0
 11
-3792.4992523817018
 21
1286.0286879927321
 31
0.0
  0
LINE
  5
CBC
  8
BALSA_1_5
 10
-3805.8340923817018
 20
1286.3746079927321
 30
0.0
 11
-3799.5736923817021
 21
1286.137727992731
 31
0.0
  0
LINE
  5
CBD
  8
BALSA_1_5
 10
-3796.870252381701
 20
1301.8415279927331
 30
0.0
 11
-3802.7828523817029
 21
1300.533047992732
 31
0.0
  0
LINE
  5
CBE
  8
BALSA_1_5
 10
-3811.2202923817022
 20
1286.748727992732
 30
0.0
 11
-3805.8340923817018
 21
1286.3746079927321
 31
0.0
  0
LINE
  5
CBF
  8
BALSA_1_5
 10
-3802.7828523817029
 20
1300.533047992732
 30
0.0
 11
-3808.0412123817018
 21
1299.083567992732
 31
0.0
  0
LINE
  5
CC0
  8
BALSA_1_5
 10
-3788.9407323817022
 20
1246.2235340689931
 30
0.0
 11
-3795.7262523817012
 21
1245.0396940689941
 31
0.0
  0
LINE
  5
CC1
  8
BALSA_1_5
 10
-3781.6024923817022
 20
1247.193734068994
 30
0.0
 11
-3788.9407323817022
 21
1246.2235340689931
 31
0.0
  0
LINE
  5
CC2
  8
BALSA_1_5
 10
-3773.7860123817022
 20
1247.907174068994
 30
0.0
 11
-3781.6024923817022
 21
1247.193734068994
 31
0.0
  0
LINE
  5
CC3
  8
BALSA_1_5
 10
-3766.754252381701
 20
1243.380594068994
 30
0.0
 11
-3766.754252381701
 21
1248.2534920689941
 31
0.0
  0
LINE
  5
CC4
  8
BALSA_1_5
 10
-3766.754252381701
 20
1248.2534920689941
 30
0.0
 11
-3773.7860123817022
 21
1247.907174068994
 31
0.0
  0
LINE
  5
CC5
  8
BALSA_1_5
 10
-3812.1216523817011
 20
1240.539534068994
 30
0.0
 11
-3813.7542523817019
 21
1239.841573068994
 31
0.0
  0
LINE
  5
CC6
  8
BALSA_1_5
 10
-3807.372572381702
 20
1242.164374068994
 30
0.0
 11
-3812.1216523817011
 21
1240.539534068994
 31
0.0
  0
LINE
  5
CC7
  8
BALSA_1_5
 10
-3801.8904523817018
 20
1243.675534068994
 30
0.0
 11
-3807.372572381702
 21
1242.164374068994
 31
0.0
  0
LINE
  5
CC8
  8
BALSA_1_5
 10
-3795.7262523817012
 20
1245.0396940689941
 30
0.0
 11
-3801.8904523817018
 21
1243.675534068994
 31
0.0
  0
LINE
  5
CC9
  8
ALETTONE
 10
-3895.2026787126979
 20
1473.7006064763041
 30
0.0
 11
-4249.202678712697
 21
1473.7006064763041
 31
0.0
  0
LINE
  5
CCA
  8
ALETTONE
 10
-4249.202678712697
 20
1440.2006064763041
 30
0.0
 11
-3895.2026787126979
 21
1440.2006064763041
 31
0.0
  0
LINE
  5
CCB
  8
BALSA5X5
 10
-4312.2026787126997
 20
1433.7006064763041
 30
0.0
 11
-3892.2026787126979
 21
1433.7006064763041
 31
0.0
  0
LINE
  5
CCC
  8
BALSA5X5
 10
-4312.2026787126997
 20
1428.7006064763041
 30
0.0
 11
-3892.2026787126979
 21
1428.7006064763041
 31
0.0
  0
LINE
  5
CCD
  8
BALSA5X5
 10
-4312.2026787126997
 20
1438.7006064763041
 30
0.0
 11
-3892.2026787126979
 21
1438.7006064763041
 31
0.0
  0
LINE
  5
CCE
  8
COMPENSATO_1_5
 10
-4192.2026787126988
 20
1355.3672733283611
 30
0.0
 11
-4250.7026787126979
 21
1352.767273364512
 31
0.0
  0
LINE
  5
CCF
  8
COMPENSATO_1_5
 10
-4250.7026787126979
 20
1354.268754115079
 30
0.0
 11
-4192.2026787126988
 21
1356.8687540789281
 31
0.0
  0
TEXT
  5
CD0
  8
COPERTURA_1MM
 10
-4433.9540574068278
 20
1486.217324279181
 30
0.0
 40
5.0
  1
A08
  0
LINE
  5
CD1
  8
TRIANG20X5
 10
-4430.7026787127006
 20
1453.7006064763041
 30
0.0
 11
-4372.2026787126988
 21
1453.7006064763041
 31
0.0
  0
LINE
  5
CD2
  8
BALSA2MM
 10
-4430.7026787127006
 20
1453.7006064763041
 30
0.0
 11
-4415.7026787126979
 21
1453.7006064763041
 31
0.0
  0
LINE
  5
CD3
  8
BALSA2MM
 10
-4430.7026787127006
 20
1438.7006064763041
 30
0.0
 11
-4415.7026787126979
 21
1453.7006064763041
 31
0.0
  0
TEXT
  5
CD4
  8
COPERTURA_1MM
 62
     3
 10
-4487.9212367887212
 20
1499.414440976677
 30
0.0
 40
5.0
  1
Listello Balsa triangolare 5x20
  0
LINE
  5
CD5
  8
COMPENSATO_1_5
 10
-4372.2026787126988
 20
1347.3771451100381
 30
0.0
 11
-4430.7026787127006
 21
1344.7771451461899
 31
0.0
  0
LINE
  5
CD6
  8
COMPENSATO_1_5
 10
-4430.7026787127006
 20
1346.2786258967551
 30
0.0
 11
-4372.2026787126988
 21
1348.878625860604
 31
0.0
  0
LINE
  5
CD7
  8
TRIANG20X5
 10
-4492.2026787126997
 20
1453.7006064763041
 30
0.0
 11
-4550.7026787126979
 21
1453.7006064763041
 31
0.0
  0
LINE
  5
CD8
  8
BALSA2MM
 10
-4550.7026787126979
 20
1453.7006064763041
 30
0.0
 11
-4535.7026787126979
 21
1453.7006064763041
 31
0.0
  0
LINE
  5
CD9
  8
BALSA2MM
 10
-4550.7026787126979
 20
1438.7006064763041
 30
0.0
 11
-4535.7026787126979
 21
1453.7006064763041
 31
0.0
  0
LINE
  5
CDA
  8
COMPENSATO_1_5
 10
-4492.2026787126997
 20
1342.04381185086
 30
0.0
 11
-4550.7026787126979
 21
1339.4438118870121
 31
0.0
  0
LINE
  5
CDB
  8
COMPENSATO_1_5
 10
-4550.7026787126979
 20
1340.9452926375791
 30
0.0
 11
-4492.2026787126997
 21
1343.545292601427
 31
0.0
  0
LINE
  5
CDC
  8
COMPENSATO_1_5
 10
-4552.2026787126979
 20
1339.377145221272
 30
0.0
 11
-4610.7026787127006
 21
1336.7771452574241
 31
0.0
  0
LINE
  5
CDD
  8
COMPENSATO_1_5
 10
-4610.7026787127006
 20
1338.2786260079899
 30
0.0
 11
-4552.2026787126979
 21
1340.878625971839
 31
0.0
  0
LINE
  5
CDE
  8
COMPENSATO_1_5
 10
-4612.2026787127006
 20
1338.211959342251
 30
0.0
 11
-4612.2026787127006
 21
1336.710478591684
 31
0.0
  0
LINE
  5
CDF
  8
COMPENSATO_1_5
 10
-4610.7026787127006
 20
1336.7672734763039
 30
0.0
 11
-4610.7026787127006
 21
1338.2786260079899
 31
0.0
  0
LINE
  5
CE0
  8
COMPENSATO_1_5
 10
-4552.2026787126979
 20
1340.878625971839
 30
0.0
 11
-4552.2026787126979
 21
1339.377145221272
 31
0.0
  0
LINE
  5
CE1
  8
COMPENSATO_1_5
 10
-4550.7026787126979
 20
1339.4438118870121
 30
0.0
 11
-4550.7026787126979
 21
1340.9452926375791
 31
0.0
  0
LINE
  5
CE2
  8
TRIANG20X5
 10
-4552.2026787126979
 20
1453.7006064763041
 30
0.0
 11
-4610.7026787127006
 21
1453.7006064763041
 31
0.0
  0
LINE
  5
CE3
  8
TRIANG20X5
 10
-4612.2026787127006
 20
1456.7006064763041
 30
0.0
 11
-4612.2026787127006
 21
1453.7006064763041
 31
0.0
  0
LINE
  5
CE4
  8
TRIANG20X5
 10
-4610.7026787127006
 20
1453.7006064763041
 30
0.0
 11
-4610.7026787127006
 21
1456.7006064763041
 31
0.0
  0
LINE
  5
CE5
  8
BALSA2MM
 10
-4627.2026787126979
 20
1453.7006064763041
 30
0.0
 11
-4612.2026787127006
 21
1453.7006064763041
 31
0.0
  0
LINE
  5
CE6
  8
BALSA2MM
 10
-4612.2026787127006
 20
1438.7006064763041
 30
0.0
 11
-4627.2026787126979
 21
1453.7006064763041
 31
0.0
  0
LINE
  5
CE7
  8
BALSA2MM
 10
-4610.7026787127006
 20
1453.7006064763041
 30
0.0
 11
-4595.7026787126997
 21
1453.7006064763041
 31
0.0
  0
LINE
  5
CE8
  8
BALSA2MM
 10
-4610.7026787127006
 20
1438.7006064763041
 30
0.0
 11
-4610.7026787127006
 21
1453.7006064763041
 31
0.0
  0
LINE
  5
CE9
  8
BALSA2MM
 10
-4612.2026787127006
 20
1453.7006064763041
 30
0.0
 11
-4612.2026787127006
 21
1438.7006064763041
 31
0.0
  0
LINE
  5
CEA
  8
BALSA2MM
 10
-4610.7026787127006
 20
1438.7006064763041
 30
0.0
 11
-4595.7026787126997
 21
1453.7006064763041
 31
0.0
  0
LINE
  5
CEB
  8
TRIANG20X5
 10
-4610.7026787127006
 20
1456.7006064763041
 30
0.0
 11
-4612.2026787127006
 21
1456.7006064763041
 31
0.0
  0
LINE
  5
CEC
  8
BALSA_1_5
 10
-4612.2026787127006
 20
1456.7006064763041
 30
0.0
 11
-4610.7026787127006
 21
1456.7006064763041
 31
0.0
  0
LINE
  5
CED
  8
TRIANG20X5
 10
-4552.2026787126979
 20
1456.7006064763041
 30
0.0
 11
-4552.2026787126979
 21
1453.7006064763041
 31
0.0
  0
LINE
  5
CEE
  8
TRIANG20X5
 10
-4550.7026787126979
 20
1453.7006064763041
 30
0.0
 11
-4550.7026787126979
 21
1456.5918088569681
 31
0.0
  0
LINE
  5
CEF
  8
BALSA2MM
 10
-4552.2026787126979
 20
1453.7006064763041
 30
0.0
 11
-4567.2026787126979
 21
1453.7006064763041
 31
0.0
  0
LINE
  5
CF0
  8
BALSA2MM
 10
-4552.2026787126979
 20
1438.7006064763041
 30
0.0
 11
-4552.2026787126979
 21
1453.7006064763041
 31
0.0
  0
LINE
  5
CF1
  8
BALSA2MM
 10
-4550.7026787126979
 20
1438.7006064763041
 30
0.0
 11
-4550.7026787126979
 21
1453.7006064763041
 31
0.0
  0
LINE
  5
CF2
  8
BALSA2MM
 10
-4552.2026787126979
 20
1438.7006064763041
 30
0.0
 11
-4567.2026787126979
 21
1453.7006064763041
 31
0.0
  0
LINE
  5
CF3
  8
TRIANG20X5
 10
-4550.7026787126979
 20
1456.5918088569681
 30
0.0
 11
-4552.2026787126979
 21
1456.7006064763041
 31
0.0
  0
LINE
  5
CF4
  8
BALSA_1_5
 10
-4552.2026787126979
 20
1456.7006064763041
 30
0.0
 11
-4550.7026787126979
 21
1456.7006064763041
 31
0.0
  0
LINE
  5
CF5
  8
COMPENSATO_1_5
 10
-4432.2026787127006
 20
1344.7104784804501
 30
0.0
 11
-4490.7026787126997
 21
1342.110478516601
 31
0.0
  0
LINE
  5
CF6
  8
COMPENSATO_1_5
 10
-4490.7026787126997
 20
1343.6119592671671
 30
0.0
 11
-4432.2026787127006
 21
1346.211959231015
 31
0.0
  0
LINE
  5
CF7
  8
COMPENSATO_1_5
 10
-4492.2026787126997
 20
1343.545292601427
 30
0.0
 11
-4492.2026787126997
 21
1342.04381185086
 31
0.0
  0
LINE
  5
CF8
  8
COMPENSATO_1_5
 10
-4490.7026787126997
 20
1342.110478516601
 30
0.0
 11
-4490.7026787126997
 21
1343.6119592671671
 31
0.0
  0
LINE
  5
CF9
  8
COMPENSATO_1_5
 10
-4432.2026787127006
 20
1346.211959231015
 30
0.0
 11
-4432.2026787127006
 21
1344.7104784804501
 31
0.0
  0
LINE
  5
CFA
  8
COMPENSATO_1_5
 10
-4430.7026787127006
 20
1344.7771451461899
 30
0.0
 11
-4430.7026787127006
 21
1346.2786258967551
 31
0.0
  0
LINE
  5
CFB
  8
TRIANG20X5
 10
-4432.2026787127006
 20
1453.7006064763041
 30
0.0
 11
-4490.7026787126997
 21
1453.7006064763041
 31
0.0
  0
LINE
  5
CFC
  8
BALSA2MM
 10
-4490.7026787126997
 20
1453.7006064763041
 30
0.0
 11
-4475.7026787126988
 21
1453.7006064763041
 31
0.0
  0
LINE
  5
CFD
  8
BALSA2MM
 10
-4490.7026787126997
 20
1438.7006064763041
 30
0.0
 11
-4475.7026787126988
 21
1453.7006064763041
 31
0.0
  0
LINE
  5
CFE
  8
TRIANG20X5
 10
-4492.2026787126997
 20
1456.7006064763041
 30
0.0
 11
-4492.2026787126997
 21
1453.7006064763041
 31
0.0
  0
LINE
  5
CFF
  8
TRIANG20X5
 10
-4490.7026787126997
 20
1453.7006064763041
 30
0.0
 11
-4490.7026787126997
 21
1456.7006064763041
 31
0.0
  0
LINE
  5
D00
  8
BALSA2MM
 10
-4492.2026787126997
 20
1453.7006064763041
 30
0.0
 11
-4507.2026787126997
 21
1453.7006064763041
 31
0.0
  0
LINE
  5
D01
  8
BALSA2MM
 10
-4492.2026787126997
 20
1438.7006064763041
 30
0.0
 11
-4492.2026787126997
 21
1453.7006064763041
 31
0.0
  0
LINE
  5
D02
  8
BALSA2MM
 10
-4490.7026787126997
 20
1438.7006064763041
 30
0.0
 11
-4490.7026787126997
 21
1453.7006064763041
 31
0.0
  0
LINE
  5
D03
  8
BALSA2MM
 10
-4492.2026787126997
 20
1438.7006064763041
 30
0.0
 11
-4507.2026787126997
 21
1453.7006064763041
 31
0.0
  0
LINE
  5
D04
  8
TRIANG20X5
 10
-4490.7026787126997
 20
1456.7006064763041
 30
0.0
 11
-4492.2026787126997
 21
1456.7006064763041
 31
0.0
  0
LINE
  5
D05
  8
BALSA_1_5
 10
-4492.2026787126997
 20
1456.7006064763041
 30
0.0
 11
-4490.7026787126997
 21
1456.7006064763041
 31
0.0
  0
LINE
  5
D06
  8
TRIANG20X5
 10
-4432.2026787127006
 20
1456.7006064763041
 30
0.0
 11
-4432.2026787127006
 21
1453.7006064763041
 31
0.0
  0
LINE
  5
D07
  8
TRIANG20X5
 10
-4430.7026787127006
 20
1453.7006064763041
 30
0.0
 11
-4430.7026787127006
 21
1456.7006064763041
 31
0.0
  0
LINE
  5
D08
  8
BALSA2MM
 10
-4430.7026787127006
 20
1438.7006064763041
 30
0.0
 11
-4430.7026787127006
 21
1453.7006064763041
 31
0.0
  0
LINE
  5
D09
  8
BALSA2MM
 10
-4432.2026787127006
 20
1453.7006064763041
 30
0.0
 11
-4447.2026787127006
 21
1453.7006064763041
 31
0.0
  0
LINE
  5
D0A
  8
BALSA2MM
 10
-4432.2026787127006
 20
1438.7006064763041
 30
0.0
 11
-4432.2026787127006
 21
1453.7006064763041
 31
0.0
  0
LINE
  5
D0B
  8
BALSA2MM
 10
-4432.2026787127006
 20
1438.7006064763041
 30
0.0
 11
-4447.2026787127006
 21
1453.7006064763041
 31
0.0
  0
LINE
  5
D0C
  8
TRIANG20X5
 10
-4430.7026787127006
 20
1456.7006064763041
 30
0.0
 11
-4432.2026787127006
 21
1456.7006064763041
 31
0.0
  0
LINE
  5
D0D
  8
BALSA_1_5
 10
-4432.2026787127006
 20
1456.7006064763041
 30
0.0
 11
-4430.7026787127006
 21
1456.7006064763041
 31
0.0
  0
TEXT
  5
D0E
  8
COPERTURA_1MM
 10
-4615.4614771006791
 20
1486.217324279181
 30
0.0
 40
5.0
  1
A05
  0
TEXT
  5
D0F
  8
COPERTURA_1MM
 10
-4556.049698163255
 20
1486.217324279181
 30
0.0
 40
5.0
  1
A06
  0
POLYLINE
  5
D10
  8
0
 66
     1
 10
0.0
 20
0.0
 30
0.0
 70
     8
  0
VERTEX
  5
D11
  8
0
 10
-4527.2600000000002
 20
1463.3399999999999
 30
0.0
 70
    32
  0
VERTEX
  5
D12
  8
0
 10
-4491.0900000000001
 20
1501.9100000000001
 30
0.0
 70
    32
  0
VERTEX
  5
D13
  8
0
 10
-4487.5899999999992
 20
1501.9100000000001
 30
0.0
 70
    32
  0
SEQEND
  5
D14
  8
0
  0
TEXT
  5
D15
  8
COPERTURA_1MM
 10
-4496.4216003994115
 20
1486.217324279181
 30
0.0
 40
5.0
  1
A07
  0
LINE
  5
D16
  8
ALETTONE
 10
-4249.202678712697
 20
1473.7006064763041
 30
0.0
 11
-4249.202678712697
 21
1440.2006064763041
 31
0.0
  0
LINE
  5
D17
  8
TRIANG20X5
 10
-4250.7026787126979
 20
1456.7006064763041
 30
0.0
 11
-4250.7026787126979
 21
1473.7006064763041
 31
0.0
  0
LINE
  5
D18
  8
TRIANG20X5
 10
-4370.7026787126988
 20
1453.7006064763041
 30
0.0
 11
-4312.2026787126997
 21
1453.7006064763041
 31
0.0
  0
LINE
  5
D19
  8
BALSA2MM
 10
-4312.2026787126997
 20
1453.7006064763041
 30
0.0
 11
-4327.2026787126997
 21
1453.7006064763041
 31
0.0
  0
LINE
  5
D1A
  8
BALSA2MM
 10
-4312.2026787126997
 20
1438.7006064763041
 30
0.0
 11
-4327.2026787126997
 21
1453.7006064763041
 31
0.0
  0
LINE
  5
D1B
  8
COMPENSATO_1_5
 10
-4312.2026787126997
 20
1351.5452924901931
 30
0.0
 11
-4370.7026787126988
 21
1348.945292526344
 31
0.0
  0
LINE
  5
D1C
  8
COMPENSATO_1_5
 10
-4370.7026787126988
 20
1347.4438117757779
 30
0.0
 11
-4312.2026787126997
 21
1350.0438117396261
 31
0.0
  0
LINE
  5
D1D
  8
COMPENSATO_1_5
 10
-4372.2026787126988
 20
1348.878625860604
 30
0.0
 11
-4372.2026787126988
 21
1347.3771451100381
 31
0.0
  0
LINE
  5
D1E
  8
COMPENSATO_1_5
 10
-4370.7026787126988
 20
1348.945292526344
 30
0.0
 11
-4370.7026787126988
 21
1347.4438117757779
 31
0.0
  0
LINE
  5
D1F
  8
TRIANG20X5
 10
-4370.7026787126988
 20
1456.7006064763041
 30
0.0
 11
-4372.2026787126988
 21
1456.7006064763041
 31
0.0
  0
LINE
  5
D20
  8
BALSA_1_5
 10
-4372.2026787126988
 20
1456.7006064763041
 30
0.0
 11
-4370.7026787126988
 21
1456.7006064763041
 31
0.0
  0
LINE
  5
D21
  8
TRIANG20X5
 10
-4372.2026787126988
 20
1456.7006064763041
 30
0.0
 11
-4372.2026787126988
 21
1453.7006064763041
 31
0.0
  0
LINE
  5
D22
  8
BALSA2MM
 10
-4372.2026787126988
 20
1453.7006064763041
 30
0.0
 11
-4387.2026787126988
 21
1453.7006064763041
 31
0.0
  0
LINE
  5
D23
  8
BALSA2MM
 10
-4372.2026787126988
 20
1438.7006064763041
 30
0.0
 11
-4372.2026787126988
 21
1453.7006064763041
 31
0.0
  0
LINE
  5
D24
  8
BALSA2MM
 10
-4372.2026787126988
 20
1438.7006064763041
 30
0.0
 11
-4387.2026787126988
 21
1453.7006064763041
 31
0.0
  0
LINE
  5
D25
  8
TRIANG20X5
 10
-4370.7026787126988
 20
1453.7006064763041
 30
0.0
 11
-4370.7026787126988
 21
1456.7006064763041
 31
0.0
  0
LINE
  5
D26
  8
BALSA2MM
 10
-4370.7026787126988
 20
1453.7006064763041
 30
0.0
 11
-4355.7026787127006
 21
1453.7006064763041
 31
0.0
  0
LINE
  5
D27
  8
BALSA2MM
 10
-4370.7026787126988
 20
1438.7006064763041
 30
0.0
 11
-4370.7026787126988
 21
1453.7006064763041
 31
0.0
  0
LINE
  5
D28
  8
BALSA2MM
 10
-4370.7026787126988
 20
1438.7006064763041
 30
0.0
 11
-4355.7026787127006
 21
1453.7006064763041
 31
0.0
  0
LINE
  5
D29
  8
SERVI
 10
-4233.576526668975
 20
1379.3650138604801
 30
0.0
 11
-4233.576526668975
 21
1448.2006064763041
 31
0.0
  0
INSERT
  5
D2A
  8
SERVI
  2
SERVO_PIANTA
 10
-4226.076526668975
 20
1379.3650138604801
 30
0.0
 50
90.0
  0
LINE
  5
D2B
  8
COMPENSATO_1_5
 10
-4252.2026787126979
 20
1354.2119591197811
 30
0.0
 11
-4310.7026787126997
 21
1351.611959155932
 31
0.0
  0
LINE
  5
D2C
  8
COMPENSATO_1_5
 10
-4310.7026787126997
 20
1350.1104784053659
 30
0.0
 11
-4252.2026787126979
 21
1352.710478369215
 31
0.0
  0
LINE
  5
D2D
  8
COMPENSATO_1_5
 10
-4312.2026787126997
 20
1350.0438117396261
 30
0.0
 11
-4312.2026787126997
 21
1351.5452924901931
 31
0.0
  0
LINE
  5
D2E
  8
COMPENSATO_1_5
 10
-4310.7026787126997
 20
1351.611959155932
 30
0.0
 11
-4310.7026787126997
 21
1350.1104784053659
 31
0.0
  0
LINE
  5
D2F
  8
COMPENSATO_1_5
 10
-4252.2026787126979
 20
1352.710478369215
 30
0.0
 11
-4252.2026787126979
 21
1354.2119591197811
 31
0.0
  0
LINE
  5
D30
  8
COMPENSATO_1_5
 10
-4250.7026787126979
 20
1352.767273364512
 30
0.0
 11
-4250.7026787126979
 21
1354.268754115079
 31
0.0
  0
LINE
  5
D31
  8
TRIANG20X5
 10
-4310.7026787126997
 20
1453.7006064763041
 30
0.0
 11
-4252.2026787126979
 21
1453.7006064763041
 31
0.0
  0
LINE
  5
D32
  8
BALSA2MM
 10
-4267.2026787126979
 20
1453.7006064763041
 30
0.0
 11
-4252.2026787126979
 21
1453.7006064763041
 31
0.0
  0
LINE
  5
D33
  8
BALSA2MM
 10
-4252.2026787126979
 20
1438.7006064763041
 30
0.0
 11
-4267.2026787126979
 21
1453.7006064763041
 31
0.0
  0
LINE
  5
D34
  8
TRIANG20X5
 10
-4312.2026787126997
 20
1456.7006064763041
 30
0.0
 11
-4312.2026787126997
 21
1453.7006064763041
 31
0.0
  0
LINE
  5
D35
  8
TRIANG20X5
 10
-4310.7026787126997
 20
1453.7006064763041
 30
0.0
 11
-4310.7026787126997
 21
1456.7006064763041
 31
0.0
  0
LINE
  5
D36
  8
BALSA2MM
 10
-4312.2026787126997
 20
1453.7006064763041
 30
0.0
 11
-4312.2026787126997
 21
1438.7006064763041
 31
0.0
  0
LINE
  5
D37
  8
BALSA2MM
 10
-4310.7026787126997
 20
1453.7006064763041
 30
0.0
 11
-4310.7026787126997
 21
1438.7006064763041
 31
0.0
  0
LINE
  5
D38
  8
BALSA2MM
 10
-4295.7026787126988
 20
1453.7006064763041
 30
0.0
 11
-4310.7026787126997
 21
1453.7006064763041
 31
0.0
  0
LINE
  5
D39
  8
BALSA_1_5
 10
-4312.2026787126997
 20
1428.7006064763041
 30
0.0
 11
-4310.7026787126997
 21
1428.7006064763041
 31
0.0
  0
LINE
  5
D3A
  8
BALSA2MM
 10
-4310.7026787126997
 20
1438.7006064763041
 30
0.0
 11
-4295.7026787126988
 21
1453.7006064763041
 31
0.0
  0
LINE
  5
D3B
  8
TRIANG20X5
 10
-4310.7026787126997
 20
1456.7006064763041
 30
0.0
 11
-4312.2026787126997
 21
1456.7006064763041
 31
0.0
  0
LINE
  5
D3C
  8
BALSA_1_5
 10
-4312.2026787126997
 20
1456.7006064763041
 30
0.0
 11
-4310.7026787126997
 21
1456.7006064763041
 31
0.0
  0
LINE
  5
D3D
  8
TRIANG20X5
 10
-4252.2026787126979
 20
1453.7006064763041
 30
0.0
 11
-4252.2026787126979
 21
1456.7006064763041
 31
0.0
  0
LINE
  5
D3E
  8
BALSA2MM
 10
-4252.2026787126979
 20
1453.7006064763041
 30
0.0
 11
-4252.2026787126979
 21
1438.7006064763041
 31
0.0
  0
LINE
  5
D3F
  8
SERVI
 10
-4228.576526668975
 20
1453.2006064763041
 30
0.0
 11
-4238.576526668975
 21
1453.2006064763041
 31
0.0
  0
LINE
  5
D40
  8
SERVI
 10
-4228.576526668975
 20
1443.2006064763041
 30
0.0
 11
-4228.576526668975
 21
1453.2006064763041
 31
0.0
  0
LINE
  5
D41
  8
SERVI
 10
-4238.576526668975
 20
1443.2006064763041
 30
0.0
 11
-4228.576526668975
 21
1443.2006064763041
 31
0.0
  0
LINE
  5
D42
  8
SERVI
 10
-4238.576526668975
 20
1453.2006064763041
 30
0.0
 11
-4238.576526668975
 21
1443.2006064763041
 31
0.0
  0
LINE
  5
D43
  8
TRIANG20X5
 10
-4252.2026787126979
 20
1456.7006064763041
 30
0.0
 11
-4250.7026787126979
 21
1456.7006064763041
 31
0.0
  0
LINE
  5
D44
  8
BALSA_1_5
 10
-4252.2026787126979
 20
1456.7006064763041
 30
0.0
 11
-4250.7026787126979
 21
1456.7006064763041
 31
0.0
  0
TEXT
  5
D45
  8
COPERTURA_1MM
 10
-4375.3806084366761
 20
1486.217324279181
 30
0.0
 40
5.0
  1
A09
  0
TEXT
  5
D46
  8
COPERTURA_1MM
 10
-4315.893747024792
 20
1486.217324279181
 30
0.0
 40
5.0
  1
A10
  0
TEXT
  5
D47
  8
COPERTURA_1MM
 10
-4254.0542982389215
 20
1486.217324279181
 30
0.0
 40
5.0
  1
A11
  0
LINE
  5
D48
  8
COMPENSATO_1_5
 10
-3952.2026787127002
 20
1366.033939846714
 30
0.0
 11
-4010.7026787127002
 21
1363.433939882867
 31
0.0
  0
LINE
  5
D49
  8
COMPENSATO_1_5
 10
-4010.7026787127002
 20
1364.9354206334331
 30
0.0
 11
-3952.2026787127002
 21
1367.5354205972819
 31
0.0
  0
LINE
  5
D4A
  8
COMPENSATO_1_5
 10
-4072.2026787127002
 20
1360.7006065875371
 30
0.0
 11
-4130.7026787126997
 21
1358.1006066236901
 31
0.0
  0
LINE
  5
D4B
  8
COMPENSATO_1_5
 10
-4130.7026787126997
 20
1359.6020873742559
 30
0.0
 11
-4072.2026787127002
 21
1362.202087338105
 31
0.0
  0
LINE
  5
D4C
  8
COMPENSATO_1_5
 10
-4132.2026787126997
 20
1358.03393995795
 30
0.0
 11
-4190.7026787126988
 21
1355.4339399941
 31
0.0
  0
LINE
  5
D4D
  8
COMPENSATO_1_5
 10
-4190.7026787126988
 20
1356.935420744667
 30
0.0
 11
-4132.2026787126997
 21
1359.535420708517
 31
0.0
  0
LINE
  5
D4E
  8
COMPENSATO_1_5
 10
-4192.2026787126988
 20
1356.8687540789281
 30
0.0
 11
-4192.2026787126988
 21
1355.3672733283611
 31
0.0
  0
LINE
  5
D4F
  8
COMPENSATO_1_5
 10
-4190.7026787126988
 20
1355.4339399941
 30
0.0
 11
-4190.7026787126988
 21
1356.935420744667
 31
0.0
  0
LINE
  5
D50
  8
COMPENSATO_1_5
 10
-4132.2026787126997
 20
1359.535420708517
 30
0.0
 11
-4132.2026787126997
 21
1358.03393995795
 31
0.0
  0
LINE
  5
D51
  8
COMPENSATO_1_5
 10
-4130.7026787126997
 20
1358.1006066236901
 30
0.0
 11
-4130.7026787126997
 21
1359.6020873742559
 31
0.0
  0
LINE
  5
D52
  8
BALSA_1_5
 10
-4192.2026787126988
 20
1428.7006064763041
 30
0.0
 11
-4190.7026787126988
 21
1428.7006064763041
 31
0.0
  0
LINE
  5
D53
  8
BALSA_1_5
 10
-4192.2026787126988
 20
1438.7006064763041
 30
0.0
 11
-4190.7026787126988
 21
1438.7006064763041
 31
0.0
  0
LINE
  5
D54
  8
BALSA_1_5
 10
-4132.2026787126997
 20
1438.7006064763041
 30
0.0
 11
-4130.7026787126997
 21
1438.7006064763041
 31
0.0
  0
LINE
  5
D55
  8
BALSA_1_5
 10
-4132.2026787126997
 20
1428.7006064763041
 30
0.0
 11
-4130.7026787126997
 21
1428.7006064763041
 31
0.0
  0
LINE
  5
D56
  8
BALSA_1_5
 10
-4072.2026787127002
 20
1438.7006064763041
 30
0.0
 11
-4072.2026787127002
 21
1311.722804061885
 31
0.0
  0
LINE
  5
D57
  8
BALSA_1_5
 10
-4070.7026787127002
 20
1438.7006064763041
 30
0.0
 11
-4070.7026787127002
 21
1311.822804061886
 31
0.0
  0
LINE
  5
D58
  8
BALSA_1_5
 10
-4010.7026787126979
 20
1438.7006064763041
 30
0.0
 11
-4010.7026787127002
 21
1315.822804061886
 31
0.0
  0
LINE
  5
D59
  8
BALSA_1_5
 10
-4012.2026787126979
 20
1438.7006064763041
 30
0.0
 11
-4012.2026787126979
 21
1315.7228040618861
 31
0.0
  0
LINE
  5
D5A
  8
COMPENSATO_1_5
 10
-4012.2026787126979
 20
1363.367273217126
 30
0.0
 11
-4070.7026787127002
 21
1360.7672732532781
 31
0.0
  0
LINE
  5
D5B
  8
COMPENSATO_1_5
 10
-4070.7026787127002
 20
1362.2687540038451
 30
0.0
 11
-4012.2026787126979
 21
1364.868753967693
 31
0.0
  0
LINE
  5
D5C
  8
COMPENSATO_1_5
 10
-4072.2026787127002
 20
1362.202087338105
 30
0.0
 11
-4072.2026787127002
 21
1360.7006065875371
 31
0.0
  0
LINE
  5
D5D
  8
COMPENSATO_1_5
 10
-4070.7026787127002
 20
1360.7672732532781
 30
0.0
 11
-4070.7026787127002
 21
1362.2687540038451
 31
0.0
  0
LINE
  5
D5E
  8
BALSA_1_5
 10
-4072.2026787127002
 20
1311.722804061885
 30
0.0
 11
-4070.7026787127002
 21
1311.822804061886
 31
0.0
  0
LINE
  5
D5F
  8
COMPENSATO_1_5
 10
-4012.2026787126979
 20
1364.868753967693
 30
0.0
 11
-4012.2026787126979
 21
1363.367273217126
 31
0.0
  0
LINE
  5
D60
  8
COMPENSATO_1_5
 10
-4010.7026787127002
 20
1363.433939882867
 30
0.0
 11
-4010.7026787127002
 21
1364.9354206334331
 31
0.0
  0
LINE
  5
D61
  8
BALSA_1_5
 10
-4012.2026787126979
 20
1315.7228040618861
 30
0.0
 11
-4010.7026787127002
 21
1315.822804061886
 31
0.0
  0
LINE
  5
D62
  8
BALSA_1_5
 10
-4072.2026787127002
 20
1428.7006064763041
 30
0.0
 11
-4070.7026787127002
 21
1428.7006064763041
 31
0.0
  0
LINE
  5
D63
  8
BALSA_1_5
 10
-4072.2026787127002
 20
1438.7006064763041
 30
0.0
 11
-4070.7026787127002
 21
1438.7006064763041
 31
0.0
  0
LINE
  5
D64
  8
BALSA_1_5
 10
-4012.2026787126979
 20
1438.7006064763041
 30
0.0
 11
-4010.7026787126979
 21
1438.7006064763041
 31
0.0
  0
LINE
  5
D65
  8
BALSA_1_5
 10
-4012.2026787126979
 20
1428.7006064763041
 30
0.0
 11
-4010.7026787126979
 21
1428.7006064763041
 31
0.0
  0
TEXT
  5
D66
  8
COPERTURA_1MM
 10
-4195.0043926022736
 20
1486.217324279181
 30
0.0
 40
5.0
  1
A12
  0
TEXT
  5
D67
  8
COPERTURA_1MM
 10
-4135.1455846948238
 20
1486.217324279181
 30
0.0
 40
5.0
  1
A13
  0
TEXT
  5
D68
  8
COPERTURA_1MM
 10
-4073.6689722457668
 20
1486.217324279181
 30
0.0
 40
5.0
  1
A14
  0
TEXT
  5
D69
  8
COPERTURA_1MM
 10
-4013.0012620675161
 20
1486.217324279181
 30
0.0
 40
5.0
  1
A15
  0
LINE
  5
D6A
  8
BALSA_1_5
 10
-3813.7542523817019
 20
1451.023146516538
 30
0.0
 11
-3813.7542523817019
 21
1460.2785385165371
 31
0.0
  0
LINE
  5
D6B
  8
ALETTONE
 10
-3895.2026787126979
 20
1473.7006064763041
 30
0.0
 11
-3895.2026787126979
 21
1440.2006064763041
 31
0.0
  0
LINE
  5
D6C
  8
BALSA_3
 10
-3892.2026787126979
 20
1438.7006064763041
 30
0.0
 11
-3892.2026787126979
 21
1473.7006064763041
 31
0.0
1001
ACAD
1000
ASC_BOUNDS
1002
{
1070
    19
1005
3B0
1002
}
  0
LINE
  5
D6D
  8
BALSA_3
 10
-3893.7026787126979
 20
1473.7006064763041
 30
0.0
 11
-3893.7026787126979
 21
1438.7006064763041
 31
0.0
  0
POLYLINE
  5
D6E
  8
BALSA_3
 66
     1
 10
0.0
 20
0.0
 30
0.0
1001
ACAD
1000
ASC_BOUNDS
1002
{
1070
    19
1005
3B0
1002
}
  0
VERTEX
  5
10A6
  8
BALSA_3
 10
-3892.2026787126979
 20
1313.7006064763041
 30
0.0
  0
VERTEX
  5
10A7
  8
BALSA_3
 10
-3872.2026787126979
 20
1323.7006064763041
 30
0.0
  0
VERTEX
  5
10A8
  8
BALSA_3
 10
-3862.2026787127002
 20
1353.7006064763041
 30
0.0
  0
VERTEX
  5
10A9
  8
BALSA_3
 10
-3862.2026787127002
 20
1393.7006064763041
 30
0.0
  0
VERTEX
  5
10AA
  8
BALSA_3
 10
-3882.2026787127002
 20
1473.7006064763041
 30
0.0
  0
SEQEND
  5
10AB
  8
BALSA_3
  0
INSERT
  5
D75
  8
BALSA_BLOCK
  6
CONTINUOUS
  2
*X13
 10
0.0
 20
0.0
 30
0.0
1001
ACAD
1000
HATCH
1002
{
1070
    19
1000
ANSI31
1040
20.0
1040
0.0
1000
ASC_BOUNDS
1070
     1
1070
     1
1070
     4
1005
3AF
1005
3B5
1005
3AD
1005
43B
1000
ASC_SEEDPOINT
1011
-3880.691260903418
1021
0.0
1031
0.0
1021
1403.430443919216
1031
0.0
1000
R14_HATCH_DATA
1000
3B0
1011
1.0
1021
0.0
1031
0.0
1021
0.0
1031
0.0
1011
0.0
1021
0.0
1031
0.0
1021
1.0
1031
0.0
1011
0.0
1021
0.0
1031
0.0
1021
0.0
1031
1.0
1040
0.0
1010
0.0
1020
0.0
1030
1.0
1000
ANSI31
1070
     0
1070
     1
1071
        1
1071
        7
1070
     0
1070
     1
1071
        7
1040
-3892.2026787126979
1040
1313.7006064763041
1040
-3872.2026787126979
1040
1323.700606476302
1040
-3862.2026787127002
1040
1353.7006064763009
1040
-3862.2026787127002
1040
1393.700606476305
1040
-3882.202678712697
1040
1473.7006064763041
1040
-3892.2026787126979
1040
1473.7006064763041
1040
-3892.2026787126979
1040
1438.7006064763041
1071
        4
1005
43B
1005
3AD
1005
3B5
1005
3AF
1070
     0
1070
     1
1040
0.0
1040
20.0
1070
     0
1070
     1
1040
0.7853981633974483
1040
0.0
1040
-2290.506810382356
1040
-1.767766952966368
1040
1.767766952966368
1070
     0
1040
0.9644239005010796
1071
        1
1040
-3880.691260903418
1040
1403.430443919216
1040
0.0
1002
}
  0
LINE
  5
D76
  8
BALSA_1_5
 10
-3952.2026787127002
 20
1438.7006064763041
 30
0.0
 11
-3952.2026787127002
 21
1319.7228040618861
 31
0.0
  0
LINE
  5
D77
  8
BALSA_1_5
 10
-3950.7026787126979
 20
1438.7006064763041
 30
0.0
 11
-3950.7026787126979
 21
1319.800606476304
 31
0.0
  0
LINE
  5
D78
  8
BALSA_3
 10
-3892.2026787126979
 20
1313.7006064763041
 30
0.0
 11
-3892.2026787126979
 21
1438.7006064763041
 31
0.0
  0
LINE
  5
D79
  8
BALSA_1_5
 10
-3893.7026787127002
 20
1323.6228040618851
 30
0.0
 11
-3893.7026787126979
 21
1438.7006064763041
 31
0.0
  0
LINE
  5
D7A
  8
BALSA_1_5
 10
-3892.2026787126979
 20
1313.7006064763041
 30
0.0
 11
-3892.2026787126979
 21
1438.7006064763041
 31
0.0
1001
ACAD
1000
ASC_BOUNDS
1002
{
1070
    19
1005
3B0
1002
}
  0
LINE
  5
D7B
  8
COMPENSATO_1_5
 10
-3893.7026787127002
 20
1368.633939810564
 30
0.0
 11
-3950.7026787126979
 21
1366.100606512455
 31
0.0
  0
LINE
  5
D7C
  8
COMPENSATO_1_5
 10
-3950.7026787126979
 20
1367.602087263022
 30
0.0
 11
-3893.7026787127002
 21
1370.135420561131
 31
0.0
  0
LINE
  5
D7D
  8
COMPENSATO_1_5
 10
-3952.2026787127002
 20
1367.5354205972819
 30
0.0
 11
-3952.2026787127002
 21
1366.033939846714
 31
0.0
  0
LINE
  5
D7E
  8
COMPENSATO_1_5
 10
-3950.7026787126979
 20
1366.100606512455
 30
0.0
 11
-3950.7026787126979
 21
1367.602087263022
 31
0.0
  0
LINE
  5
D7F
  8
BALSA_1_5
 10
-3952.2026787127002
 20
1319.7228040618861
 30
0.0
 11
-3950.7026787126979
 21
1319.822804061886
 31
0.0
  0
LINE
  5
D80
  8
TIGLIO10X5
 10
-3892.2026787126979
 20
1358.7006064763041
 30
0.0
 11
-3892.2026787126979
 21
1368.710478146744
 31
0.0
  0
LINE
  5
D81
  8
COMPENSATO_1_5
 10
-3893.7026787127002
 20
1370.135420561131
 30
0.0
 11
-3893.7026787127002
 21
1368.633939810564
 31
0.0
  0
LINE
  5
D82
  8
BALSA_1_5
 10
-3893.7026787127002
 20
1323.6228040618851
 30
0.0
 11
-3892.2026787127002
 21
1323.7228040618861
 31
0.0
  0
LINE
  5
D83
  8
BALSA5X5
 10
-3892.2026787127002
 20
1323.7228040618861
 30
0.0
 11
-3892.2026787126979
 21
1313.7006064763041
 31
0.0
  0
LINE
  5
D84
  8
BALSA_1_5
 10
-3952.2026787127002
 20
1438.7006064763041
 30
0.0
 11
-3950.7026787126979
 21
1438.7006064763041
 31
0.0
  0
LINE
  5
D85
  8
BALSA_3
 10
-3893.7026787126979
 20
1438.7006064763041
 30
0.0
 11
-3892.2026787126979
 21
1438.7006064763041
 31
0.0
  0
LINE
  5
D86
  8
BALSA_1_5
 10
-3893.7026787126979
 20
1438.7006064763041
 30
0.0
 11
-3892.2026787126979
 21
1438.7006064763041
 31
0.0
  0
LINE
  5
D87
  8
BALSA_1_5
 10
-3893.7026787126979
 20
1428.7006064763041
 30
0.0
 11
-3892.2026787126979
 21
1428.7006064763041
 31
0.0
  0
LINE
  5
D88
  8
BALSA_3
 10
-3893.7026787126979
 20
1456.7006064763041
 30
0.0
 11
-3892.2026787126979
 21
1456.7006064763041
 31
0.0
  0
LINE
  5
D89
  8
BALSA_1_5
 10
-3785.9036923817021
 20
1384.0813813774371
 30
0.0
 11
-3792.4931323817018
 21
1383.210181377437
 31
0.0
  0
LINE
  5
D8A
  8
BALSA_1_5
 10
-3773.4209193817019
 20
1384.9911213774369
 30
0.0
 11
-3773.4209193817019
 21
1380.142193377437
 31
0.0
  0
LINE
  5
D8B
  8
BALSA_1_5
 10
-3763.4209193817019
 20
1380.142193377437
 30
0.0
 11
-3763.4209193817019
 21
1386.142193377437
 31
0.0
  0
LINE
  5
D8C
  8
BALSA_1_5
 10
-3813.7542523817019
 20
1368.2835163774371
 30
0.0
 11
-3813.7542523817019
 21
1377.915680377437
 31
0.0
  0
LINE
  5
D8D
  8
BALSA_1_5
 10
-3773.4209193817019
 20
1367.610492377436
 30
0.0
 11
-3773.4209193817019
 21
1372.841701377436
 31
0.0
  0
LINE
  5
D8E
  8
BALSA_1_5
 10
-3763.4209193817019
 20
1372.841701377436
 30
0.0
 11
-3763.4209193817019
 21
1367.841701377436
 31
0.0
  0
LINE
  5
D8F
  8
BALSA_1_5
 10
-3791.7826523817012
 20
1356.032638958869
 30
0.0
 11
-3798.0142523817021
 21
1354.9454389588691
 31
0.0
  0
LINE
  5
D90
  8
BALSA_1_5
 10
-3794.4942523817022
 20
1367.407461377436
 30
0.0
 11
-3787.179692381701
 21
1367.409221377437
 31
0.0
  0
LINE
  5
D91
  8
BALSA_1_5
 10
-3793.8292523817008
 20
1339.8480389588681
 30
0.0
 11
-3786.348452381701
 21
1339.849838958869
 31
0.0
  0
LINE
  5
D92
  8
BALSA_1_5
 10
-3791.0721723817019
 20
1330.3551052947
 30
0.0
 11
-3797.4422523817011
 21
1329.2437452947011
 31
0.0
  0
LINE
  5
D93
  8
BALSA_1_5
 10
-3784.1832123817021
 20
1331.2659052946999
 30
0.0
 11
-3791.0721723817019
 21
1330.3551052947
 31
0.0
  0
LINE
  5
D94
  8
BALSA_1_5
 10
-3778.235852381702
 20
1339.94163895887
 30
0.0
 11
-3772.0875853817029
 21
1340.0593089588699
 31
0.0
  0
LINE
  5
D95
  8
BALSA_1_5
 10
-3770.754252381701
 20
1332.2356522947
 30
0.0
 11
-3776.8452923817022
 21
1331.9356652946981
 31
0.0
  0
LINE
  5
D96
  8
BALSA_1_5
 10
-3772.0875853817029
 20
1345.29121795887
 30
0.0
 11
-3772.0875853817029
 21
1340.0593089588699
 31
0.0
  0
LINE
  5
D97
  8
BALSA_1_5
 10
-3770.754252381701
 20
1327.3771362947
 30
0.0
 11
-3770.754252381701
 21
1332.3771362947
 31
0.0
  0
LINE
  5
D98
  8
BALSA_1_5
 10
-3786.348452381701
 20
1339.849838958869
 30
0.0
 11
-3778.235852381702
 21
1339.94163895887
 31
0.0
  0
LINE
  5
D99
  8
BALSA_1_5
 10
-3776.8452923817022
 20
1331.9356652946981
 30
0.0
 11
-3784.1832123817021
 21
1331.2659052946999
 31
0.0
  0
LINE
  5
D9A
  8
BALSA_1_5
 10
-3785.0434523817021
 20
1356.92363895887
 30
0.0
 11
-3791.7826523817012
 21
1356.032638958869
 31
0.0
  0
LINE
  5
D9B
  8
BALSA_1_5
 10
-3787.179692381701
 20
1367.409221377437
 30
0.0
 11
-3779.247372381702
 21
1367.4989813774371
 31
0.0
  0
LINE
  5
D9C
  8
BALSA_1_5
 10
-3779.247372381702
 20
1367.4989813774371
 30
0.0
 11
-3773.4209193817019
 21
1367.610492377436
 31
0.0
  0
LINE
  5
D9D
  8
BALSA_1_5
 10
-3772.0875853817029
 20
1357.863381958869
 30
0.0
 11
-3777.8650523817018
 21
1357.5788389588699
 31
0.0
  0
LINE
  5
D9E
  8
BALSA_1_5
 10
-3772.0875853817029
 20
1353.009659958869
 30
0.0
 11
-3772.0875853817029
 21
1358.0096599588701
 31
0.0
  0
LINE
  5
D9F
  8
BALSA_1_5
 10
-3777.8650523817018
 20
1357.5788389588699
 30
0.0
 11
-3785.0434523817021
 21
1356.92363895887
 31
0.0
  0
LINE
  5
DA0
  8
BALSA_1_5
 10
-3808.3755323817022
 20
1326.5444652947001
 30
0.0
 11
-3812.833852381701
 21
1325.0191052947
 31
0.0
  0
LINE
  5
DA1
  8
BALSA_1_5
 10
-3812.833852381701
 20
1325.0191052947
 30
0.0
 11
-3813.7542523817019
 21
1324.6256202947011
 31
0.0
  0
LINE
  5
DA2
  8
BALSA_1_5
 10
-3813.7542523817019
 20
1340.770477958868
 30
0.0
 11
-3813.7542523817019
 21
1350.520645958869
 31
0.0
  0
LINE
  5
DA3
  8
BALSA_1_5
 10
-3800.6026523817018
 20
1339.952438958868
 30
0.0
 11
-3793.8292523817008
 21
1339.8480389588681
 31
0.0
  0
LINE
  5
DA4
  8
BALSA_1_5
 10
-3813.7542523817019
 20
1340.770477958868
 30
0.0
 11
-3811.7536523817021
 21
1340.5374389588701
 31
0.0
  0
LINE
  5
DA5
  8
BALSA_1_5
 10
-3806.596652381701
 20
1340.17923895887
 30
0.0
 11
-3800.6026523817018
 21
1339.952438958868
 31
0.0
  0
LINE
  5
DA6
  8
BALSA_1_5
 10
-3811.7536523817021
 20
1340.5374389588701
 30
0.0
 11
-3806.596652381701
 21
1340.17923895887
 31
0.0
  0
LINE
  5
DA7
  8
BALSA_1_5
 10
-3803.2290523817019
 20
1327.9631052947
 30
0.0
 11
-3808.3755323817022
 21
1326.5444652947001
 31
0.0
  0
LINE
  5
DA8
  8
BALSA_1_5
 10
-3797.4422523817011
 20
1329.2437452947011
 30
0.0
 11
-3803.2290523817019
 21
1327.9631052947
 31
0.0
  0
LINE
  5
DA9
  8
BALSA_1_5
 10
-3801.117132381702
 20
1367.509541377437
 30
0.0
 11
-3794.4942523817022
 21
1367.407461377436
 31
0.0
  0
LINE
  5
DAA
  8
BALSA_1_5
 10
-3813.7542523817019
 20
1368.2835163774371
 30
0.0
 11
-3812.0203323817009
 21
1368.081541377436
 31
0.0
  0
LINE
  5
DAB
  8
BALSA_1_5
 10
-3806.977932381702
 20
1367.731301377436
 30
0.0
 11
-3801.117132381702
 21
1367.509541377437
 31
0.0
  0
LINE
  5
DAC
  8
BALSA_1_5
 10
-3812.0203323817009
 20
1368.081541377436
 30
0.0
 11
-3806.977932381702
 21
1367.731301377436
 31
0.0
  0
LINE
  5
DAD
  8
BALSA_1_5
 10
-3808.7098523817008
 20
1352.304838958868
 30
0.0
 11
-3813.0712523817019
 21
1350.8126389588699
 31
0.0
  0
LINE
  5
DAE
  8
BALSA_1_5
 10
-3803.6752523817022
 20
1353.6926389588691
 30
0.0
 11
-3808.7098523817008
 21
1352.304838958868
 31
0.0
  0
LINE
  5
DAF
  8
BALSA_1_5
 10
-3798.0142523817021
 20
1354.9454389588691
 30
0.0
 11
-3803.6752523817022
 21
1353.6926389588691
 31
0.0
  0
LINE
  5
DB0
  8
BALSA_1_5
 10
-3813.0712523817019
 20
1350.8126389588699
 30
0.0
 11
-3813.7542523817019
 21
1350.520645958869
 31
0.0
  0
LINE
  5
DB1
  8
BALSA_1_5
 10
-3773.4209193817019
 20
1372.841701377436
 30
0.0
 11
-3763.4209193817019
 21
1372.841701377436
 31
0.0
  0
LINE
  5
DB2
  8
BALSA_1_5
 10
-3773.4209193817019
 20
1380.142193377437
 30
0.0
 11
-3763.4209193817019
 21
1380.142193377437
 31
0.0
  0
LINE
  5
DB3
  8
BALSA_1_5
 10
-3792.4931323817018
 20
1383.210181377437
 30
0.0
 11
-3798.5862523817009
 21
1382.147141377437
 31
0.0
  0
LINE
  5
DB4
  8
BALSA_1_5
 10
-3809.0441723817021
 20
1379.565221377437
 30
0.0
 11
-3813.3086523817028
 21
1378.106181377437
 31
0.0
  0
LINE
  5
DB5
  8
BALSA_1_5
 10
-3804.1214523817021
 20
1380.922181377437
 30
0.0
 11
-3809.0441723817021
 21
1379.565221377437
 31
0.0
  0
LINE
  5
DB6
  8
BALSA_1_5
 10
-3813.3086523817028
 20
1378.106181377437
 30
0.0
 11
-3813.7542523817019
 21
1377.915680377437
 31
0.0
  0
LINE
  5
DB7
  8
BALSA_1_5
 10
-3798.5862523817009
 20
1382.147141377437
 30
0.0
 11
-3804.1214523817021
 21
1380.922181377437
 31
0.0
  0
LINE
  5
DB8
  8
BALSA_1_5
 10
-3793.1642523817022
 20
1313.788625294701
 30
0.0
 11
-3785.517212381701
 21
1313.7904652947011
 31
0.0
  0
LINE
  5
DB9
  8
BALSA_1_5
 10
-3777.224332381702
 20
1313.8843052947011
 30
0.0
 11
-3770.754252381701
 21
1314.0081342947001
 31
0.0
  0
LINE
  5
DBA
  8
BALSA_1_5
 10
-3770.754252381701
 20
1319.2407432947
 30
0.0
 11
-3770.754252381701
 21
1314.0081342947001
 31
0.0
  0
LINE
  5
DBB
  8
BALSA_1_5
 10
-3785.517212381701
 20
1313.7904652947011
 30
0.0
 11
-3777.224332381702
 21
1313.8843052947011
 31
0.0
  0
LINE
  5
DBC
  8
BALSA_1_5
 10
-3813.7542523817019
 20
1314.7574482947
 30
0.0
 11
-3811.486972381701
 21
1314.4933452947
 31
0.0
  0
LINE
  5
DBD
  8
BALSA_1_5
 10
-3800.088172381702
 20
1313.895345294701
 30
0.0
 11
-3793.1642523817022
 21
1313.788625294701
 31
0.0
  0
LINE
  5
DBE
  8
BALSA_1_5
 10
-3806.2153723817019
 20
1314.1271852947
 30
0.0
 11
-3800.088172381702
 21
1313.895345294701
 31
0.0
  0
LINE
  5
DBF
  8
BALSA_1_5
 10
-3811.486972381701
 20
1314.4933452947
 30
0.0
 11
-3806.2153723817019
 21
1314.1271852947
 31
0.0
  0
LINE
  5
DC0
  8
BALSA_1_5
 10
-3813.7542523817019
 20
1314.7574482947
 30
0.0
 11
-3813.7542523817019
 21
1324.6256202947011
 31
0.0
  0
LINE
  5
DC1
  8
BALSA_1_5
 10
-3795.8242523817021
 20
1421.4273447357691
 30
0.0
 11
-3788.8421723817019
 21
1421.4290247357681
 31
0.0
  0
LINE
  5
DC2
  8
BALSA_1_5
 10
-3796.489252381702
 20
1450.2862445165381
 30
0.0
 11
-3789.6734123817018
 21
1450.287884516538
 31
0.0
  0
LINE
  5
DC3
  8
BALSA_1_5
 10
-3787.624172381702
 20
1437.297904735769
 30
0.0
 11
-3793.9140923817022
 21
1436.466304735769
 31
0.0
  0
LINE
  5
DC4
  8
BALSA_1_5
 10
-3786.763932381702
 20
1411.4396386794051
 30
0.0
 11
-3793.203612381702
 21
1410.588238679403
 31
0.0
  0
LINE
  5
DC5
  8
BALSA_1_5
 10
-3764.754252381701
 20
1412.4752406794039
 30
0.0
 11
-3765.1039723817021
 21
1412.4853986794051
 31
0.0
  0
LINE
  5
DC6
  8
BALSA_1_5
 10
-3774.754252381701
 20
1412.3193746794041
 30
0.0
 11
-3779.9045723817012
 21
1412.0657186794051
 31
0.0
  0
LINE
  5
DC7
  8
BALSA_1_5
 10
-3779.9045723817012
 20
1412.0657186794051
 30
0.0
 11
-3786.763932381702
 21
1411.4396386794051
 31
0.0
  0
LINE
  5
DC8
  8
BALSA_1_5
 10
-3764.754252381701
 20
1413.475240679403
 30
0.0
 11
-3764.754252381701
 21
1407.4752406794039
 31
0.0
  0
LINE
  5
DC9
  8
BALSA_1_5
 10
-3764.754252381701
 20
1407.4752406794039
 30
0.0
 11
-3774.754252381701
 21
1407.4752406794039
 31
0.0
  0
LINE
  5
DCA
  8
BALSA_1_5
 10
-3774.754252381701
 20
1407.4752406794039
 30
0.0
 11
-3774.754252381701
 21
1412.3193746794041
 31
0.0
  0
LINE
  5
DCB
  8
BALSA_1_5
 10
-3774.754252381701
 20
1400.592698679405
 30
0.0
 11
-3764.754252381701
 21
1400.592698679405
 31
0.0
  0
LINE
  5
DCC
  8
BALSA_1_5
 10
-3788.8421723817019
 20
1421.4290247357681
 30
0.0
 11
-3781.270412381702
 21
1421.5147047357691
 31
0.0
  0
LINE
  5
DCD
  8
BALSA_1_5
 10
-3781.270412381702
 20
1421.5147047357691
 30
0.0
 11
-3776.087585381702
 21
1421.613897735768
 31
0.0
  0
LINE
  5
DCE
  8
BALSA_1_5
 10
-3780.9243323817018
 20
1437.9094247357691
 30
0.0
 11
-3787.624172381702
 21
1437.297904735769
 31
0.0
  0
LINE
  5
DCF
  8
BALSA_1_5
 10
-3776.087585381702
 20
1438.1476367357691
 30
0.0
 11
-3780.9243323817018
 21
1437.9094247357691
 31
0.0
  0
LINE
  5
DD0
  8
BALSA_1_5
 10
-3776.087585381702
 20
1433.308297735769
 30
0.0
 11
-3776.087585381702
 21
1438.308297735769
 31
0.0
  0
LINE
  5
DD1
  8
BALSA_1_5
 10
-3776.087585381702
 20
1426.843705735768
 30
0.0
 11
-3776.087585381702
 21
1421.613897735768
 31
0.0
  0
LINE
  5
DD2
  8
BALSA_1_5
 10
-3766.087585381701
 20
1421.843705735768
 30
0.0
 11
-3764.7072923817018
 21
1421.877584735769
 31
0.0
  0
LINE
  5
DD3
  8
BALSA_1_5
 10
-3766.087585381701
 20
1439.3082977357681
 30
0.0
 11
-3766.087585381701
 21
1433.308297735769
 31
0.0
  0
LINE
  5
DD4
  8
BALSA_1_5
 10
-3766.087585381701
 20
1421.843705735768
 30
0.0
 11
-3766.087585381701
 21
1426.843705735768
 31
0.0
  0
LINE
  5
DD5
  8
BALSA_1_5
 10
-3766.087585381701
 20
1433.308297735769
 30
0.0
 11
-3776.087585381702
 21
1433.308297735769
 31
0.0
  0
LINE
  5
DD6
  8
BALSA_1_5
 10
-3766.087585381701
 20
1426.843705735768
 30
0.0
 11
-3776.087585381702
 21
1426.843705735768
 31
0.0
  0
LINE
  5
DD7
  8
BALSA_1_5
 10
-3789.6734123817018
 20
1450.287884516538
 30
0.0
 11
-3782.2819323817021
 21
1450.3715245165381
 31
0.0
  0
LINE
  5
DD8
  8
BALSA_1_5
 10
-3782.2819323817021
 20
1450.3715245165381
 30
0.0
 11
-3777.4209193817019
 21
1450.4645585165381
 31
0.0
  0
LINE
  5
DD9
  8
BALSA_1_5
 10
-3777.4209193817019
 20
1455.6936665165381
 30
0.0
 11
-3777.4209193817019
 21
1450.4645585165381
 31
0.0
  0
LINE
  5
DDA
  8
BALSA_1_5
 10
-3767.4209193817019
 20
1450.6936665165381
 30
0.0
 11
-3766.113172381702
 21
1450.725764516538
 31
0.0
  0
LINE
  5
DDB
  8
BALSA_1_5
 10
-3767.4209193817019
 20
1450.6936665165381
 30
0.0
 11
-3767.4209193817019
 21
1455.6936665165381
 31
0.0
  0
LINE
  5
DDC
  8
BALSA_1_5
 10
-3767.4209193817019
 20
1455.6936665165381
 30
0.0
 11
-3777.4209193817019
 21
1455.6936665165381
 31
0.0
  0
LINE
  5
DDD
  8
BALSA_1_5
 10
-3813.546052381701
 20
1406.600238679405
 30
0.0
 11
-3813.7542523817019
 21
1406.511229679405
 31
0.0
  0
LINE
  5
DDE
  8
BALSA_1_5
 10
-3813.546052381701
 20
1405.600238679403
 30
0.0
 11
-3813.7542523817019
 21
1405.511229679405
 31
0.0
  0
LINE
  5
DDF
  8
BALSA_1_5
 10
-3809.378492381702
 20
1407.026118679405
 30
0.0
 11
-3813.546052381701
 21
1405.600238679403
 31
0.0
  0
LINE
  5
DE0
  8
BALSA_1_5
 10
-3804.567652381701
 20
1408.3522386794041
 30
0.0
 11
-3809.378492381702
 21
1407.026118679405
 31
0.0
  0
LINE
  5
DE1
  8
BALSA_1_5
 10
-3793.203612381702
 20
1410.588238679403
 30
0.0
 11
-3799.158252381701
 21
1409.549358679405
 31
0.0
  0
LINE
  5
DE2
  8
BALSA_1_5
 10
-3799.158252381701
 20
1409.549358679405
 30
0.0
 11
-3804.567652381701
 21
1408.3522386794041
 31
0.0
  0
LINE
  5
DE3
  8
BALSA_1_5
 10
-3813.7542523817019
 20
1422.2106317357691
 30
0.0
 11
-3813.7542523817019
 21
1431.604294735768
 31
0.0
  0
LINE
  5
DE4
  8
BALSA_1_5
 10
-3813.7542523817019
 20
1422.2106317357691
 30
0.0
 11
-3812.5536923817008
 21
1422.070784735768
 31
0.0
  0
LINE
  5
DE5
  8
BALSA_1_5
 10
-3807.7404923817021
 20
1421.736464735769
 30
0.0
 11
-3802.1460923817021
 21
1421.524784735768
 31
0.0
  0
LINE
  5
DE6
  8
BALSA_1_5
 10
-3812.5536923817008
 20
1422.070784735768
 30
0.0
 11
-3807.7404923817021
 21
1421.736464735769
 31
0.0
  0
LINE
  5
DE7
  8
BALSA_1_5
 10
-3809.712812381702
 20
1432.987024735768
 30
0.0
 11
-3813.7834523817019
 21
1431.594304735768
 31
0.0
  0
LINE
  5
DE8
  8
BALSA_1_5
 10
-3805.0138523817009
 20
1434.282304735769
 30
0.0
 11
-3809.712812381702
 21
1432.987024735768
 31
0.0
  0
LINE
  5
DE9
  8
BALSA_1_5
 10
-3799.730252381702
 20
1435.4515847357691
 30
0.0
 11
-3805.0138523817009
 21
1434.282304735769
 31
0.0
  0
LINE
  5
DEA
  8
BALSA_1_5
 10
-3802.1460923817021
 20
1421.524784735768
 30
0.0
 11
-3795.8242523817021
 21
1421.4273447357691
 31
0.0
  0
LINE
  5
DEB
  8
BALSA_1_5
 10
-3793.9140923817022
 20
1436.466304735769
 30
0.0
 11
-3799.730252381702
 21
1435.4515847357691
 31
0.0
  0
LINE
  5
DEC
  8
BALSA_1_5
 10
-3813.7542523817019
 20
1451.023146516538
 30
0.0
 11
-3812.8203723817001
 21
1450.9143645165379
 31
0.0
  0
LINE
  5
DED
  8
BALSA_1_5
 10
-3808.1217723817008
 20
1450.5880045165379
 30
0.0
 11
-3802.660572381702
 21
1450.3813645165369
 31
0.0
  0
LINE
  5
DEE
  8
BALSA_1_5
 10
-3812.8203723817001
 20
1450.9143645165379
 30
0.0
 11
-3808.1217723817008
 21
1450.5880045165379
 31
0.0
  0
LINE
  5
DEF
  8
BALSA_1_5
 10
-3802.660572381702
 20
1450.3813645165369
 30
0.0
 11
-3796.489252381702
 21
1450.2862445165381
 31
0.0
  0
LINE
  5
DF0
  8
BALSA_1_5
 10
-3795.1592523817021
 20
1395.167398679403
 30
0.0
 11
-3788.010932381701
 21
1395.1691186794051
 31
0.0
  0
LINE
  5
DF1
  8
BALSA_1_5
 10
-3773.4209193817019
 20
1384.9911213774369
 30
0.0
 11
-3778.884812381702
 21
1384.722021377436
 31
0.0
  0
LINE
  5
DF2
  8
BALSA_1_5
 10
-3778.884812381702
 20
1384.722021377436
 30
0.0
 11
-3785.9036923817021
 21
1384.0813813774371
 31
0.0
  0
LINE
  5
DF3
  8
BALSA_1_5
 10
-3764.754252381701
 20
1395.592698679405
 30
0.0
 11
-3763.301412381702
 21
1395.628358679405
 31
0.0
  0
LINE
  5
DF4
  8
BALSA_1_5
 10
-3788.010932381701
 20
1395.1691186794051
 30
0.0
 11
-3780.258892381702
 21
1395.256838679403
 31
0.0
  0
LINE
  5
DF5
  8
BALSA_1_5
 10
-3780.258892381702
 20
1395.256838679403
 30
0.0
 11
-3774.754252381701
 21
1395.3621906794051
 31
0.0
  0
LINE
  5
DF6
  8
BALSA_1_5
 10
-3801.6316123817028
 20
1395.267158679404
 30
0.0
 11
-3795.1592523817021
 21
1395.167398679403
 31
0.0
  0
LINE
  5
DF7
  8
BALSA_1_5
 10
-3813.7542523817019
 20
1395.997069679403
 30
0.0
 11
-3812.287012381702
 21
1395.826158679404
 31
0.0
  0
LINE
  5
DF8
  8
BALSA_1_5
 10
-3807.3592123817029
 20
1395.4838786794051
 30
0.0
 11
-3801.6316123817028
 21
1395.267158679404
 31
0.0
  0
LINE
  5
DF9
  8
BALSA_1_5
 10
-3812.287012381702
 20
1395.826158679404
 30
0.0
 11
-3807.3592123817029
 21
1395.4838786794051
 31
0.0
  0
LINE
  5
DFA
  8
BALSA_1_5
 10
-3774.754252381701
 20
1395.3621906794051
 30
0.0
 11
-3774.754252381701
 21
1400.592698679405
 31
0.0
  0
LINE
  5
DFB
  8
BALSA_1_5
 10
-3764.754252381701
 20
1400.592698679405
 30
0.0
 11
-3764.754252381701
 21
1395.592698679405
 31
0.0
  0
LINE
  5
DFC
  8
BALSA_1_5
 10
-3813.7542523817019
 20
1395.997069679403
 30
0.0
 11
-3813.7542523817019
 21
1405.511229679405
 31
0.0
  0
TEXT
  5
DFD
  8
COPERTURA_1MM
 10
-3955.5691609724749
 20
1486.217324279181
 30
0.0
 40
5.0
  1
A16
  0
TEXT
  5
DFE
  8
COPERTURA_1MM
 10
-3898.137059877432
 20
1486.217324279181
 30
0.0
 40
5.0
  1
A17
  0
LINE
  5
DFF
  8
BALSA_3
 10
-3892.2026787126979
 20
1473.7006064763041
 30
0.0
 11
-3893.7026787126979
 21
1473.7006064763041
 31
0.0
  0
LINE
  5
E00
  8
BALSA_3
 10
-3882.2026787127002
 20
1473.7006064763041
 30
0.0
 11
-3892.2026787126979
 21
1473.7006064763041
 31
0.0
1001
ACAD
1000
ASC_BOUNDS
1002
{
1070
    19
1005
3B0
1002
}
  0
LINE
  5
E01
  8
BALSA_1_5
 10
-3797.1542523817029
 20
1473.7467142107
 30
0.0
 11
-3790.5046523817018
 21
1473.7483142107001
 31
0.0
  0
LINE
  5
E02
  8
BALSA_1_5
 10
-3789.344652381702
 20
1488.8139142107
 30
0.0
 11
-3795.3350523817012
 21
1488.021914210698
 31
0.0
  0
LINE
  5
E03
  8
BALSA_1_5
 10
-3778.754252381701
 20
1473.9167892107
 30
0.0
 11
-3778.754252381701
 21
1479.1451962107001
 31
0.0
  0
LINE
  5
E04
  8
BALSA_1_5
 10
-3790.5046523817018
 20
1473.7483142107001
 30
0.0
 11
-3783.2934523817021
 21
1473.8299142107001
 31
0.0
  0
LINE
  5
E05
  8
BALSA_1_5
 10
-3783.2934523817021
 20
1473.8299142107001
 30
0.0
 11
-3778.754252381701
 21
1473.9167892107
 31
0.0
  0
LINE
  5
E06
  8
BALSA_1_5
 10
-3778.754252381701
 20
1489.6036392106989
 30
0.0
 11
-3782.9638523817021
 21
1489.3963142107
 31
0.0
  0
LINE
  5
E07
  8
BALSA_1_5
 10
-3782.9638523817021
 20
1489.3963142107
 30
0.0
 11
-3789.344652381702
 21
1488.8139142107
 31
0.0
  0
LINE
  5
E08
  8
BALSA_1_5
 10
-3778.754252381701
 20
1484.7738872107
 30
0.0
 11
-3778.754252381701
 21
1489.6036392106989
 31
0.0
  0
LINE
  5
E09
  8
BALSA_1_5
 10
-3768.754252381701
 20
1474.1451962107001
 30
0.0
 11
-3768.754252381701
 21
1479.1451962107001
 31
0.0
  0
LINE
  5
E0A
  8
BALSA_1_5
 10
-3768.754252381701
 20
1474.1451962107001
 30
0.0
 11
-3767.5190523817018
 21
1474.1755142106999
 31
0.0
  0
LINE
  5
E0B
  8
BALSA_1_5
 10
-3768.754252381701
 20
1484.7738872107
 30
0.0
 11
-3768.754252381701
 21
1490.7738872107
 31
0.0
  0
LINE
  5
E0C
  8
BALSA_1_5
 10
-3768.754252381701
 20
1484.7738872107
 30
0.0
 11
-3778.754252381701
 21
1484.7738872107
 31
0.0
  0
LINE
  5
E0D
  8
BALSA_1_5
 10
-3768.754252381701
 20
1479.1451962107001
 30
0.0
 11
-3778.754252381701
 21
1479.1451962107001
 31
0.0
  0
LINE
  5
E0E
  8
BALSA_1_5
 10
-3813.7542523817019
 20
1474.4372322106999
 30
0.0
 11
-3813.7542523817019
 21
1483.5543512106999
 31
0.0
  0
LINE
  5
E0F
  8
BALSA_1_5
 10
-3813.7542523817019
 20
1474.4372322106999
 30
0.0
 11
-3813.0870523817021
 21
1474.3595142106999
 31
0.0
  0
LINE
  5
E10
  8
BALSA_1_5
 10
-3813.0870523817021
 20
1474.3595142106999
 30
0.0
 11
-3808.5030523817022
 21
1474.0411142107
 31
0.0
  0
LINE
  5
E11
  8
BALSA_1_5
 10
-3810.3814523817018
 20
1484.7083142107001
 30
0.0
 11
-3813.7542523817019
 21
1483.5543512106999
 31
0.0
  0
LINE
  5
E12
  8
BALSA_1_5
 10
-3805.9062523817011
 20
1485.941914210697
 30
0.0
 11
-3810.3814523817018
 21
1484.7083142107001
 31
0.0
  0
LINE
  5
E13
  8
BALSA_1_5
 10
-3803.1750523817018
 20
1473.8395142106999
 30
0.0
 11
-3797.1542523817029
 21
1473.7467142107
 31
0.0
  0
LINE
  5
E14
  8
BALSA_1_5
 10
-3795.3350523817012
 20
1488.021914210698
 30
0.0
 11
-3800.8742523817009
 21
1487.0555142107
 31
0.0
  0
LINE
  5
E15
  8
BALSA_1_5
 10
-3808.5030523817022
 20
1474.0411142107
 30
0.0
 11
-3803.1750523817018
 21
1473.8395142106999
 31
0.0
  0
LINE
  5
E16
  8
BALSA_1_5
 10
-3800.8742523817009
 20
1487.0555142107
 30
0.0
 11
-3805.9062523817011
 21
1485.941914210697
 31
0.0
  0
LINE
  5
E17
  8
BALSA_1_5
 10
-3788.484412381702
 20
1465.755124516538
 30
0.0
 11
-3794.624572381701
 21
1464.943324516538
 31
0.0
  0
LINE
  5
E18
  8
BALSA_1_5
 10
-3777.4209193817019
 20
1466.574853516538
 30
0.0
 11
-3781.944092381701
 21
1466.3520845165381
 31
0.0
  0
LINE
  5
E19
  8
BALSA_1_5
 10
-3781.944092381701
 20
1466.3520845165381
 30
0.0
 11
-3788.484412381702
 21
1465.755124516538
 31
0.0
  0
LINE
  5
E1A
  8
BALSA_1_5
 10
-3777.4209193817019
 20
1461.740307516538
 30
0.0
 11
-3777.4209193817019
 21
1466.740307516538
 31
0.0
  0
LINE
  5
E1B
  8
BALSA_1_5
 10
-3767.4209193817019
 20
1461.740307516538
 30
0.0
 11
-3767.4209193817019
 21
1467.740307516538
 31
0.0
  0
LINE
  5
E1C
  8
BALSA_1_5
 10
-3777.4209193817019
 20
1461.740307516538
 30
0.0
 11
-3767.4209193817019
 21
1461.740307516538
 31
0.0
  0
LINE
  5
E1D
  8
BALSA_1_5
 10
-3810.0471323817019
 20
1461.5468845165381
 30
0.0
 11
-3813.7542523817019
 21
1460.2785385165371
 31
0.0
  0
LINE
  5
E1E
  8
BALSA_1_5
 10
-3805.4600523817012
 20
1462.811324516538
 30
0.0
 11
-3810.0471323817019
 21
1461.5468845165381
 31
0.0
  0
LINE
  5
E1F
  8
BALSA_1_5
 10
-3794.624572381701
 20
1464.943324516538
 30
0.0
 11
-3800.3022523817008
 21
1463.9527645165381
 31
0.0
  0
LINE
  5
E20
  8
BALSA_1_5
 10
-3800.3022523817008
 20
1463.9527645165381
 30
0.0
 11
-3805.4600523817012
 21
1462.811324516538
 31
0.0
  0
LINE
  5
E21
  8
TESTO10
 10
-3526.2840915331872
 20
717.6482175284018
 30
0.0
 11
-3526.2840915331872
 21
1517.6482175284
 31
0.0
  0
TEXT
  5
E22
  8
COPERTURA_1MM
 10
-3751.2615137225612
 20
821.08193774767835
 30
0.0
 40
10.0
  1
XP 04 - Motor Glider RC
  0
INSERT
  5
E23
  8
COPERTURA_1MM
  2
*U14
 10
0.0
 20
0.0
 30
0.0
  0
INSERT
  5
E24
  8
COPERTURA_1MM
  2
*U15
 10
0.0
 20
0.0
 30
0.0
  0
TEXT
  5
E25
  8
COPERTURA_1MM
 10
-3630.110460913043
 20
805.2461410726753
 30
0.0
 40
5.0
  1
Foglio 1 di 2
  0
TEXT
  5
E26
  8
COPERTURA_1MM
 10
-3637.8609030681901
 20
1158.050147412438
 30
0.0
 40
5.0
  1
A05-Balsa 1,5mm
  0
LINE
  5
E27
  8
BALSA_1_5
 10
-3692.333766381701
 20
1159.48277145109
 30
0.0
 11
-3702.7046463817019
 21
1160.8909314510911
 31
0.0
  0
LINE
  5
E28
  8
BALSA_1_5
 10
-3752.7542523817019
 20
1165.186987451089
 30
0.0
 11
-3752.7542523817019
 21
1159.186987451091
 31
0.0
  0
LINE
  5
E29
  8
BALSA_1_5
 10
-3654.604646381702
 20
1146.56597145109
 30
0.0
 11
-3646.166086381701
 21
1146.82805145109
 31
0.0
  0
LINE
  5
E2A
  8
BALSA_1_5
 10
-3645.7001663817009
 20
1152.67909145109
 30
0.0
 11
-3653.8953663817019
 21
1153.900051451091
 31
0.0
  0
LINE
  5
E2B
  8
BALSA_3
 10
-3650.5884123817018
 20
1124.0474974671181
 30
0.0
 11
-3659.6450523817011
 21
1125.389457467119
 31
0.0
  0
LINE
  5
E2C
  8
BALSA_3
 10
-3660.7071723817021
 20
1116.2840574671191
 30
0.0
 11
-3651.311332381702
 21
1116.572377467118
 31
0.0
  0
LINE
  5
E2D
  8
BALSA_3
 10
-3642.7777643817021
 20
1089.332381483144
 30
0.0
 11
-3651.9925693817022
 21
1090.697777483145
 31
0.0
  0
LINE
  5
E2E
  8
BALSA_3
 10
-3653.0732383817021
 20
1081.433360483144
 30
0.0
 11
-3643.5133093817021
 21
1081.7267154831461
 31
0.0
  0
LINE
  5
E2F
  8
BALSA_3
 10
-3653.0732383817021
 20
1080.433360483145
 30
0.0
 11
-3643.5133093817021
 21
1080.7267154831461
 31
0.0
  0
LINE
  5
E30
  8
BALSA_3
 10
-3642.7777643817021
 20
1088.332381483146
 30
0.0
 11
-3651.9925693817022
 21
1089.697777483145
 31
0.0
  0
LINE
  5
E31
  8
BALSA_3
 10
-3657.3452523817018
 20
1046.771471977974
 30
0.0
 11
-3646.8930523817012
 21
1047.094871977974
 31
0.0
  0
LINE
  5
E32
  8
BALSA_3
 10
-3645.7908523817009
 20
1056.543871977974
 30
0.0
 11
-3655.792052381702
 21
1058.015671977972
 31
0.0
  0
LINE
  5
E33
  8
BALSA_3
 10
-3657.3452523817018
 20
1045.771471977974
 30
0.0
 11
-3646.8930523817012
 21
1046.094871977974
 31
0.0
  0
LINE
  5
E34
  8
BALSA_3
 10
-3645.7908523817009
 20
1055.543871977974
 30
0.0
 11
-3655.792052381702
 21
1057.015671977972
 31
0.0
  0
LINE
  5
E35
  8
BALSA_3
  6
DISCONTINU2
 10
-3626.0508893817009
 20
1051.5224709779741
 30
0.0
 11
-3661.0508893817009
 21
1051.5224709779741
 31
0.0
  0
LINE
  5
E36
  8
BALSA_3
  6
DISCONTINU2
 10
-3633.2653173817021
 20
1084.922857483145
 30
0.0
 11
-3668.2653173817021
 21
1084.922857483145
 31
0.0
  0
CIRCLE
  5
E37
  8
BALSA_3
 10
-3753.065382381702
 20
1089.4032344831451
 30
0.0
 40
4.0
  0
LINE
  5
E38
  8
BALSA_3
 10
-3745.8803773817021
 20
1078.579588483145
 30
0.0
 11
-3745.8803773817021
 21
1100.036798483146
 31
0.0
  0
LINE
  5
E39
  8
BALSA_3
 10
-3743.7653173817021
 20
1078.6315024831461
 30
0.0
 11
-3743.7653173817021
 21
1099.9927774831431
 31
0.0
  0
TEXT
  5
E3A
  8
COPERTURA_1MM
 10
-3736.5104184913448
 20
1085.160271498713
 30
0.0
 40
5.0
  1
Balsa 3mm
  0
LINE
  5
E3B
  8
BALSA_3
 10
-3715.4450523817009
 20
1043.9322719779741
 30
0.0
 11
-3703.5144523817021
 21
1044.3062719779721
 31
0.0
  0
LINE
  5
E3C
  8
BALSA_3
 10
-3715.4450523817009
 20
1044.932271977973
 30
0.0
 11
-3703.5144523817021
 21
1045.306271977973
 31
0.0
  0
LINE
  5
E3D
  8
BALSA_3
 10
-3699.0198523817012
 20
1063.942471977972
 30
0.0
 11
-3709.9142523817
 21
1065.174471977974
 31
0.0
  0
LINE
  5
E3E
  8
BALSA_3
 10
-3699.0198523817012
 20
1062.942471977974
 30
0.0
 11
-3709.9142523817
 21
1064.174471977974
 31
0.0
  0
LINE
  5
E3F
  8
BALSA_3
 10
-3708.588559381702
 20
1079.6797004831451
 30
0.0
 11
-3696.9039613817022
 21
1080.052865483146
 31
0.0
  0
LINE
  5
E40
  8
BALSA_3
 10
-3708.588559381702
 20
1078.679700483146
 30
0.0
 11
-3696.9039613817022
 21
1079.052865483146
 31
0.0
  0
LINE
  5
E41
  8
BALSA_3
 10
-3751.0064453817008
 20
1044.1975659779739
 30
0.0
 11
-3751.0064453817008
 21
1049.197565977973
 31
0.0
  0
LINE
  5
E42
  8
BALSA_3
 10
-3741.0750523817019
 20
1044.195881977972
 30
0.0
 11
-3741.0750523817019
 21
1066.092871977974
 31
0.0
  0
LINE
  5
E43
  8
BALSA_3
 10
-3739.0508893817018
 20
1044.245564977974
 30
0.0
 11
-3739.0508893817018
 21
1066.0340789779721
 31
0.0
  0
LINE
  5
E44
  8
BALSA_3
 10
-3738.7694523817008
 20
1044.2524719779731
 30
0.0
 11
-3727.2436523817018
 21
1044.575871977974
 31
0.0
  0
LINE
  5
E45
  8
BALSA_3
 10
-3727.2436523817018
 20
1043.5758719779731
 30
0.0
 11
-3715.4450523817009
 21
1043.9322719779741
 31
0.0
  0
LINE
  5
E46
  8
BALSA_3
 10
-3749.8838523817021
 20
1043.979671977974
 30
0.0
 11
-3738.7694523817008
 21
1044.2524719779731
 31
0.0
  0
LINE
  5
E47
  8
BALSA_3
 10
-3760.4592523817018
 20
1043.7772719779721
 30
0.0
 11
-3749.8838523817021
 21
1043.979671977974
 31
0.0
  0
LINE
  5
E48
  8
BALSA_3
 10
-3760.4592523817018
 20
1042.777271977973
 30
0.0
 11
-3749.8838523817021
 21
1042.979671977974
 31
0.0
  0
LINE
  5
E49
  8
BALSA_3
 10
-3749.8838523817021
 20
1042.979671977974
 30
0.0
 11
-3738.7694523817008
 21
1043.252471977974
 31
0.0
  0
LINE
  5
E4A
  8
BALSA_3
 10
-3738.7694523817008
 20
1043.252471977974
 30
0.0
 11
-3727.2436523817018
 21
1043.5758719779731
 31
0.0
  0
LINE
  5
E4B
  8
BALSA_3
 10
-3709.9142523817
 20
1065.174471977974
 30
0.0
 11
-3720.5952523817018
 21
1066.149071977974
 31
0.0
  0
LINE
  5
E4C
  8
BALSA_3
 10
-3709.9142523817
 20
1064.174471977974
 30
0.0
 11
-3720.5952523817018
 21
1065.149071977974
 31
0.0
  0
LINE
  5
E4D
  8
BALSA_3
 10
-3727.2436523817018
 20
1044.575871977974
 30
0.0
 11
-3715.4450523817009
 21
1044.932271977973
 31
0.0
  0
LINE
  5
E4E
  8
BALSA_3
 10
-3720.2860983817018
 20
1079.313006483145
 30
0.0
 11
-3708.588559381702
 21
1079.6797004831451
 31
0.0
  0
LINE
  5
E4F
  8
BALSA_3
 10
-3720.2860983817018
 20
1078.3130064831439
 30
0.0
 11
-3708.588559381702
 21
1078.679700483146
 31
0.0
  0
LINE
  5
E50
  8
BALSA_3
 10
-3741.0750523817019
 20
1067.092871977972
 30
0.0
 11
-3750.759452381702
 21
1067.0114719779731
 31
0.0
  0
LINE
  5
E51
  8
BALSA_3
 10
-3750.759452381702
 20
1067.0114719779731
 30
0.0
 11
-3760.0060523817028
 21
1066.5560719779719
 31
0.0
  0
LINE
  5
E52
  8
BALSA_3
 10
-3750.759452381702
 20
1066.011471977974
 30
0.0
 11
-3760.0060523817028
 21
1065.556071977973
 31
0.0
  0
LINE
  5
E53
  8
BALSA_3
 10
-3741.0750523817019
 20
1066.092871977974
 30
0.0
 11
-3750.759452381702
 21
1066.011471977974
 31
0.0
  0
LINE
  5
E54
  8
BALSA_3
 10
-3751.0750523816992
 20
1066.092871977974
 30
0.0
 11
-3751.0750523816992
 21
1061.092871977974
 31
0.0
  0
LINE
  5
E55
  8
BALSA_3
 10
-3751.0750523816992
 20
1061.092871977974
 30
0.0
 11
-3741.0750523817019
 21
1061.092871977974
 31
0.0
  0
LINE
  5
E56
  8
BALSA_3
 10
-3751.0064453817008
 20
1049.197565977973
 30
0.0
 11
-3741.0064453817022
 21
1049.197565977973
 31
0.0
  0
CIRCLE
  5
E57
  8
BALSA_3
 10
-3746.0508893817018
 20
1058.022470977972
 30
0.0
 40
4.0
  0
LINE
  5
E58
  8
BALSA_3
 10
-3720.5952523817018
 20
1066.149071977974
 30
0.0
 11
-3731.0012523816999
 21
1066.800271977974
 31
0.0
  0
LINE
  5
E59
  8
BALSA_3
 10
-3720.5952523817018
 20
1065.149071977974
 30
0.0
 11
-3731.0012523816999
 21
1065.800271977974
 31
0.0
  0
LINE
  5
E5A
  8
BALSA_3
 10
-3731.0012523816999
 20
1066.800271977974
 30
0.0
 11
-3741.0750523817019
 21
1067.092871977972
 31
0.0
  0
LINE
  5
E5B
  8
BALSA_3
 10
-3731.0012523816999
 20
1065.800271977974
 30
0.0
 11
-3741.0750523817019
 21
1066.092871977974
 31
0.0
  0
LINE
  5
E5C
  8
ASSI
  6
DISCONTINU2
 10
-3761.0508893817018
 20
1058.022470977972
 30
0.0
 11
-3731.0508893817018
 21
1058.022470977972
 31
0.0
  0
LINE
  5
E5D
  8
BALSA_3
 10
-3745.8803773817021
 20
1078.579588483145
 30
0.0
 11
-3745.8803773817021
 21
1083.5795884831441
 31
0.0
  0
LINE
  5
E5E
  8
BALSA_3
 10
-3745.8803773817021
 20
1083.5795884831441
 30
0.0
 11
-3755.8803773817021
 21
1083.5795884831441
 31
0.0
  0
LINE
  5
E5F
  8
BALSA_3
 10
-3755.8803773817021
 20
1083.5795884831441
 30
0.0
 11
-3755.8803773817021
 21
1078.344024483144
 31
0.0
  0
LINE
  5
E60
  8
BALSA_3
 10
-3731.8542173817018
 20
1078.963568483146
 30
0.0
 11
-3720.2860983817018
 21
1079.313006483145
 31
0.0
  0
LINE
  5
E61
  8
BALSA_3
 10
-3743.1548643817009
 20
1078.6464854831461
 30
0.0
 11
-3731.8542173817018
 21
1078.963568483146
 31
0.0
  0
LINE
  5
E62
  8
BALSA_3
 10
-3731.8542173817018
 20
1077.963568483146
 30
0.0
 11
-3720.2860983817018
 21
1078.3130064831439
 31
0.0
  0
LINE
  5
E63
  8
BALSA_3
 10
-3743.1548643817009
 20
1077.6464854831461
 30
0.0
 11
-3731.8542173817018
 21
1077.963568483146
 31
0.0
  0
LINE
  5
E64
  8
BALSA_3
 10
-3754.052148381702
 20
1078.3790144831451
 30
0.0
 11
-3743.1548643817009
 21
1078.6464854831461
 31
0.0
  0
LINE
  5
E65
  8
BALSA_3
 10
-3754.052148381702
 20
1077.379014483146
 30
0.0
 11
-3743.1548643817009
 21
1077.6464854831461
 31
0.0
  0
LINE
  5
E66
  8
BALSA_3
 10
-3703.5144523817021
 20
1044.3062719779721
 30
0.0
 11
-3691.5970523817
 21
1044.686871977972
 31
0.0
  0
LINE
  5
E67
  8
BALSA_3
 10
-3688.0176523817022
 20
1062.5454719779721
 30
0.0
 11
-3699.0198523817012
 21
1063.942471977972
 31
0.0
  0
LINE
  5
E68
  8
BALSA_3
 10
-3677.0484523817008
 20
1061.0560719779739
 30
0.0
 11
-3688.0176523817022
 21
1062.5454719779721
 31
0.0
  0
LINE
  5
E69
  8
BALSA_3
 10
-3688.0176523817022
 20
1061.545471977973
 30
0.0
 11
-3699.0198523817012
 21
1062.942471977974
 31
0.0
  0
LINE
  5
E6A
  8
BALSA_3
 10
-3677.0484523817008
 20
1060.056071977973
 30
0.0
 11
-3688.0176523817022
 21
1061.545471977973
 31
0.0
  0
LINE
  5
E6B
  8
BALSA_3
 10
-3703.5144523817021
 20
1045.306271977973
 30
0.0
 11
-3691.5970523817
 21
1045.686871977972
 31
0.0
  0
LINE
  5
E6C
  8
BALSA_3
 10
-3691.5970523817
 20
1045.686871977972
 30
0.0
 11
-3679.833652381702
 21
1046.0630719779731
 31
0.0
  0
LINE
  5
E6D
  8
BALSA_3
 10
-3691.5970523817
 20
1044.686871977972
 30
0.0
 11
-3679.833652381702
 21
1045.063071977974
 31
0.0
  0
LINE
  5
E6E
  8
BALSA_3
 10
-3668.3694523817021
 20
1046.426071977972
 30
0.0
 11
-3657.3452523817018
 21
1046.771471977974
 31
0.0
  0
LINE
  5
E6F
  8
BALSA_3
 10
-3668.3694523817021
 20
1045.426071977972
 30
0.0
 11
-3657.3452523817018
 21
1045.771471977974
 31
0.0
  0
LINE
  5
E70
  8
BALSA_3
 10
-3655.792052381702
 20
1058.015671977972
 30
0.0
 11
-3666.259652381701
 21
1059.531471977974
 31
0.0
  0
LINE
  5
E71
  8
BALSA_3
 10
-3655.792052381702
 20
1057.015671977972
 30
0.0
 11
-3666.259652381701
 21
1058.531471977974
 31
0.0
  0
LINE
  5
E72
  8
BALSA_3
 10
-3679.833652381702
 20
1046.0630719779731
 30
0.0
 11
-3668.3694523817021
 21
1046.426071977972
 31
0.0
  0
LINE
  5
E73
  8
BALSA_3
 10
-3666.259652381701
 20
1059.531471977974
 30
0.0
 11
-3677.0484523817008
 21
1061.0560719779739
 31
0.0
  0
LINE
  5
E74
  8
BALSA_3
 10
-3679.833652381702
 20
1045.063071977974
 30
0.0
 11
-3668.3694523817021
 21
1045.426071977972
 31
0.0
  0
LINE
  5
E75
  8
BALSA_3
 10
-3666.259652381701
 20
1058.531471977974
 30
0.0
 11
-3677.0484523817008
 21
1060.056071977973
 31
0.0
  0
LINE
  5
E76
  8
BALSA_3
 10
-3696.9039613817022
 20
1080.052865483146
 30
0.0
 11
-3685.3703553817022
 21
1080.421716483145
 31
0.0
  0
LINE
  5
E77
  8
BALSA_3
 10
-3696.9039613817022
 20
1079.052865483146
 30
0.0
 11
-3685.3703553817022
 21
1079.4217164831441
 31
0.0
  0
LINE
  5
E78
  8
BALSA_3
 10
-3674.130104381702
 20
1080.777625483146
 30
0.0
 11
-3663.3212583817021
 21
1081.116277483145
 31
0.0
  0
LINE
  5
E79
  8
BALSA_3
 10
-3674.130104381702
 20
1079.777625483144
 30
0.0
 11
-3663.3212583817021
 21
1080.1162774831439
 31
0.0
  0
LINE
  5
E7A
  8
BALSA_3
 10
-3663.3212583817021
 20
1081.116277483145
 30
0.0
 11
-3653.0732383817021
 21
1081.433360483144
 31
0.0
  0
LINE
  5
E7B
  8
BALSA_3
 10
-3663.3212583817021
 20
1080.1162774831439
 30
0.0
 11
-3653.0732383817021
 21
1080.433360483145
 31
0.0
  0
LINE
  5
E7C
  8
BALSA_3
 10
-3685.3703553817022
 20
1080.421716483145
 30
0.0
 11
-3674.130104381702
 21
1080.777625483146
 31
0.0
  0
LINE
  5
E7D
  8
BALSA_3
 10
-3685.3703553817022
 20
1079.4217164831441
 30
0.0
 11
-3674.130104381702
 21
1079.777625483144
 31
0.0
  0
LINE
  5
E7E
  8
BALSA_3
 10
-3700.3363323817021
 20
1131.172817467118
 30
0.0
 11
-3710.9384523817021
 21
1132.5190174671179
 31
0.0
  0
LINE
  5
E7F
  8
BALSA_3
 10
-3715.2696123817009
 20
1114.5604974671171
 30
0.0
 11
-3703.7855723817011
 21
1114.927257467119
 31
0.0
  0
LINE
  5
E80
  8
BALSA_1_5
 10
-3717.3561663817009
 20
1144.592051451091
 30
0.0
 11
-3706.0888063817019
 21
1144.95189145109
 31
0.0
  0
TEXT
  5
E81
  8
COPERTURA_1MM
 10
-3741.0169450101039
 20
1120.415319641208
 30
0.0
 40
5.0
  1
Balsa 3mm
  0
LINE
  5
E82
  8
BALSA_3
 10
-3704.1817593817018
 20
1097.951848483146
 30
0.0
 11
-3714.863341381702
 21
1099.159781483145
 31
0.0
  0
LINE
  5
E83
  8
BALSA_3
 10
-3704.1817593817018
 20
1096.951848483146
 30
0.0
 11
-3714.863341381702
 21
1098.159781483145
 31
0.0
  0
LINE
  5
E84
  8
BALSA_1_5
 10
-3728.636006381701
 20
1144.23845145109
 30
0.0
 11
-3717.3561663817009
 21
1144.592051451091
 31
0.0
  0
LINE
  5
E85
  8
BALSA_3
 10
-3710.9384523817021
 20
1132.5190174671179
 30
0.0
 11
-3721.4366923817011
 21
1133.7062174671171
 31
0.0
  0
LINE
  5
E86
  8
BALSA_3
 10
-3726.7663723817009
 20
1114.200097467118
 30
0.0
 11
-3715.2696123817009
 21
1114.5604974671171
 31
0.0
  0
LINE
  5
E87
  8
BALSA_3
 10
-3761.4643723817021
 20
1129.5548574671191
 30
0.0
 11
-3761.4643723817021
 21
1134.5548574671179
 31
0.0
  0
LINE
  5
E88
  8
BALSA_3
 10
-3761.4209193817019
 20
1113.2540404671181
 30
0.0
 11
-3761.4209193817019
 21
1118.4915514671179
 31
0.0
  0
LINE
  5
E89
  8
BALSA_3
 10
-3741.7568923817021
 20
1135.272897467119
 30
0.0
 11
-3751.4643723816998
 21
1135.5548574671179
 31
0.0
  0
LINE
  5
E8A
  8
BALSA_3
 10
-3751.4209193816992
 20
1113.4915514671179
 30
0.0
 11
-3749.2426123817008
 21
1113.545017467118
 31
0.0
  0
LINE
  5
E8B
  8
BALSA_3
 10
-3738.1359323817019
 20
1113.8566574671181
 30
0.0
 11
-3726.7663723817009
 21
1114.200097467118
 31
0.0
  0
LINE
  5
E8C
  8
BALSA_3
 10
-3749.2426123817008
 20
1113.545017467118
 30
0.0
 11
-3738.1359323817019
 21
1113.8566574671181
 31
0.0
  0
LINE
  5
E8D
  8
BALSA_3
 10
-3731.7292923817022
 20
1134.645377467119
 30
0.0
 11
-3741.7568923817021
 21
1135.272897467119
 31
0.0
  0
LINE
  5
E8E
  8
BALSA_3
 10
-3751.4209193816992
 20
1134.5535954671191
 30
0.0
 11
-3751.4643723816998
 21
1134.5548574671179
 31
0.0
  0
LINE
  5
E8F
  8
BALSA_3
 10
-3751.4643723816998
 20
1135.5548574671179
 30
0.0
 11
-3751.4643723816998
 21
1129.5548574671191
 31
0.0
  0
LINE
  5
E90
  8
BALSA_3
 10
-3751.4209193816992
 20
1118.4915514671179
 30
0.0
 11
-3751.4209193816992
 21
1113.4915514671179
 31
0.0
  0
LINE
  5
E91
  8
BALSA_3
 10
-3721.4366923817011
 20
1133.7062174671171
 30
0.0
 11
-3731.7292923817022
 21
1134.645377467119
 31
0.0
  0
LINE
  5
E92
  8
BALSA_3
 10
-3751.4643723816998
 20
1129.5548574671191
 30
0.0
 11
-3761.4643723817021
 21
1129.5548574671191
 31
0.0
  0
LINE
  5
E93
  8
BALSA_3
 10
-3761.4209193817019
 20
1118.4915514671179
 30
0.0
 11
-3751.4209193816992
 21
1118.4915514671179
 31
0.0
  0
LINE
  5
E94
  8
BALSA_1_5
 10
-3752.7542523817019
 20
1143.5450194510911
 30
0.0
 11
-3750.6881663817012
 21
1143.5957314510911
 31
0.0
  0
LINE
  5
E95
  8
BALSA_1_5
 10
-3739.791046381702
 20
1143.901491451089
 30
0.0
 11
-3728.636006381701
 21
1144.23845145109
 31
0.0
  0
LINE
  5
E96
  8
BALSA_1_5
 10
-3750.6881663817012
 20
1143.5957314510911
 30
0.0
 11
-3739.791046381702
 21
1143.901491451089
 31
0.0
  0
LINE
  5
E97
  8
BALSA_1_5
 10
-3752.7542523817019
 20
1143.5450194510911
 30
0.0
 11
-3752.7542523817019
 21
1148.5450194510911
 31
0.0
  0
LINE
  5
E98
  8
BALSA_3
 10
-3714.863341381702
 20
1098.159781483145
 30
0.0
 11
-3725.335691381702
 21
1099.115343483144
 31
0.0
  0
LINE
  5
E99
  8
BALSA_3
 10
-3714.863341381702
 20
1099.159781483145
 30
0.0
 11
-3725.335691381702
 21
1100.115343483144
 31
0.0
  0
LINE
  5
E9A
  8
BALSA_3
 10
-3745.415425381701
 20
1101.0407064831461
 30
0.0
 11
-3754.9106443817009
 21
1100.9608964831441
 31
0.0
  0
LINE
  5
E9B
  8
BALSA_3
 10
-3745.415425381701
 20
1100.0407064831461
 30
0.0
 11
-3754.9106443817009
 21
1099.960896483145
 31
0.0
  0
LINE
  5
E9C
  8
BALSA_3
 10
-3725.335691381702
 20
1100.115343483144
 30
0.0
 11
-3735.538413381702
 21
1100.753822483146
 31
0.0
  0
LINE
  5
E9D
  8
BALSA_3
 10
-3735.538413381702
 20
1100.753822483146
 30
0.0
 11
-3745.415425381701
 21
1101.0407064831461
 31
0.0
  0
LINE
  5
E9E
  8
BALSA_3
 10
-3735.538413381702
 20
1099.753822483146
 30
0.0
 11
-3745.415425381701
 21
1100.0407064831461
 31
0.0
  0
LINE
  5
E9F
  8
BALSA_3
 10
-3755.8803773817021
 20
1095.036798483145
 30
0.0
 11
-3745.8803773817021
 21
1095.036798483145
 31
0.0
  0
LINE
  5
EA0
  8
BALSA_3
 10
-3725.335691381702
 20
1099.115343483144
 30
0.0
 11
-3735.538413381702
 21
1099.753822483146
 31
0.0
  0
LINE
  5
EA1
  8
BALSA_3
 10
-3755.8803773817021
 20
1100.036798483146
 30
0.0
 11
-3755.8803773817021
 21
1095.036798483145
 31
0.0
  0
LINE
  5
EA2
  8
BALSA_3
 10
-3681.4026123817021
 20
1115.639577467118
 30
0.0
 11
-3670.779292381701
 21
1115.972417467118
 31
0.0
  0
LINE
  5
EA3
  8
BALSA_3
 10
-3692.4499323817008
 20
1115.289777467116
 30
0.0
 11
-3681.4026123817021
 21
1115.639577467118
 31
0.0
  0
LINE
  5
EA4
  8
BALSA_3
 10
-3679.369532381701
 20
1128.2684174671181
 30
0.0
 11
-3689.7660123817009
 21
1129.7375774671191
 31
0.0
  0
LINE
  5
EA5
  8
BALSA_3
 10
-3669.2825723817009
 20
1126.8077374671179
 30
0.0
 11
-3679.369532381701
 21
1128.2684174671181
 31
0.0
  0
LINE
  5
EA6
  8
BALSA_3
 10
-3670.779292381701
 20
1115.972417467118
 30
0.0
 11
-3660.7071723817021
 21
1116.2840574671191
 31
0.0
  0
LINE
  5
EA7
  8
BALSA_3
 10
-3659.6450523817011
 20
1125.389457467119
 30
0.0
 11
-3669.2825723817009
 21
1126.8077374671179
 31
0.0
  0
LINE
  5
EA8
  8
BALSA_3
 10
-3703.7855723817011
 20
1114.927257467119
 30
0.0
 11
-3692.4499323817008
 21
1115.289777467116
 31
0.0
  0
LINE
  5
EA9
  8
BALSA_3
 10
-3689.7660123817009
 20
1129.7375774671191
 30
0.0
 11
-3700.3363323817021
 21
1131.172817467118
 31
0.0
  0
LINE
  5
EAA
  8
BALSA_1_5
 10
-3684.1281663817022
 20
1145.650771451091
 30
0.0
 11
-3673.7052863817021
 21
1145.977331451091
 31
0.0
  0
LINE
  5
EAB
  8
BALSA_1_5
 10
-3694.967046381701
 20
1145.307571451091
 30
0.0
 11
-3684.1281663817022
 21
1145.650771451091
 31
0.0
  0
LINE
  5
EAC
  8
BALSA_1_5
 10
-3682.133446381702
 20
1158.0413314510911
 30
0.0
 11
-3692.333766381701
 21
1159.48277145109
 31
0.0
  0
LINE
  5
EAD
  8
BALSA_1_5
 10
-3672.2368063817021
 20
1156.60821145109
 30
0.0
 11
-3682.133446381702
 21
1158.0413314510911
 31
0.0
  0
LINE
  5
EAE
  8
BALSA_1_5
 10
-3653.8953663817019
 20
1153.900051451091
 30
0.0
 11
-3662.7811263817021
 21
1155.216691451091
 31
0.0
  0
LINE
  5
EAF
  8
BALSA_1_5
 10
-3663.8232063817022
 20
1146.283091451091
 30
0.0
 11
-3654.604646381702
 21
1146.56597145109
 31
0.0
  0
LINE
  5
EB0
  8
BALSA_1_5
 10
-3673.7052863817021
 20
1145.977331451091
 30
0.0
 11
-3663.8232063817022
 21
1146.283091451091
 31
0.0
  0
LINE
  5
EB1
  8
BALSA_1_5
 10
-3662.7811263817021
 20
1155.216691451091
 30
0.0
 11
-3672.2368063817021
 21
1156.60821145109
 31
0.0
  0
LINE
  5
EB2
  8
BALSA_1_5
 10
-3706.0888063817019
 20
1144.95189145109
 30
0.0
 11
-3694.967046381701
 21
1145.307571451091
 31
0.0
  0
LINE
  5
EB3
  8
BALSA_3
 10
-3693.3944833817009
 20
1096.5821384831461
 30
0.0
 11
-3704.1817593817018
 21
1097.951848483146
 31
0.0
  0
LINE
  5
EB4
  8
BALSA_3
 10
-3693.3944833817009
 20
1095.5821384831461
 30
0.0
 11
-3704.1817593817018
 21
1096.951848483146
 31
0.0
  0
LINE
  5
EB5
  8
BALSA_3
 10
-3672.0615183817022
 20
1093.6270154831459
 30
0.0
 11
-3682.639563381701
 21
1095.121833483146
 31
0.0
  0
LINE
  5
EB6
  8
BALSA_3
 10
-3661.798399381702
 20
1092.140826483145
 30
0.0
 11
-3672.0615183817022
 21
1093.6270154831459
 31
0.0
  0
LINE
  5
EB7
  8
BALSA_3
 10
-3672.0615183817022
 20
1092.6270154831441
 30
0.0
 11
-3682.639563381701
 21
1094.1218334831431
 31
0.0
  0
LINE
  5
EB8
  8
BALSA_3
 10
-3661.798399381702
 20
1091.140826483145
 30
0.0
 11
-3672.0615183817022
 21
1092.6270154831441
 31
0.0
  0
LINE
  5
EB9
  8
BALSA_3
 10
-3651.9925693817022
 20
1090.697777483145
 30
0.0
 11
-3661.798399381702
 21
1092.140826483145
 31
0.0
  0
LINE
  5
EBA
  8
BALSA_3
 10
-3651.9925693817022
 20
1089.697777483145
 30
0.0
 11
-3661.798399381702
 21
1091.140826483145
 31
0.0
  0
LINE
  5
EBB
  8
BALSA_3
 10
-3682.639563381701
 20
1095.121833483146
 30
0.0
 11
-3693.3944833817009
 21
1096.5821384831461
 31
0.0
  0
LINE
  5
EBC
  8
BALSA_3
 10
-3682.639563381701
 20
1094.1218334831431
 30
0.0
 11
-3693.3944833817009
 21
1095.5821384831461
 31
0.0
  0
TEXT
  5
EBD
  8
COPERTURA_1MM
 10
-3585.8121086823112
 20
1082.8635504814631
 30
0.0
 40
5.0
  1
A02
  0
LINE
  5
EBE
  8
BALSA_3
 10
-3626.6194993817021
 20
1085.9208284831441
 30
0.0
 11
-3634.2790903817022
 21
1087.0662084831461
 31
0.0
  0
LINE
  5
EBF
  8
BALSA_3
 10
-3619.911155381702
 20
1085.902713483146
 30
0.0
 11
-3626.6194993817021
 21
1086.920828483145
 31
0.0
  0
CIRCLE
  5
EC0
  8
BALSA_3
 10
-3649.7653173817021
 20
1084.922857483145
 30
0.0
 40
1.5
  0
LINE
  5
EC1
  8
BALSA_3
 10
-3596.0508893817018
 20
1048.9275619779739
 30
0.0
 11
-3602.589452381701
 21
1049.961471977974
 31
0.0
  0
LINE
  5
EC2
  8
BALSA_3
 10
-3596.8650523817009
 20
1048.015471977973
 30
0.0
 11
-3596.0508893817018
 21
1048.022470977972
 31
0.0
  0
LINE
  5
EC3
  8
BALSA_3
 10
-3636.3924523817018
 20
1055.1512719779721
 30
0.0
 11
-3645.7908523817009
 21
1056.543871977974
 31
0.0
  0
LINE
  5
EC4
  8
BALSA_3
 10
-3646.8930523817012
 20
1047.094871977974
 30
0.0
 11
-3637.1426523817022
 21
1047.394071977973
 31
0.0
  0
LINE
  5
EC5
  8
BALSA_3
 10
-3628.2172523817021
 20
1047.671271977973
 30
0.0
 11
-3620.2224523817008
 21
1047.928671977973
 31
0.0
  0
LINE
  5
EC6
  8
BALSA_3
 10
-3637.1426523817022
 20
1047.394071977973
 30
0.0
 11
-3628.2172523817021
 21
1047.671271977973
 31
0.0
  0
LINE
  5
EC7
  8
BALSA_3
 10
-3619.9122523817018
 20
1052.6916719779731
 30
0.0
 11
-3627.7244523817021
 21
1053.859871977972
 31
0.0
  0
LINE
  5
EC8
  8
BALSA_3
 10
-3627.7244523817021
 20
1053.859871977972
 30
0.0
 11
-3636.3924523817018
 21
1055.1512719779721
 31
0.0
  0
LINE
  5
EC9
  8
BALSA_3
 10
-3646.8930523817012
 20
1046.094871977974
 30
0.0
 11
-3637.1426523817022
 21
1046.3940719779721
 31
0.0
  0
LINE
  5
ECA
  8
BALSA_3
 10
-3636.3924523817018
 20
1054.151271977973
 30
0.0
 11
-3645.7908523817009
 21
1055.543871977974
 31
0.0
  0
LINE
  5
ECB
  8
BALSA_3
 10
-3637.1426523817022
 20
1046.3940719779721
 30
0.0
 11
-3628.2172523817021
 21
1046.6712719779739
 31
0.0
  0
LINE
  5
ECC
  8
BALSA_3
 10
-3628.2172523817021
 20
1046.6712719779739
 30
0.0
 11
-3620.2224523817008
 21
1046.928671977972
 31
0.0
  0
LINE
  5
ECD
  8
BALSA_3
 10
-3627.7244523817021
 20
1052.859871977972
 30
0.0
 11
-3636.3924523817018
 21
1054.151271977973
 31
0.0
  0
LINE
  5
ECE
  8
BALSA_3
 10
-3619.9122523817018
 20
1051.691671977974
 30
0.0
 11
-3627.7244523817021
 21
1052.859871977972
 31
0.0
  0
CIRCLE
  5
ECF
  8
BALSA_3
 10
-3642.5508893817018
 20
1051.5224709779741
 30
0.0
 40
1.5
  0
LINE
  5
ED0
  8
BALSA_3
 10
-3613.0508893817009
 20
1048.196511977972
 30
0.0
 11
-3613.0508893817009
 21
1050.650195977973
 31
0.0
  0
LINE
  5
ED1
  8
BALSA_3
 10
-3602.589452381701
 20
1049.961471977974
 30
0.0
 11
-3607.2820523817022
 21
1050.7336719779739
 31
0.0
  0
LINE
  5
ED2
  8
BALSA_3
 10
-3607.4052523817008
 20
1048.467671977972
 30
0.0
 11
-3602.659852381702
 21
1048.747071977974
 31
0.0
  0
LINE
  5
ED3
  8
BALSA_3
 10
-3602.659852381702
 20
1048.747071977974
 30
0.0
 11
-3601.601668381702
 21
1048.805278977974
 31
0.0
  0
LINE
  5
ED4
  8
BALSA_3
 10
-3607.2820523817022
 20
1050.7336719779739
 30
0.0
 11
-3613.0702523817022
 21
1051.6532719779741
 31
0.0
  0
LINE
  5
ED5
  8
BALSA_3
 10
-3613.268252381702
 20
1048.186071977972
 30
0.0
 11
-3607.4052523817008
 21
1048.467671977972
 31
0.0
  0
LINE
  5
ED6
  8
BALSA_3
 10
-3613.0508893817009
 20
1048.196511977972
 30
0.0
 11
-3613.0508893817009
 21
1050.650195977973
 31
0.0
  0
LINE
  5
ED7
  8
BALSA_3
 10
-3607.2820523817022
 20
1049.733671977973
 30
0.0
 11
-3613.0702523817022
 21
1050.6532719779721
 31
0.0
  0
LINE
  5
ED8
  8
BALSA_3
 10
-3613.268252381702
 20
1047.186071977972
 30
0.0
 11
-3607.4052523817008
 21
1047.467671977972
 31
0.0
  0
LINE
  5
ED9
  8
BALSA_3
 10
-3599.100252381701
 20
1047.942871977973
 30
0.0
 11
-3596.8650523817009
 21
1048.015471977973
 31
0.0
  0
LINE
  5
EDA
  8
BALSA_3
 10
-3602.659852381702
 20
1047.747071977974
 30
0.0
 11
-3599.100252381701
 21
1047.942871977973
 31
0.0
  0
LINE
  5
EDB
  8
BALSA_3
 10
-3601.601668381702
 20
1048.805278977974
 30
0.0
 11
-3602.589452381701
 21
1048.961471977974
 31
0.0
  0
LINE
  5
EDC
  8
BALSA_3
 10
-3607.4052523817008
 20
1047.467671977972
 30
0.0
 11
-3602.659852381702
 21
1047.747071977974
 31
0.0
  0
LINE
  5
EDD
  8
BALSA_3
 10
-3602.589452381701
 20
1048.961471977974
 30
0.0
 11
-3607.2820523817022
 21
1049.733671977973
 31
0.0
  0
LINE
  5
EDE
  8
BALSA_3
 10
-3620.2224523817008
 20
1047.928671977973
 30
0.0
 11
-3613.268252381702
 21
1048.186071977972
 31
0.0
  0
LINE
  5
EDF
  8
BALSA_3
 10
-3613.0702523817022
 20
1051.6532719779741
 30
0.0
 11
-3619.9122523817018
 21
1052.6916719779731
 31
0.0
  0
LINE
  5
EE0
  8
BALSA_3
 10
-3613.0702523817022
 20
1050.6532719779721
 30
0.0
 11
-3619.9122523817018
 21
1051.691671977974
 31
0.0
  0
LINE
  5
EE1
  8
BALSA_3
 10
-3620.2224523817008
 20
1046.928671977972
 30
0.0
 11
-3613.268252381702
 21
1047.186071977972
 31
0.0
  0
LINE
  5
EE2
  8
BALSA_3
 10
-3634.7622643817022
 20
1081.998500483146
 30
0.0
 11
-3626.9236393817009
 21
1082.2508724831459
 31
0.0
  0
LINE
  5
EE3
  8
BALSA_3
 10
-3643.5133093817021
 20
1081.7267154831461
 30
0.0
 11
-3634.7622643817022
 21
1081.998500483146
 31
0.0
  0
LINE
  5
EE4
  8
BALSA_3
 10
-3643.5133093817021
 20
1080.7267154831461
 30
0.0
 11
-3634.7622643817022
 21
1080.998500483146
 31
0.0
  0
LINE
  5
EE5
  8
BALSA_3
 10
-3634.7622643817022
 20
1080.998500483146
 30
0.0
 11
-3626.9236393817009
 21
1081.250872483145
 31
0.0
  0
LINE
  5
EE6
  8
BALSA_3
 10
-3604.022518381702
 20
1083.3164424831441
 30
0.0
 11
-3603.2697173817019
 21
1083.322913483144
 31
0.0
  0
LINE
  5
EE7
  8
BALSA_3
 10
-3609.635094381701
 20
1084.243962483145
 30
0.0
 11
-3614.2360263817018
 21
1085.001077483146
 31
0.0
  0
LINE
  5
EE8
  8
BALSA_3
 10
-3614.3568193817009
 20
1082.779343483146
 30
0.0
 11
-3609.7041193817022
 21
1083.053285483144
 31
0.0
  0
LINE
  5
EE9
  8
BALSA_3
 10
-3604.013890381701
 20
1083.407037483144
 30
0.0
 11
-3606.1838563817032
 21
1083.698235483145
 31
0.0
  0
LINE
  5
EEA
  8
BALSA_3
 10
-3606.1838563817032
 20
1083.698235483145
 30
0.0
 11
-3609.635094381701
 21
1084.243962483145
 31
0.0
  0
LINE
  5
EEB
  8
BALSA_3
 10
-3609.7041193817022
 20
1083.053285483144
 30
0.0
 11
-3608.758262381702
 21
1083.1053134831441
 31
0.0
  0
LINE
  5
EEC
  8
BALSA_3
 10
-3614.2360263817018
 20
1085.001077483146
 30
0.0
 11
-3619.911155381702
 21
1085.902713483146
 31
0.0
  0
LINE
  5
EED
  8
BALSA_3
 10
-3620.1052873817021
 20
1082.503244483145
 30
0.0
 11
-3614.3568193817009
 21
1082.779343483146
 31
0.0
  0
LINE
  5
EEE
  8
BALSA_3
 10
-3614.2360263817018
 20
1084.0010774831451
 30
0.0
 11
-3619.911155381702
 21
1084.9027134831431
 31
0.0
  0
LINE
  5
EEF
  8
BALSA_3
 10
-3620.1052873817021
 20
1081.5032444831461
 30
0.0
 11
-3614.3568193817009
 21
1081.7793434831431
 31
0.0
  0
LINE
  5
EF0
  8
BALSA_3
 10
-3606.2140543817022
 20
1082.245260483146
 30
0.0
 11
-3604.022518381702
 21
1082.316442483145
 31
0.0
  0
LINE
  5
EF1
  8
BALSA_3
 10
-3609.7041193817022
 20
1082.053285483144
 30
0.0
 11
-3606.2140543817022
 21
1082.245260483146
 31
0.0
  0
LINE
  5
EF2
  8
BALSA_3
 10
-3608.758262381702
 20
1083.1053134831441
 30
0.0
 11
-3609.635094381701
 21
1083.2439624831441
 31
0.0
  0
LINE
  5
EF3
  8
BALSA_3
 10
-3614.3568193817009
 20
1081.7793434831431
 30
0.0
 11
-3609.7041193817022
 21
1082.053285483144
 31
0.0
  0
LINE
  5
EF4
  8
BALSA_3
 10
-3609.635094381701
 20
1083.2439624831441
 30
0.0
 11
-3614.2360263817018
 21
1084.0010774831451
 31
0.0
  0
LINE
  5
EF5
  8
BALSA_3
 10
-3604.022518381702
 20
1082.316442483145
 30
0.0
 11
-3603.2697173817019
 21
1082.3229134831461
 31
0.0
  0
LINE
  5
EF6
  8
BALSA_3
 10
-3626.9236393817009
 20
1082.2508724831459
 30
0.0
 11
-3620.1052873817021
 21
1082.503244483145
 31
0.0
  0
LINE
  5
EF7
  8
BALSA_3
 10
-3619.911155381702
 20
1084.9027134831431
 30
0.0
 11
-3626.6194993817021
 21
1085.9208284831441
 31
0.0
  0
LINE
  5
EF8
  8
BALSA_3
 10
-3626.9236393817009
 20
1081.250872483145
 30
0.0
 11
-3620.1052873817021
 21
1081.5032444831461
 31
0.0
  0
LINE
  5
EF9
  8
BALSA_3
 10
-3596.0508893817018
 20
1049.041162977973
 30
0.0
 11
-3596.0508893817018
 21
1048.022470977972
 31
0.0
  0
TEXT
  5
EFA
  8
COPERTURA_1MM
 10
-3585.8121086823112
 20
1047.5908224371731
 30
0.0
 40
5.0
  1
A01
  0
LINE
  5
EFB
  8
COMPENSATO_1_5
 10
-3598.6923116586709
 20
1116.5259154832479
 30
0.0
 11
-3590.714751658671
 21
1116.4029554832471
 31
0.0
  0
LINE
  5
EFC
  8
COMPENSATO_1_5
 10
-3595.6437516586711
 20
1134.362115483247
 30
0.0
 11
-3602.311151658671
 21
1132.8865954832461
 31
0.0
  0
LINE
  5
EFD
  8
BALSA_3
 10
-3651.311332381702
 20
1116.572377467118
 30
0.0
 11
-3642.710492381701
 21
1116.839497467118
 31
0.0
  0
LINE
  5
EFE
  8
BALSA_3
 10
-3642.2356123817021
 20
1122.8030574671191
 30
0.0
 11
-3650.5884123817018
 21
1124.0474974671181
 31
0.0
  0
LINE
  5
EFF
  8
COMPENSATO_1_5
 10
-3608.2407916586708
 20
1131.252075483246
 30
0.0
 11
-3613.3775516586711
 21
1129.494595483246
 31
0.0
  0
LINE
  5
F00
  8
COMPENSATO_1_5
 10
-3615.9597516586709
 20
1117.696466483246
 30
0.0
 11
-3611.8257116586719
 21
1117.2149154832471
 31
0.0
  0
LINE
  5
F01
  8
COMPENSATO_1_5
 10
-3602.311151658671
 20
1132.8865954832461
 30
0.0
 11
-3608.2407916586708
 21
1131.252075483246
 31
0.0
  0
LINE
  5
F02
  8
COMPENSATO_1_5
 10
-3611.8257116586719
 20
1117.2149154832471
 30
0.0
 11
-3605.7519116586709
 21
1116.7930354832461
 31
0.0
  0
LINE
  5
F03
  8
COMPENSATO_1_5
 10
-3605.7519116586709
 20
1116.7930354832461
 30
0.0
 11
-3598.6923116586709
 21
1116.5259154832479
 31
0.0
  0
LINE
  5
F04
  8
COMPENSATO_1_5
 10
-3615.9597516586709
 20
1117.696466483246
 30
0.0
 11
-3615.9597516586709
 21
1128.3906664832471
 31
0.0
  0
LINE
  5
F05
  8
COMPENSATO_1_5
 10
-3613.3775516586711
 20
1129.494595483246
 30
0.0
 11
-3615.9597516586709
 21
1128.3906664832471
 31
0.0
  0
LINE
  5
F06
  8
BALSA_3
 10
-3642.710492381701
 20
1116.839497467118
 30
0.0
 11
-3635.006412381701
 21
1117.0875374671191
 31
0.0
  0
LINE
  5
F07
  8
BALSA_3
 10
-3634.7074923817022
 20
1121.6773374671179
 30
0.0
 11
-3642.2356123817021
 21
1122.8030574671191
 31
0.0
  0
LINE
  5
F08
  8
BALSA_3
 10
-3628.7542523817019
 20
1120.7738234671181
 30
0.0
 11
-3628.7542523817019
 21
1117.3189524671179
 31
0.0
  0
LINE
  5
F09
  8
BALSA_3
 10
-3635.006412381701
 20
1117.0875374671191
 30
0.0
 11
-3628.7542523817019
 21
1117.3189524671179
 31
0.0
  0
LINE
  5
F0A
  8
BALSA_3
 10
-3628.7542523817019
 20
1120.7738234671181
 30
0.0
 11
-3634.7074923817022
 21
1121.6773374671179
 31
0.0
  0
LINE
  5
F0B
  8
BALSA_1_5
 10
-3646.166086381701
 20
1146.82805145109
 30
0.0
 11
-3638.607366381701
 21
1147.0714114510911
 31
0.0
  0
LINE
  5
F0C
  8
BALSA_1_5
 10
-3638.3140863817021
 20
1151.57461145109
 30
0.0
 11
-3645.7001663817009
 21
1152.67909145109
 31
0.0
  0
LINE
  5
F0D
  8
BALSA_1_5
 10
-3632.754252381701
 20
1147.2880564510911
 30
0.0
 11
-3632.754252381701
 21
1150.7308034510911
 31
0.0
  0
LINE
  5
F0E
  8
BALSA_1_5
 10
-3638.607366381701
 20
1147.0714114510911
 30
0.0
 11
-3632.754252381701
 21
1147.2880564510911
 31
0.0
  0
LINE
  5
F0F
  8
BALSA_1_5
 10
-3632.754252381701
 20
1150.7308034510911
 30
0.0
 11
-3638.3140863817021
 21
1151.57461145109
 31
0.0
  0
TEXT
  5
F10
  8
COPERTURA_1MM
 10
-3637.8609030681901
 20
1127.4185692171191
 30
0.0
 40
5.0
  1
A04
  0
LINE
  5
F11
  8
BALSA_3
 10
-3626.6194993817021
 20
1086.920828483145
 30
0.0
 11
-3634.2790903817022
 21
1088.0662084831461
 31
0.0
  0
LINE
  5
F12
  8
BALSA_3
 10
-3634.2790903817022
 20
1088.0662084831461
 30
0.0
 11
-3642.7777643817021
 21
1089.332381483144
 31
0.0
  0
LINE
  5
F13
  8
BALSA_3
 10
-3634.2790903817022
 20
1087.0662084831461
 30
0.0
 11
-3642.7777643817021
 21
1088.332381483146
 31
0.0
  0
LINE
  5
F14
  8
COMPENSATO_1_5
 10
-3588.3043116586709
 20
1135.6425954832471
 30
0.0
 11
-3595.6437516586711
 21
1134.362115483247
 31
0.0
  0
LINE
  5
F15
  8
COMPENSATO_1_5
 10
-3581.9040316586702
 20
1116.405075483246
 30
0.0
 11
-3572.3491916586722
 21
1116.513195483247
 31
0.0
  0
LINE
  5
F16
  8
COMPENSATO_1_5
 10
-3563.6264186586709
 20
1116.6801384832479
 30
0.0
 11
-3563.6264186586709
 21
1121.917649483247
 31
0.0
  0
LINE
  5
F17
  8
COMPENSATO_1_5
 10
-3572.3491916586722
 20
1116.513195483247
 30
0.0
 11
-3563.6264186586709
 21
1116.6801384832479
 31
0.0
  0
LINE
  5
F18
  8
COMPENSATO_1_5
 10
-3571.9124716586712
 20
1137.463675483247
 30
0.0
 11
-3580.3670316586708
 21
1136.691995483247
 31
0.0
  0
LINE
  5
F19
  8
COMPENSATO_1_5
 10
-3563.6698716586702
 20
1132.980955483247
 30
0.0
 11
-3563.6698716586702
 21
1137.980955483247
 31
0.0
  0
LINE
  5
F1A
  8
COMPENSATO_1_5
 10
-3563.6698716586702
 20
1137.8696274832471
 30
0.0
 11
-3571.9124716586712
 21
1137.463675483247
 31
0.0
  0
LINE
  5
F1B
  8
COMPENSATO_1_5
 10
-3590.714751658671
 20
1116.4029554832471
 30
0.0
 11
-3581.9040316586702
 21
1116.405075483246
 31
0.0
  0
LINE
  5
F1C
  8
COMPENSATO_1_5
 10
-3580.3670316586708
 20
1136.691995483247
 30
0.0
 11
-3588.3043116586709
 21
1135.6425954832471
 31
0.0
  0
LINE
  5
F1D
  8
COMPENSATO_1_5
 10
-3553.6698716586702
 20
1132.980955483247
 30
0.0
 11
-3553.6698716586702
 21
1121.917649483247
 31
0.0
  0
LINE
  5
F1E
  8
COMPENSATO_1_5
 10
-3563.6264186586709
 20
1121.917649483247
 30
0.0
 11
-3553.6264186586709
 21
1121.917649483247
 31
0.0
  0
LINE
  5
F1F
  8
COMPENSATO_1_5
 10
-3553.6698716586702
 20
1132.980955483247
 30
0.0
 11
-3563.6698716586702
 21
1132.980955483247
 31
0.0
  0
LINE
  5
F20
  8
ASSI
 10
-3548.6698716586702
 20
1126.917649483247
 30
0.0
 11
-3568.6698716586702
 21
1126.917649483247
 31
0.0
  0
TEXT
  5
F21
  8
COPERTURA_1MM
 10
-3585.8121086823112
 20
1127.4185692171191
 30
0.0
 40
5.0
  1
A03
  0
INSERT
  5
F22
  8
COPERTURA_1MM
  2
*U16
 10
0.0
 20
0.0
 30
0.0
  0
LINE
  5
F23
  8
BALSA_1_5
 10
-3648.754252381701
 20
1264.675117849762
 30
0.0
 11
-3652.5420923816991
 21
1265.2499928497621
 31
0.0
  0
LINE
  5
F24
  8
BALSA_1_5
 10
-3652.8128123817019
 20
1261.093192849761
 30
0.0
 11
-3648.754252381701
 21
1261.2434148497621
 31
0.0
  0
TEXT
  5
F25
  8
COPERTURA_1MM
 10
-3652.731997390189
 20
1301.925747697657
 30
0.0
 40
5.0
  1
A10-Balsa 1,5mm
  0
LINE
  5
F26
  8
BALSA_1_5
 10
-3652.9964003817022
 20
1204.6004356504279
 30
0.0
 11
-3645.7284003817022
 21
1204.8344356504281
 31
0.0
  0
LINE
  5
F27
  8
BALSA_1_5
 10
-3645.446400381702
 20
1209.164435650428
 30
0.0
 11
-3652.5484003817019
 21
1210.226435650427
 31
0.0
  0
LINE
  5
F28
  8
BALSA_1_5
 10
-3649.1242833817018
 20
1181.553024869658
 30
0.0
 11
-3657.161883381702
 21
1182.750504869658
 31
0.0
  0
LINE
  5
F29
  8
BALSA_1_5
 10
-3657.8575233817019
 20
1175.5574648696579
 30
0.0
 11
-3649.5812433817018
 21
1175.8145048696581
 31
0.0
  0
LINE
  5
F2A
  8
BALSA_1_5
 10
-3656.374172381702
 20
1232.0825340689939
 30
0.0
 11
-3649.251532381702
 21
1232.3118540689941
 31
0.0
  0
LINE
  5
F2B
  8
BALSA_1_5
 10
-3648.9751723817012
 20
1236.5552540689939
 30
0.0
 11
-3655.9351323817009
 21
1237.596014068994
 31
0.0
  0
LINE
  5
F2C
  8
BALSA_1_5
 10
-3705.032523381702
 20
1189.606944869658
 30
0.0
 11
-3715.2345633817022
 21
1190.902344869658
 31
0.0
  0
LINE
  5
F2D
  8
BALSA_1_5
 10
-3697.3884003817029
 20
1216.768435650428
 30
0.0
 11
-3707.3604003817022
 21
1218.1224356504281
 31
0.0
  0
LINE
  5
F2E
  8
BALSA_1_5
 10
-3710.6144003817021
 20
1202.7964356504281
 30
0.0
 11
-3699.9204003817022
 21
1203.138435650427
 31
0.0
  0
LINE
  5
F2F
  8
BALSA_1_5
 10
-3712.839812381701
 20
1230.3146140689939
 30
0.0
 11
-3702.3596923817022
 21
1230.649774068994
 31
0.0
  0
LINE
  5
F30
  8
BALSA_1_5
 10
-3702.7046463817019
 20
1160.8909314510911
 30
0.0
 11
-3713.1067263817022
 21
1162.2117314510911
 31
0.0
  0
LINE
  5
F31
  8
BALSA_1_5
 10
-3708.3516033817018
 20
1173.9744248696579
 30
0.0
 11
-3697.4437233817021
 21
1174.3232648696551
 31
0.0
  0
LINE
  5
F32
  8
BALSA_1_5
 10
-3717.3624003817022
 20
1219.3924356504281
 30
0.0
 11
-3727.2664003817022
 21
1220.5124356504271
 31
0.0
  0
LINE
  5
F33
  8
BALSA_1_5
 10
-3715.2345633817022
 20
1190.902344869658
 30
0.0
 11
-3725.3366433817018
 21
1192.044744869658
 31
0.0
  0
LINE
  5
F34
  8
BALSA_1_5
 10
-3721.448400381702
 20
1202.4504356504281
 30
0.0
 11
-3710.6144003817021
 21
1202.7964356504281
 31
0.0
  0
LINE
  5
F35
  8
BALSA_1_5
 10
-3707.3604003817022
 20
1218.1224356504281
 30
0.0
 11
-3717.3624003817022
 21
1219.3924356504281
 31
0.0
  0
LINE
  5
F36
  8
BALSA_1_5
 10
-3744.8900433817021
 20
1193.5523048696571
 30
0.0
 11
-3754.087585381702
 21
1193.8194528696581
 31
0.0
  0
LINE
  5
F37
  8
BALSA_1_5
 10
-3735.2408433817009
 20
1192.9484648696571
 30
0.0
 11
-3744.8900433817021
 21
1193.5523048696571
 31
0.0
  0
LINE
  5
F38
  8
BALSA_1_5
 10
-3754.087585381702
 20
1193.8194528696581
 30
0.0
 11
-3754.087585381702
 21
1187.8194528696581
 31
0.0
  0
LINE
  5
F39
  8
BALSA_1_5
 10
-3725.3366433817018
 20
1192.044744869658
 30
0.0
 11
-3735.2408433817009
 21
1192.9484648696571
 31
0.0
  0
LINE
  5
F3A
  8
BALSA_1_5
 10
-3746.4364003817018
 20
1221.990435650428
 30
0.0
 11
-3755.5944003817021
 21
1222.2564356504281
 31
0.0
  0
LINE
  5
F3B
  8
BALSA_1_5
 10
-3736.9764003817008
 20
1221.3984356504279
 30
0.0
 11
-3746.4364003817018
 21
1221.990435650428
 31
0.0
  0
LINE
  5
F3C
  8
BALSA_1_5
 10
-3755.4209193817019
 20
1222.251396650428
 30
0.0
 11
-3755.4209193817019
 21
1216.251396650428
 31
0.0
  0
LINE
  5
F3D
  8
BALSA_1_5
 10
-3727.2664003817022
 20
1220.5124356504271
 30
0.0
 11
-3736.9764003817008
 21
1221.3984356504279
 31
0.0
  0
LINE
  5
F3E
  8
BALSA_1_5
 10
-3755.4209193817019
 20
1201.445247650428
 30
0.0
 11
-3753.4984003817008
 21
1201.492435650428
 31
0.0
  0
LINE
  5
F3F
  8
BALSA_1_5
 10
-3753.4984003817008
 20
1201.492435650428
 30
0.0
 11
-3743.0204003817021
 21
1201.7864356504281
 31
0.0
  0
LINE
  5
F40
  8
BALSA_1_5
 10
-3755.4209193817019
 20
1206.445247650428
 30
0.0
 11
-3755.4209193817019
 21
1201.445247650428
 31
0.0
  0
LINE
  5
F41
  8
BALSA_1_5
 10
-3732.294400381702
 20
1202.110435650427
 30
0.0
 11
-3721.448400381702
 21
1202.4504356504281
 31
0.0
  0
LINE
  5
F42
  8
BALSA_1_5
 10
-3743.0204003817021
 20
1201.7864356504281
 30
0.0
 11
-3732.294400381702
 21
1202.110435650427
 31
0.0
  0
LINE
  5
F43
  8
BALSA_1_5
 10
-3723.4571323816999
 20
1229.9755340689931
 30
0.0
 11
-3712.839812381701
 21
1230.3146140689939
 31
0.0
  0
LINE
  5
F44
  8
BALSA_1_5
 10
-3756.7542523817019
 20
1228.990351068993
 30
0.0
 11
-3754.8661323817018
 21
1229.0366940689939
 31
0.0
  0
LINE
  5
F45
  8
BALSA_1_5
 10
-3754.8661323817018
 20
1229.0366940689939
 30
0.0
 11
-3744.597692381702
 21
1229.3248140689941
 31
0.0
  0
LINE
  5
F46
  8
BALSA_1_5
 10
-3756.7542523817019
 20
1233.990351068994
 30
0.0
 11
-3756.7542523817019
 21
1228.990351068993
 31
0.0
  0
LINE
  5
F47
  8
BALSA_1_5
 10
-3734.0862123817019
 20
1229.642334068993
 30
0.0
 11
-3723.4571323816999
 21
1229.9755340689931
 31
0.0
  0
LINE
  5
F48
  8
BALSA_1_5
 10
-3744.597692381702
 20
1229.3248140689941
 30
0.0
 11
-3734.0862123817019
 21
1229.642334068993
 31
0.0
  0
LINE
  5
F49
  8
BALSA_1_5
 10
-3713.1067263817022
 20
1162.2117314510911
 30
0.0
 11
-3723.406886381702
 21
1163.3765314510911
 31
0.0
  0
LINE
  5
F4A
  8
BALSA_1_5
 10
-3743.343686381701
 20
1164.913651451091
 30
0.0
 11
-3752.8680063817028
 21
1165.1902914510911
 31
0.0
  0
LINE
  5
F4B
  8
BALSA_1_5
 10
-3733.5052863817009
 20
1164.29797145109
 30
0.0
 11
-3743.343686381701
 21
1164.913651451091
 31
0.0
  0
LINE
  5
F4C
  8
BALSA_1_5
 10
-3723.406886381702
 20
1163.3765314510911
 30
0.0
 11
-3733.5052863817009
 21
1164.29797145109
 31
0.0
  0
LINE
  5
F4D
  8
BALSA_1_5
 10
-3730.4652033817028
 20
1173.2747048696581
 30
0.0
 11
-3719.4022833817012
 21
1173.6215048696581
 31
0.0
  0
LINE
  5
F4E
  8
BALSA_1_5
 10
-3719.4022833817012
 20
1173.6215048696581
 30
0.0
 11
-3708.3516033817018
 21
1173.9744248696579
 31
0.0
  0
LINE
  5
F4F
  8
BALSA_1_5
 10
-3754.087585381702
 20
1172.5953948696581
 30
0.0
 11
-3752.093283381701
 21
1172.6443448696571
 31
0.0
  0
LINE
  5
F50
  8
BALSA_1_5
 10
-3752.093283381701
 20
1172.6443448696571
 30
0.0
 11
-3741.4057233817011
 21
1172.9442248696571
 31
0.0
  0
LINE
  5
F51
  8
BALSA_1_5
 10
-3741.4057233817011
 20
1172.9442248696571
 30
0.0
 11
-3730.4652033817028
 21
1173.2747048696581
 31
0.0
  0
LINE
  5
F52
  8
BALSA_1_5
 10
-3754.087585381702
 20
1172.5953948696581
 30
0.0
 11
-3754.087585381702
 21
1177.5953948696581
 31
0.0
  0
LINE
  5
F53
  8
BALSA_1_5
 10
-3684.856923381702
 20
1186.8121448696579
 30
0.0
 11
-3694.861083381702
 21
1188.2258648696579
 31
0.0
  0
LINE
  5
F54
  8
BALSA_1_5
 10
-3675.1506033817
 20
1185.4065848696571
 30
0.0
 11
-3684.856923381702
 21
1186.8121448696579
 31
0.0
  0
LINE
  5
F55
  8
BALSA_1_5
 10
-3657.161883381702
 20
1182.750504869658
 30
0.0
 11
-3665.8767633817029
 21
1184.0418248696581
 31
0.0
  0
LINE
  5
F56
  8
BALSA_1_5
 10
-3665.8767633817029
 20
1184.0418248696581
 30
0.0
 11
-3675.1506033817
 21
1185.4065848696571
 31
0.0
  0
LINE
  5
F57
  8
BALSA_1_5
 10
-3694.861083381702
 20
1188.2258648696579
 30
0.0
 11
-3705.032523381702
 21
1189.606944869658
 31
0.0
  0
LINE
  5
F58
  8
BALSA_1_5
 10
-3687.580400381702
 20
1215.382435650426
 30
0.0
 11
-3697.3884003817029
 21
1216.768435650428
 31
0.0
  0
LINE
  5
F59
  8
BALSA_1_5
 10
-3678.0644003817019
 20
1214.0044356504279
 30
0.0
 11
-3687.580400381702
 21
1215.382435650426
 31
0.0
  0
LINE
  5
F5A
  8
BALSA_1_5
 10
-3668.9724003817032
 20
1212.666435650428
 30
0.0
 11
-3678.0644003817019
 21
1214.0044356504279
 31
0.0
  0
LINE
  5
F5B
  8
BALSA_1_5
 10
-3689.4984003817008
 20
1203.4684356504281
 30
0.0
 11
-3679.4764003816999
 21
1203.7824356504279
 31
0.0
  0
LINE
  5
F5C
  8
BALSA_1_5
 10
-3699.9204003817022
 20
1203.138435650427
 30
0.0
 11
-3689.4984003817008
 21
1203.4684356504281
 31
0.0
  0
LINE
  5
F5D
  8
BALSA_1_5
 10
-3669.9744003817
 20
1204.076435650428
 30
0.0
 11
-3661.1104003817009
 21
1204.348435650428
 31
0.0
  0
LINE
  5
F5E
  8
BALSA_1_5
 10
-3661.1104003817009
 20
1204.348435650428
 30
0.0
 11
-3652.9964003817022
 21
1204.6004356504279
 31
0.0
  0
LINE
  5
F5F
  8
BALSA_1_5
 10
-3652.5484003817019
 20
1210.226435650427
 30
0.0
 11
-3660.428400381702
 21
1211.400435650427
 31
0.0
  0
LINE
  5
F60
  8
BALSA_1_5
 10
-3679.4764003816999
 20
1203.7824356504279
 30
0.0
 11
-3669.9744003817
 21
1204.076435650428
 31
0.0
  0
LINE
  5
F61
  8
BALSA_1_5
 10
-3660.428400381702
 20
1211.400435650427
 30
0.0
 11
-3668.9724003817032
 21
1212.666435650428
 31
0.0
  0
LINE
  5
F62
  8
BALSA_1_5
 10
-3692.146132381702
 20
1230.973174068994
 30
0.0
 11
-3682.3245723817008
 21
1231.280894068994
 31
0.0
  0
LINE
  5
F63
  8
BALSA_1_5
 10
-3702.3596923817022
 20
1230.649774068994
 30
0.0
 11
-3692.146132381702
 21
1230.973174068994
 31
0.0
  0
LINE
  5
F64
  8
BALSA_1_5
 10
-3673.0126123817008
 20
1231.569014068994
 30
0.0
 11
-3664.325892381702
 21
1231.835574068994
 31
0.0
  0
LINE
  5
F65
  8
BALSA_1_5
 10
-3664.325892381702
 20
1231.835574068994
 30
0.0
 11
-3656.374172381702
 21
1232.0825340689939
 31
0.0
  0
LINE
  5
F66
  8
BALSA_1_5
 10
-3682.3245723817008
 20
1231.280894068994
 30
0.0
 11
-3673.0126123817008
 21
1231.569014068994
 31
0.0
  0
LINE
  5
F67
  8
BALSA_1_5
 10
-3686.8132833817008
 20
1174.6598648696579
 30
0.0
 11
-3676.5908433817021
 21
1174.980144869656
 31
0.0
  0
LINE
  5
F68
  8
BALSA_1_5
 10
-3697.4437233817021
 20
1174.3232648696551
 30
0.0
 11
-3686.8132833817008
 21
1174.6598648696579
 31
0.0
  0
LINE
  5
F69
  8
BALSA_1_5
 10
-3666.8988033817
 20
1175.280024869656
 30
0.0
 11
-3657.8575233817019
 21
1175.5574648696579
 31
0.0
  0
LINE
  5
F6A
  8
BALSA_1_5
 10
-3676.5908433817021
 20
1174.980144869656
 30
0.0
 11
-3666.8988033817
 21
1175.280024869656
 31
0.0
  0
LINE
  5
F6B
  8
BALSA_1_5
 10
-3702.4064123817011
 20
1272.549832849762
 30
0.0
 11
-3711.979532381702
 21
1273.849672849761
 31
0.0
  0
LINE
  5
F6C
  8
BALSA_1_5
 10
-3715.1033723817009
 20
1259.136712849762
 30
0.0
 11
-3704.8371323817018
 21
1259.4650328497621
 31
0.0
  0
LINE
  5
F6D
  8
BALSA_1_5
 10
-3707.3145723817029
 20
1288.0797679927321
 30
0.0
 11
-3697.517892381702
 21
1288.3899679927331
 31
0.0
  0
LINE
  5
F6E
  8
BALSA_1_5
 10
-3704.9344923817021
 20
1300.891967992733
 30
0.0
 11
-3714.3081723817022
 21
1302.1647279927331
 31
0.0
  0
LINE
  5
F6F
  8
BALSA_1_5
 10
-3699.878332381702
 20
1244.007174068993
 30
0.0
 11
-3709.6508923817019
 21
1245.3340940689941
 31
0.0
  0
LINE
  5
F70
  8
BALSA_1_5
 10
-3725.5040123817012
 20
1258.8045528497621
 30
0.0
 11
-3715.1033723817009
 21
1259.136712849762
 31
0.0
  0
LINE
  5
F71
  8
BALSA_1_5
 10
-3711.979532381702
 20
1273.849672849761
 30
0.0
 11
-3721.5814523817012
 21
1275.0688728497621
 31
0.0
  0
LINE
  5
F72
  8
BALSA_1_5
 10
-3749.492492381702
 20
1277.562952849762
 30
0.0
 11
-3758.087585381701
 21
1277.812602849762
 31
0.0
  0
LINE
  5
F73
  8
BALSA_1_5
 10
-3758.087585381701
 20
1257.840309849762
 30
0.0
 11
-3756.2720123817012
 21
1257.8848728497619
 31
0.0
  0
LINE
  5
F74
  8
BALSA_1_5
 10
-3756.2720123817012
 20
1257.8848728497619
 30
0.0
 11
-3746.2131323817021
 21
1258.1671128497619
 31
0.0
  0
LINE
  5
F75
  8
BALSA_1_5
 10
-3758.087585381701
 20
1271.812602849762
 30
0.0
 11
-3758.087585381701
 21
1277.812602849762
 31
0.0
  0
LINE
  5
F76
  8
BALSA_1_5
 10
-3758.087585381701
 20
1262.840309849762
 30
0.0
 11
-3758.087585381701
 21
1257.840309849762
 31
0.0
  0
LINE
  5
F77
  8
BALSA_1_5
 10
-3735.916172381701
 20
1258.478152849762
 30
0.0
 11
-3725.5040123817012
 21
1258.8045528497621
 31
0.0
  0
LINE
  5
F78
  8
BALSA_1_5
 10
-3731.0892923817019
 20
1276.144072849763
 30
0.0
 11
-3740.4108923817021
 21
1276.994632849762
 31
0.0
  0
LINE
  5
F79
  8
BALSA_1_5
 10
-3721.5814523817012
 20
1275.0688728497621
 30
0.0
 11
-3731.0892923817019
 21
1276.144072849763
 31
0.0
  0
LINE
  5
F7A
  8
BALSA_1_5
 10
-3746.2131323817021
 20
1258.1671128497619
 30
0.0
 11
-3735.916172381701
 21
1258.478152849762
 31
0.0
  0
LINE
  5
F7B
  8
BALSA_1_5
 10
-3740.4108923817021
 20
1276.994632849762
 30
0.0
 11
-3749.492492381702
 21
1277.562952849762
 31
0.0
  0
LINE
  5
F7C
  8
BALSA_1_5
 10
-3727.550892381701
 20
1287.433047992733
 30
0.0
 11
-3717.3669323817021
 21
1287.758287992732
 31
0.0
  0
LINE
  5
F7D
  8
BALSA_1_5
 10
-3714.3081723817022
 20
1302.1647279927331
 30
0.0
 11
-3723.7100523817021
 21
1303.358527992732
 31
0.0
  0
LINE
  5
F7E
  8
BALSA_1_5
 10
-3717.3669323817021
 20
1287.758287992732
 30
0.0
 11
-3707.3145723817029
 21
1288.0797679927321
 31
0.0
  0
LINE
  5
F7F
  8
BALSA_1_5
 10
-3759.4209193817019
 20
1300.044087992731
 30
0.0
 11
-3759.4209193817019
 21
1306.044087992731
 31
0.0
  0
LINE
  5
F80
  8
BALSA_1_5
 10
-3723.7100523817021
 20
1303.358527992732
 30
0.0
 11
-3733.0198123816999
 21
1304.4113279927319
 31
0.0
  0
LINE
  5
F81
  8
BALSA_1_5
 10
-3759.4209193817019
 20
1286.489745992732
 30
0.0
 11
-3757.6778923817019
 21
1286.5325279927331
 31
0.0
  0
LINE
  5
F82
  8
BALSA_1_5
 10
-3757.6778923817019
 20
1286.5325279927331
 30
0.0
 11
-3747.8285723817021
 21
1286.808887992732
 31
0.0
  0
LINE
  5
F83
  8
BALSA_1_5
 10
-3759.4209193817019
 20
1286.489745992732
 30
0.0
 11
-3759.4209193817019
 21
1291.4897459927331
 31
0.0
  0
LINE
  5
F84
  8
BALSA_1_5
 10
-3737.746132381702
 20
1287.113447992733
 30
0.0
 11
-3727.550892381701
 21
1287.433047992733
 31
0.0
  0
LINE
  5
F85
  8
BALSA_1_5
 10
-3747.8285723817021
 20
1286.808887992732
 30
0.0
 11
-3737.746132381702
 21
1287.113447992733
 31
0.0
  0
LINE
  5
F86
  8
BALSA_1_5
 10
-3751.0396123817009
 20
1305.800647992733
 30
0.0
 11
-3759.4209193817019
 21
1306.044087992731
 31
0.0
  0
LINE
  5
F87
  8
BALSA_1_5
 10
-3733.0198123816999
 20
1304.4113279927319
 30
0.0
 11
-3742.147212381702
 21
1305.2441679927319
 31
0.0
  0
LINE
  5
F88
  8
BALSA_1_5
 10
-3742.147212381702
 20
1305.2441679927319
 30
0.0
 11
-3751.0396123817009
 21
1305.800647992733
 31
0.0
  0
LINE
  5
F89
  8
BALSA_1_5
 10
-3719.4528523817021
 20
1246.5786940689941
 30
0.0
 11
-3729.158772381702
 21
1247.6762940689939
 31
0.0
  0
LINE
  5
F8A
  8
BALSA_1_5
 10
-3709.6508923817019
 20
1245.3340940689941
 30
0.0
 11
-3719.4528523817021
 21
1246.5786940689941
 31
0.0
  0
LINE
  5
F8B
  8
BALSA_1_5
 10
-3747.9453723817019
 20
1249.124734068994
 30
0.0
 11
-3756.7542523817019
 21
1249.380594068994
 31
0.0
  0
LINE
  5
F8C
  8
BALSA_1_5
 10
-3738.6745723817021
 20
1248.544574068992
 30
0.0
 11
-3747.9453723817019
 21
1249.124734068994
 31
0.0
  0
LINE
  5
F8D
  8
BALSA_1_5
 10
-3756.7542523817019
 20
1249.380594068994
 30
0.0
 11
-3756.7542523817019
 21
1243.380594068994
 31
0.0
  0
LINE
  5
F8E
  8
BALSA_1_5
 10
-3729.158772381702
 20
1247.6762940689939
 30
0.0
 11
-3738.6745723817021
 21
1248.544574068992
 31
0.0
  0
LINE
  5
F8F
  8
BALSA_1_5
 10
-3694.832012381702
 20
1259.7818328497619
 30
0.0
 11
-3685.2108923817018
 21
1260.0832728497619
 31
0.0
  0
LINE
  5
F90
  8
BALSA_1_5
 10
-3704.8371323817018
 20
1259.4650328497621
 30
0.0
 11
-3694.832012381702
 21
1259.7818328497619
 31
0.0
  0
LINE
  5
F91
  8
BALSA_1_5
 10
-3692.990732381701
 20
1271.219272849761
 30
0.0
 11
-3702.4064123817011
 21
1272.549832849762
 31
0.0
  0
LINE
  5
F92
  8
BALSA_1_5
 10
-3683.8553723817022
 20
1269.896392849761
 30
0.0
 11
-3692.990732381701
 21
1271.219272849761
 31
0.0
  0
LINE
  5
F93
  8
BALSA_1_5
 10
-3666.9248123817028
 20
1267.3965528497631
 30
0.0
 11
-3675.127052381702
 21
1268.611912849761
 31
0.0
  0
LINE
  5
F94
  8
BALSA_1_5
 10
-3676.0889723816999
 20
1260.365512849761
 30
0.0
 11
-3667.5795323817028
 21
1260.626632849762
 31
0.0
  0
LINE
  5
F95
  8
BALSA_1_5
 10
-3659.790092381701
 20
1260.868552849762
 30
0.0
 11
-3652.8128123817019
 21
1261.093192849761
 31
0.0
  0
LINE
  5
F96
  8
BALSA_1_5
 10
-3667.5795323817028
 20
1260.626632849762
 30
0.0
 11
-3659.790092381701
 21
1260.868552849762
 31
0.0
  0
LINE
  5
F97
  8
BALSA_1_5
 10
-3659.3600123817018
 20
1266.2695128497619
 30
0.0
 11
-3666.9248123817028
 21
1267.3965528497631
 31
0.0
  0
LINE
  5
F98
  8
BALSA_1_5
 10
-3685.2108923817018
 20
1260.0832728497619
 30
0.0
 11
-3676.0889723816999
 21
1260.365512849761
 31
0.0
  0
LINE
  5
F99
  8
BALSA_1_5
 10
-3675.127052381702
 20
1268.611912849761
 30
0.0
 11
-3683.8553723817022
 21
1269.896392849761
 31
0.0
  0
LINE
  5
F9A
  8
BALSA_1_5
 10
-3652.5420923816991
 20
1265.2499928497621
 30
0.0
 11
-3659.3600123817018
 21
1266.2695128497619
 31
0.0
  0
LINE
  5
F9B
  8
BALSA_1_5
 10
-3697.517892381702
 20
1288.3899679927331
 30
0.0
 11
-3688.097212381701
 21
1288.6851279927321
 31
0.0
  0
LINE
  5
F9C
  8
BALSA_1_5
 10
-3695.714972381701
 20
1299.5891279927321
 30
0.0
 11
-3704.9344923817021
 21
1300.891967992733
 31
0.0
  0
LINE
  5
F9D
  8
BALSA_1_5
 10
-3686.769932381701
 20
1298.293807992733
 30
0.0
 11
-3695.714972381701
 21
1299.5891279927321
 31
0.0
  0
LINE
  5
F9E
  8
BALSA_1_5
  6
DISCONTINU2
 10
-3670.754252381701
 20
1289.2196189927331
 30
0.0
 11
-3670.754252381701
 21
1295.929345992733
 31
0.0
  0
LINE
  5
F9F
  8
BALSA_1_5
 10
-3670.192092381702
 20
1295.846047992733
 30
0.0
 11
-3678.223452381701
 21
1297.036087992733
 31
0.0
  0
LINE
  5
FA0
  8
BALSA_1_5
 10
-3679.1653323817009
 20
1288.9614879927331
 30
0.0
 11
-3670.8331723817009
 21
1289.2171679927319
 31
0.0
  0
LINE
  5
FA1
  8
BALSA_1_5
 10
-3670.8331723817009
 20
1289.2171679927319
 30
0.0
 11
-3663.2060123817018
 21
1289.45404799273
 31
0.0
  0
LINE
  5
FA2
  8
BALSA_1_5
 10
-3662.7848923817028
 20
1294.742487992733
 30
0.0
 11
-3670.192092381702
 21
1295.846047992733
 31
0.0
  0
LINE
  5
FA3
  8
BALSA_1_5
  6
DISCONTINU2
 10
-3680.754252381701
 20
1297.408525992731
 30
0.0
 11
-3680.754252381701
 21
1288.912324992732
 31
0.0
  0
LINE
  5
FA4
  8
BALSA_1_5
 10
-3688.097212381701
 20
1288.6851279927321
 30
0.0
 11
-3679.1653323817009
 21
1288.9614879927331
 31
0.0
  0
LINE
  5
FA5
  8
BALSA_1_5
 10
-3678.223452381701
 20
1297.036087992733
 30
0.0
 11
-3686.769932381701
 21
1298.293807992733
 31
0.0
  0
LINE
  5
FA6
  8
BALSA_1_5
 10
-3656.3740923817022
 20
1289.6740079927331
 30
0.0
 11
-3652.7542523817019
 21
1289.8079909927319
 31
0.0
  0
LINE
  5
FA7
  8
BALSA_1_5
 10
-3652.7542523817019
 20
1293.235060992731
 30
0.0
 11
-3656.1090123817021
 21
1293.744207992733
 31
0.0
  0
LINE
  5
FA8
  8
BALSA_1_5
 10
-3652.7542523817019
 20
1289.8079909927319
 30
0.0
 11
-3652.7542523817019
 21
1293.235060992731
 31
0.0
  0
LINE
  5
FA9
  8
BALSA_1_5
 10
-3663.2060123817018
 20
1289.45404799273
 30
0.0
 11
-3656.3740923817022
 21
1289.6740079927331
 31
0.0
  0
LINE
  5
FAA
  8
BALSA_1_5
 10
-3656.1090123817021
 20
1293.744207992733
 30
0.0
 11
-3662.7848923817028
 21
1294.742487992733
 31
0.0
  0
LINE
  5
FAB
  8
BALSA_1_5
 10
-3690.266492381701
 20
1242.6488940689931
 30
0.0
 11
-3699.878332381702
 21
1244.007174068993
 31
0.0
  0
LINE
  5
FAC
  8
BALSA_1_5
 10
-3680.940812381702
 20
1241.298454068994
 30
0.0
 11
-3690.266492381701
 21
1242.6488940689931
 31
0.0
  0
LINE
  5
FAD
  8
BALSA_1_5
 10
-3663.657532381701
 20
1238.7465340689939
 30
0.0
 11
-3672.0306523817012
 21
1239.987214068994
 31
0.0
  0
LINE
  5
FAE
  8
BALSA_1_5
 10
-3655.9351323817009
 20
1237.596014068994
 30
0.0
 11
-3663.657532381701
 21
1238.7465340689939
 31
0.0
  0
LINE
  5
FAF
  8
BALSA_1_5
 10
-3672.0306523817012
 20
1239.987214068994
 30
0.0
 11
-3680.940812381702
 21
1241.298454068994
 31
0.0
  0
LINE
  5
FB0
  8
BALSA_1_5
 10
-3644.754252381701
 20
1232.478314068994
 30
0.0
 11
-3644.754252381701
 21
1235.9146510689941
 31
0.0
  0
TEXT
  5
FB1
  8
COPERTURA_1MM
 10
-3637.8609030681901
 20
1184.9688021259501
 30
0.0
 40
5.0
  1
A06-Balsa 1,5mm
  0
TEXT
  5
FB2
  8
COPERTURA_1MM
 10
-3637.8609030681901
 20
1214.672153954102
 30
0.0
 40
5.0
  1
A07-Balsa 1,5mm
  0
LINE
  5
FB3
  8
BALSA_1_5
 10
-3641.8802433817018
 20
1180.469784869658
 30
0.0
 11
-3649.1242833817018
 21
1181.553024869658
 31
0.0
  0
LINE
  5
FB4
  8
BALSA_1_5
 10
-3649.5812433817018
 20
1175.8145048696581
 30
0.0
 11
-3642.1678833817018
 21
1176.053184869658
 31
0.0
  0
LINE
  5
FB5
  8
BALSA_1_5
 10
-3649.251532381702
 20
1232.3118540689941
 30
0.0
 11
-3644.754252381701
 21
1232.478314068994
 31
0.0
  0
LINE
  5
FB6
  8
BALSA_1_5
 10
-3636.754252381701
 20
1176.253562869658
 30
0.0
 11
-3636.754252381701
 21
1179.6918208696579
 31
0.0
  0
LINE
  5
FB7
  8
BALSA_1_5
 10
-3642.1678833817018
 20
1176.053184869658
 30
0.0
 11
-3636.754252381701
 21
1176.253562869658
 31
0.0
  0
LINE
  5
FB8
  8
BALSA_1_5
 10
-3636.754252381701
 20
1179.6918208696579
 30
0.0
 11
-3641.8802433817018
 21
1180.469784869658
 31
0.0
  0
LINE
  5
FB9
  8
BALSA_1_5
 10
-3640.754252381701
 20
1205.0185466504281
 30
0.0
 11
-3640.754252381701
 21
1208.452315650426
 31
0.0
  0
LINE
  5
FBA
  8
BALSA_1_5
 10
-3645.7284003817022
 20
1204.8344356504281
 30
0.0
 11
-3640.754252381701
 21
1205.0185466504281
 31
0.0
  0
LINE
  5
FBB
  8
BALSA_1_5
 10
-3640.754252381701
 20
1208.452315650426
 30
0.0
 11
-3645.446400381702
 21
1209.164435650428
 31
0.0
  0
TEXT
  5
FBC
  8
COPERTURA_1MM
 10
-3637.8609030681901
 20
1269.437707761434
 30
0.0
 40
5.0
  1
A09-Balsa 1,5mm
  0
TEXT
  5
FBD
  8
COPERTURA_1MM
 10
-3637.8609030681901
 20
1241.5908086676141
 30
0.0
 40
5.0
  1
A08-Balsa 1,5mm
  0
LINE
  5
FBE
  8
BALSA_1_5
 10
-3648.754252381701
 20
1261.2434148497621
 30
0.0
 11
-3648.754252381701
 21
1264.675117849762
 31
0.0
  0
LINE
  5
FBF
  8
BALSA_1_5
 10
-3644.754252381701
 20
1235.9146510689941
 30
0.0
 11
-3648.9751723817012
 21
1236.5552540689939
 31
0.0
  0
LINE
  5
FC0
  8
BALSA_1_5
 10
-3704.754252381701
 20
1461.0575685165379
 30
0.0
 11
-3704.754252381701
 21
1456.0575685165379
 31
0.0
  0
LINE
  5
FC1
  8
BALSA_1_5
 10
-3704.754252381701
 20
1461.0575685165379
 30
0.0
 11
-3704.754252381701
 21
1456.0575685165379
 31
0.0
  0
TEXT
  5
FC2
  8
COPERTURA_1MM
 10
-3679.6858424458942
 20
1409.6004025779971
 30
0.0
 40
5.0
  1
A14-Balsa 1,5mm
  0
TEXT
  5
FC3
  8
COPERTURA_1MM
 10
-3679.6858424458942
 20
1435.590839930916
 30
0.0
 40
5.0
  1
A15-Balsa 1,5mm
  0
LINE
  5
FC4
  8
BALSA_1_5
 10
-3649.1124923817019
 20
1319.7023852947
 30
0.0
 11
-3653.9535323817022
 21
1320.4715052946999
 31
0.0
  0
LINE
  5
FC5
  8
BALSA_1_5
 10
-3654.119132381702
 20
1317.571665294701
 30
0.0
 11
-3649.215532381701
 21
1317.807185294701
 31
0.0
  0
TEXT
  5
FC6
  8
COPERTURA_1MM
 10
-3652.731997390189
 20
1327.916185050577
 30
0.0
 40
5.0
  1
A11-Balsa 1,5mm
  0
TEXT
  5
FC7
  8
COPERTURA_1MM
 10
-3679.6858424458942
 20
1353.906622403498
 30
0.0
 40
5.0
  1
A12-Balsa 1,5mm
  0
TEXT
  5
FC8
  8
COPERTURA_1MM
 10
-3679.6858424458942
 20
1379.897050749845
 30
0.0
 40
5.0
  1
A13-Balsa 1,5mm
  0
LINE
  5
FC9
  8
BALSA_1_5
 10
-3721.2940923817018
 20
1382.513541377436
 30
0.0
 11
-3730.0958523817012
 21
1383.631141377437
 31
0.0
  0
LINE
  5
FCA
  8
BALSA_1_5
 10
-3698.439212381702
 20
1327.0605452947009
 30
0.0
 11
-3707.4625723817021
 21
1328.3356652947
 31
0.0
  0
LINE
  5
FCB
  8
BALSA_1_5
 10
-3712.2694523817008
 20
1341.8118389588701
 30
0.0
 11
-3702.8896523817011
 21
1342.1088389588699
 31
0.0
  0
LINE
  5
FCC
  8
BALSA_1_5
 10
-3701.163452381702
 20
1352.83143895887
 30
0.0
 11
-3709.9906523817008
 21
1354.0788389588699
 31
0.0
  0
LINE
  5
FCD
  8
BALSA_1_5
 10
-3714.7468923817019
 20
1369.327621377437
 30
0.0
 11
-3705.575532381702
 21
1369.618021377436
 31
0.0
  0
LINE
  5
FCE
  8
BALSA_1_5
 10
-3703.8876923817029
 20
1380.1023413774369
 30
0.0
 11
-3712.5187323817008
 21
1381.3220213774371
 31
0.0
  0
LINE
  5
FCF
  8
BALSA_1_5
 10
-3709.7920123817021
 20
1315.7960652946999
 30
0.0
 11
-3700.2037723817011
 21
1316.099665294701
 31
0.0
  0
LINE
  5
FD0
  8
BALSA_1_5
 10
-3724.1576123817022
 20
1369.026661377437
 30
0.0
 11
-3714.7468923817019
 21
1369.327621377437
 31
0.0
  0
LINE
  5
FD1
  8
BALSA_1_5
 10
-3718.9654523817021
 20
1355.297438958869
 30
0.0
 11
-3727.9672523817021
 21
1356.4404389588699
 31
0.0
  0
LINE
  5
FD2
  8
BALSA_1_5
 10
-3721.8940523817009
 20
1341.504038958868
 30
0.0
 11
-3712.2694523817008
 21
1341.8118389588701
 31
0.0
  0
LINE
  5
FD3
  8
BALSA_1_5
 10
-3716.636812381701
 20
1329.5813452947
 30
0.0
 11
-3725.8386523817012
 21
1330.7497452947
 31
0.0
  0
LINE
  5
FD4
  8
BALSA_1_5
 10
-3707.4625723817021
 20
1328.3356652947
 30
0.0
 11
-3716.636812381701
 21
1329.5813452947
 31
0.0
  0
LINE
  5
FD5
  8
BALSA_1_5
 10
-3709.9906523817008
 20
1354.0788389588699
 30
0.0
 11
-3718.9654523817021
 21
1355.297438958869
 31
0.0
  0
LINE
  5
FD6
  8
BALSA_1_5
 10
-3752.586732381701
 20
1333.139905294699
 30
0.0
 11
-3760.754252381701
 21
1333.3771362947
 31
0.0
  0
LINE
  5
FD7
  8
BALSA_1_5
 10
-3762.087585381701
 20
1340.29121795887
 30
0.0
 11
-3760.4896523817019
 21
1340.3304389588691
 31
0.0
  0
LINE
  5
FD8
  8
BALSA_1_5
 10
-3762.087585381701
 20
1340.29121795887
 30
0.0
 11
-3762.087585381701
 21
1345.29121795887
 31
0.0
  0
LINE
  5
FD9
  8
BALSA_1_5
 10
-3760.754252381701
 20
1333.3771362947
 30
0.0
 11
-3760.754252381701
 21
1327.3771362947
 31
0.0
  0
LINE
  5
FDA
  8
BALSA_1_5
 10
-3734.9503323817021
 20
1331.780145294701
 30
0.0
 11
-3743.883532381702
 21
1332.5952652947001
 31
0.0
  0
LINE
  5
FDB
  8
BALSA_1_5
 10
-3725.8386523817012
 20
1330.7497452947
 30
0.0
 11
-3734.9503323817021
 21
1331.780145294701
 31
0.0
  0
LINE
  5
FDC
  8
BALSA_1_5
 10
-3751.0594523817022
 20
1340.59503895887
 30
0.0
 11
-3741.406052381702
 21
1340.88663895887
 31
0.0
  0
LINE
  5
FDD
  8
BALSA_1_5
 10
-3741.406052381702
 20
1340.88663895887
 30
0.0
 11
-3731.6446523817021
 21
1341.1926389588691
 31
0.0
  0
LINE
  5
FDE
  8
BALSA_1_5
 10
-3743.883532381702
 20
1332.5952652947001
 30
0.0
 11
-3752.586732381701
 21
1333.139905294699
 31
0.0
  0
LINE
  5
FDF
  8
BALSA_1_5
 10
-3760.4896523817019
 20
1340.3304389588691
 30
0.0
 11
-3751.0594523817022
 21
1340.59503895887
 31
0.0
  0
LINE
  5
FE0
  8
BALSA_1_5
 10
-3731.6446523817021
 20
1341.1926389588691
 30
0.0
 11
-3721.8940523817009
 21
1341.504038958868
 31
0.0
  0
LINE
  5
FE1
  8
BALSA_1_5
 10
-3762.087585381701
 20
1359.0096599588701
 30
0.0
 11
-3762.087585381701
 21
1353.009659958869
 31
0.0
  0
LINE
  5
FE2
  8
BALSA_1_5
 10
-3736.880852381702
 20
1357.448438958869
 30
0.0
 11
-3745.619852381702
 21
1358.245838958868
 31
0.0
  0
LINE
  5
FE3
  8
BALSA_1_5
 10
-3727.9672523817021
 20
1356.4404389588699
 30
0.0
 11
-3736.880852381702
 21
1357.448438958869
 31
0.0
  0
LINE
  5
FE4
  8
BALSA_1_5
 10
-3745.619852381702
 20
1358.245838958868
 30
0.0
 11
-3754.1338523817021
 21
1358.77863895887
 31
0.0
  0
LINE
  5
FE5
  8
BALSA_1_5
 10
-3752.6748923817022
 20
1368.137861377437
 30
0.0
 11
-3743.236012381702
 21
1368.4229813774371
 31
0.0
  0
LINE
  5
FE6
  8
BALSA_1_5
 10
-3743.236012381702
 20
1368.4229813774371
 30
0.0
 11
-3733.691532381702
 21
1368.722181377437
 31
0.0
  0
LINE
  5
FE7
  8
BALSA_1_5
 10
-3754.1338523817021
 20
1358.77863895887
 30
0.0
 11
-3762.087585381701
 21
1359.0096599588701
 31
0.0
  0
LINE
  5
FE8
  8
BALSA_1_5
 10
-3761.8955323817022
 20
1367.879141377437
 30
0.0
 11
-3752.6748923817022
 21
1368.137861377437
 31
0.0
  0
LINE
  5
FE9
  8
BALSA_1_5
 10
-3733.691532381702
 20
1368.722181377437
 30
0.0
 11
-3724.1576123817022
 21
1369.026661377437
 31
0.0
  0
LINE
  5
FEA
  8
BALSA_1_5
 10
-3712.5187323817008
 20
1381.3220213774371
 30
0.0
 11
-3721.2940923817018
 21
1382.513541377436
 31
0.0
  0
LINE
  5
FEB
  8
BALSA_1_5
 10
-3729.5977723817009
 20
1315.1631052947
 30
0.0
 11
-3719.630492381702
 21
1315.481425294701
 31
0.0
  0
LINE
  5
FEC
  8
BALSA_1_5
 10
-3719.630492381702
 20
1315.481425294701
 30
0.0
 11
-3709.7920123817021
 21
1315.7960652946999
 31
0.0
  0
LINE
  5
FED
  8
BALSA_1_5
 10
-3760.754252381701
 20
1314.2407432947
 30
0.0
 11
-3759.0837723817021
 21
1314.281745294699
 31
0.0
  0
LINE
  5
FEE
  8
BALSA_1_5
 10
-3760.754252381701
 20
1314.2407432947
 30
0.0
 11
-3760.754252381701
 21
1319.2407432947
 31
0.0
  0
LINE
  5
FEF
  8
BALSA_1_5
 10
-3749.4440123817021
 20
1314.552225294701
 30
0.0
 11
-3739.576092381702
 21
1314.850305294701
 31
0.0
  0
LINE
  5
FF0
  8
BALSA_1_5
 10
-3739.576092381702
 20
1314.850305294701
 30
0.0
 11
-3729.5977723817009
 21
1315.1631052947
 31
0.0
  0
LINE
  5
FF1
  8
BALSA_1_5
 10
-3759.0837723817021
 20
1314.281745294699
 30
0.0
 11
-3749.4440123817021
 21
1314.552225294701
 31
0.0
  0
LINE
  5
FF2
  8
BALSA_1_5
 10
-3682.754252381701
 20
1370.326135377436
 30
0.0
 11
-3682.754252381701
 21
1372.416529377437
 31
0.0
  0
LINE
  5
FF3
  8
BALSA_1_5
  6
DISCONTINU2
 10
-3687.7542523817028
 20
1370.1727053774371
 30
0.0
 11
-3687.7542523817028
 21
1373.156502377436
 31
0.0
  0
LINE
  5
FF4
  8
BALSA_1_5
 10
-3689.6844923817021
 20
1325.7927852947
 30
0.0
 11
-3698.439212381702
 21
1327.0605452947009
 31
0.0
  0
LINE
  5
FF5
  8
BALSA_1_5
 10
-3684.7542523817019
 20
1325.0672392946999
 30
0.0
 11
-3689.6844923817021
 21
1325.7927852947
 31
0.0
  0
LINE
  5
FF6
  8
BALSA_1_5
 10
-3688.7542523817019
 20
1351.02542895887
 30
0.0
 11
-3688.7542523817019
 21
1346.434115958868
 31
0.0
  0
LINE
  5
FF7
  8
BALSA_1_5
 10
-3685.3180523817009
 20
1342.656038958869
 30
0.0
 11
-3678.7542523816992
 21
1342.85745495887
 31
0.0
  0
LINE
  5
FF8
  8
BALSA_1_5
 10
-3693.869852381702
 20
1342.3914389588699
 30
0.0
 11
-3685.3180523817009
 21
1342.656038958869
 31
0.0
  0
LINE
  5
FF9
  8
BALSA_1_5
 10
-3678.7542523816992
 20
1342.85745495887
 30
0.0
 11
-3678.7542523816992
 21
1344.95741695887
 31
0.0
  0
LINE
  5
FFA
  8
BALSA_1_5
  6
DISCONTINU2
 10
-3683.7542523817028
 20
1342.70402595887
 30
0.0
 11
-3683.7542523817028
 21
1345.69828795887
 31
0.0
  0
LINE
  5
FFB
  8
BALSA_1_5
 10
-3683.770412381702
 20
1345.700681958868
 30
0.0
 11
-3688.7542523817019
 21
1346.434115958868
 31
0.0
  0
LINE
  5
FFC
  8
BALSA_1_5
 10
-3678.7542523816992
 20
1344.95741695887
 30
0.0
 11
-3683.770412381702
 21
1345.700681958868
 31
0.0
  0
LINE
  5
FFD
  8
BALSA_1_5
 10
-3702.8896523817011
 20
1342.1088389588699
 30
0.0
 11
-3693.869852381702
 21
1342.3914389588699
 31
0.0
  0
LINE
  5
FFE
  8
BALSA_1_5
 10
-3688.7542523817019
 20
1351.02542895887
 30
0.0
 11
-3692.5990523817022
 21
1351.59123895887
 31
0.0
  0
LINE
  5
FFF
  8
BALSA_1_5
 10
-3688.3944123817
 20
1370.1530613774351
 30
0.0
 11
-3682.754252381701
 21
1370.326135377436
 31
0.0
  0
LINE
  5
1000
  8
BALSA_1_5
 10
-3696.7561723817021
 20
1369.8943413774371
 30
0.0
 11
-3688.3944123817
 21
1370.1530613774351
 31
0.0
  0
LINE
  5
1001
  8
BALSA_1_5
 10
-3692.5990523817022
 20
1351.59123895887
 30
0.0
 11
-3701.163452381702
 21
1352.83143895887
 31
0.0
  0
LINE
  5
1002
  8
BALSA_1_5
 10
-3705.575532381702
 20
1369.618021377436
 30
0.0
 11
-3696.7561723817021
 21
1369.8943413774371
 31
0.0
  0
LINE
  5
1003
  8
BALSA_1_5
 10
-3692.7542523817019
 20
1378.483627377437
 30
0.0
 11
-3695.513612381701
 21
1378.889701377436
 31
0.0
  0
LINE
  5
1004
  8
BALSA_1_5
 10
-3692.7542523817019
 20
1378.483627377437
 30
0.0
 11
-3692.7542523817019
 21
1373.8923143774371
 31
0.0
  0
LINE
  5
1005
  8
BALSA_1_5
 10
-3686.866812381701
 20
1373.025904377437
 30
0.0
 11
-3692.7542523817019
 21
1373.8923143774371
 31
0.0
  0
LINE
  5
1006
  8
BALSA_1_5
 10
-3682.754252381701
 20
1372.416529377437
 30
0.0
 11
-3686.866812381701
 21
1373.025904377437
 31
0.0
  0
LINE
  5
1007
  8
BALSA_1_5
 10
-3695.513612381701
 20
1378.889701377436
 30
0.0
 11
-3703.8876923817029
 21
1380.1023413774369
 31
0.0
  0
LINE
  5
1008
  8
BALSA_1_5
 10
-3700.2037723817011
 20
1316.099665294701
 30
0.0
 11
-3690.983532381701
 21
1316.388545294699
 31
0.0
  0
LINE
  5
1009
  8
BALSA_1_5
  6
DISCONTINU2
 10
-3679.754252381701
 20
1316.735354294701
 30
0.0
 11
-3679.754252381701
 21
1319.739183294701
 31
0.0
  0
LINE
  5
100A
  8
BALSA_1_5
 10
-3673.4593723817029
 20
1323.3971052946999
 30
0.0
 11
-3674.754252381701
 21
1323.588973294701
 31
0.0
  0
LINE
  5
100B
  8
BALSA_1_5
 10
-3682.2416923817009
 20
1316.659025294701
 30
0.0
 11
-3674.0868123816999
 21
1316.9092652946999
 31
0.0
  0
LINE
  5
100C
  8
BALSA_1_5
 10
-3674.0868123816999
 20
1316.9092652946999
 30
0.0
 11
-3666.6219323817008
 21
1317.141105294701
 31
0.0
  0
LINE
  5
100D
  8
BALSA_1_5
 10
-3666.209772381701
 20
1322.3170252947
 30
0.0
 11
-3673.4593723817029
 21
1323.3971052946999
 31
0.0
  0
LINE
  5
100E
  8
BALSA_1_5
 10
-3674.754252381701
 20
1316.888784294699
 30
0.0
 11
-3674.754252381701
 21
1323.588973294701
 31
0.0
  0
LINE
  5
100F
  8
BALSA_1_5
 10
-3680.6740123817008
 20
1319.875468294701
 30
0.0
 11
-3684.7542523817019
 21
1320.4759262947
 31
0.0
  0
LINE
  5
1010
  8
BALSA_1_5
 10
-3674.754252381701
 20
1318.9983132947
 30
0.0
 11
-3680.6740123817008
 21
1319.875468294701
 31
0.0
  0
LINE
  5
1011
  8
BALSA_1_5
 10
-3690.983532381701
 20
1316.388545294699
 30
0.0
 11
-3682.2416923817009
 21
1316.659025294701
 31
0.0
  0
LINE
  5
1012
  8
BALSA_1_5
 10
-3659.9353723817021
 20
1317.3563852947011
 30
0.0
 11
-3654.119132381702
 21
1317.571665294701
 31
0.0
  0
LINE
  5
1013
  8
BALSA_1_5
 10
-3653.9535323817022
 20
1320.4715052946999
 30
0.0
 11
-3659.6759323817018
 21
1321.3399852947
 31
0.0
  0
LINE
  5
1014
  8
BALSA_1_5
 10
-3666.6219323817008
 20
1317.141105294701
 30
0.0
 11
-3659.9353723817021
 21
1317.3563852947011
 31
0.0
  0
LINE
  5
1015
  8
BALSA_1_5
 10
-3659.6759323817018
 20
1321.3399852947
 30
0.0
 11
-3666.209772381701
 21
1322.3170252947
 31
0.0
  0
LINE
  5
1016
  8
BALSA_1_5
 10
-3684.7542523817019
 20
1325.0672392946999
 30
0.0
 11
-3684.7542523817019
 21
1320.4759262947
 31
0.0
  0
LINE
  5
1017
  8
BALSA_1_5
 10
-3706.6119323817029
 20
1407.573758679403
 30
0.0
 11
-3715.0468123817018
 21
1408.7657186794031
 31
0.0
  0
LINE
  5
1018
  8
BALSA_1_5
 10
-3710.947292381702
 20
1423.537424735769
 30
0.0
 11
-3702.5288123817022
 21
1423.8011847357691
 31
0.0
  0
LINE
  5
1019
  8
BALSA_1_5
 10
-3701.3427323817018
 20
1432.387664735769
 30
0.0
 11
-3709.336172381702
 21
1433.545184735769
 31
0.0
  0
LINE
  5
101A
  8
BALSA_1_5
 10
-3713.633172381702
 20
1452.346084516538
 30
0.0
 11
-3705.4151323817009
 21
1452.603564516538
 31
0.0
  0
LINE
  5
101B
  8
BALSA_1_5
 10
-3708.261412381702
 20
1397.327718679403
 30
0.0
 11
-3699.6424923817021
 21
1397.597758679404
 31
0.0
  0
LINE
  5
101C
  8
BALSA_1_5
 10
-3715.0468123817018
 20
1408.7657186794031
 30
0.0
 11
-3723.622732381702
 21
1409.930158679404
 31
0.0
  0
LINE
  5
101D
  8
BALSA_1_5
 10
-3740.7418923817022
 20
1411.985558679404
 30
0.0
 11
-3749.092492381702
 21
1412.747518679404
 31
0.0
  0
LINE
  5
101E
  8
BALSA_1_5
 10
-3749.092492381702
 20
1412.747518679404
 30
0.0
 11
-3757.2280923817011
 21
1413.256638679404
 31
0.0
  0
LINE
  5
101F
  8
BALSA_1_5
 10
-3723.622732381702
 20
1409.930158679404
 30
0.0
 11
-3732.2244523817021
 21
1411.022358679405
 31
0.0
  0
LINE
  5
1020
  8
BALSA_1_5
 10
-3732.2244523817021
 20
1411.022358679405
 30
0.0
 11
-3740.7418923817022
 21
1411.985558679404
 31
0.0
  0
LINE
  5
1021
  8
BALSA_1_5
 10
-3728.684732381701
 20
1422.972944735769
 30
0.0
 11
-3719.7017723817021
 21
1423.260224735769
 31
0.0
  0
LINE
  5
1022
  8
BALSA_1_5
 10
-3717.5748923817009
 20
1434.7094247357691
 30
0.0
 11
-3725.9513723817008
 21
1435.846784735769
 31
0.0
  0
LINE
  5
1023
  8
BALSA_1_5
 10
-3722.1792123817022
 20
1452.0754845165379
 30
0.0
 11
-3713.633172381702
 21
1452.346084516538
 31
0.0
  0
LINE
  5
1024
  8
BALSA_1_5
 10
-3719.7017723817021
 20
1423.260224735769
 30
0.0
 11
-3710.947292381702
 21
1423.537424735769
 31
0.0
  0
LINE
  5
1025
  8
BALSA_1_5
 10
-3709.336172381702
 20
1433.545184735769
 30
0.0
 11
-3717.5748923817009
 21
1434.7094247357691
 31
0.0
  0
LINE
  5
1026
  8
BALSA_1_5
 10
-3755.9057723817009
 20
1422.124544735768
 30
0.0
 11
-3746.8959323817012
 21
1422.396704735768
 31
0.0
  0
LINE
  5
1027
  8
BALSA_1_5
 10
-3746.8959323817012
 20
1422.396704735768
 30
0.0
 11
-3737.7852923817009
 21
1422.6823047357691
 31
0.0
  0
LINE
  5
1028
  8
BALSA_1_5
 10
-3742.6724123817021
 20
1437.854384735768
 30
0.0
 11
-3750.828812381701
 21
1438.598624735768
 31
0.0
  0
LINE
  5
1029
  8
BALSA_1_5
 10
-3750.828812381701
 20
1438.598624735768
 30
0.0
 11
-3758.7752123817008
 21
1439.095904735768
 31
0.0
  0
LINE
  5
102A
  8
BALSA_1_5
 10
-3725.9513723817008
 20
1435.846784735769
 30
0.0
 11
-3734.3530523817012
 21
1436.9135847357691
 31
0.0
  0
LINE
  5
102B
  8
BALSA_1_5
 10
-3737.7852923817009
 20
1422.6823047357691
 30
0.0
 11
-3728.684732381701
 21
1422.972944735769
 31
0.0
  0
LINE
  5
102C
  8
BALSA_1_5
 10
-3734.3530523817012
 20
1436.9135847357691
 30
0.0
 11
-3742.6724123817021
 21
1437.854384735768
 31
0.0
  0
LINE
  5
102D
  8
BALSA_1_5
 10
-3757.5212123817018
 20
1450.9668445165371
 30
0.0
 11
-3748.7258923817021
 21
1451.232524516538
 31
0.0
  0
LINE
  5
102E
  8
BALSA_1_5
 10
-3739.8321723817021
 20
1451.511324516538
 30
0.0
 11
-3730.9482923817018
 21
1451.7950445165379
 31
0.0
  0
LINE
  5
102F
  8
BALSA_1_5
 10
-3730.9482923817018
 20
1451.7950445165379
 30
0.0
 11
-3722.1792123817022
 21
1452.0754845165379
 31
0.0
  0
LINE
  5
1030
  8
BALSA_1_5
 10
-3748.7258923817021
 20
1451.232524516538
 30
0.0
 11
-3739.8321723817021
 21
1451.511324516538
 31
0.0
  0
LINE
  5
1031
  8
BALSA_1_5
 10
-3726.421172381702
 20
1396.7497986794051
 30
0.0
 11
-3717.224332381702
 21
1397.043918679404
 31
0.0
  0
LINE
  5
1032
  8
BALSA_1_5
 10
-3717.224332381702
 20
1397.043918679404
 30
0.0
 11
-3708.261412381702
 21
1397.327718679403
 31
0.0
  0
LINE
  5
1033
  8
BALSA_1_5
 10
-3738.8113723817019
 20
1384.6167413774369
 30
0.0
 11
-3747.3561723817029
 21
1385.396421377437
 31
0.0
  0
LINE
  5
1034
  8
BALSA_1_5
 10
-3730.0958523817012
 20
1383.631141377437
 30
0.0
 11
-3738.8113723817019
 21
1384.6167413774369
 31
0.0
  0
LINE
  5
1035
  8
BALSA_1_5
 10
-3747.3561723817029
 20
1385.396421377437
 30
0.0
 11
-3755.6809723817018
 21
1385.9173813774371
 31
0.0
  0
LINE
  5
1036
  8
BALSA_1_5
 10
-3754.2903323817018
 20
1395.881198679403
 30
0.0
 11
-3745.0659723817021
 21
1396.1598386794039
 31
0.0
  0
LINE
  5
1037
  8
BALSA_1_5
 10
-3745.0659723817021
 20
1396.1598386794039
 30
0.0
 11
-3735.7384123817028
 21
1396.452238679404
 31
0.0
  0
LINE
  5
1038
  8
BALSA_1_5
 10
-3735.7384123817028
 20
1396.452238679404
 30
0.0
 11
-3726.421172381702
 21
1396.7497986794051
 31
0.0
  0
LINE
  5
1039
  8
BALSA_1_5
 10
-3696.754252381701
 20
1406.1423406794031
 30
0.0
 11
-3698.4281723817021
 21
1406.388678679403
 31
0.0
  0
LINE
  5
103A
  8
BALSA_1_5
 10
-3696.754252381701
 20
1406.1423406794031
 30
0.0
 11
-3696.754252381701
 21
1401.551026679404
 31
0.0
  0
LINE
  5
103B
  8
BALSA_1_5
 10
-3689.9632123817019
 20
1400.551641679403
 30
0.0
 11
-3696.754252381701
 21
1401.551026679404
 31
0.0
  0
LINE
  5
103C
  8
BALSA_1_5
 10
-3686.754252381701
 20
1400.0761566794031
 30
0.0
 11
-3689.9632123817019
 21
1400.551641679403
 31
0.0
  0
LINE
  5
103D
  8
BALSA_1_5
 10
-3698.4281723817021
 20
1406.388678679403
 30
0.0
 11
-3706.6119323817029
 21
1407.573758679403
 31
0.0
  0
LINE
  5
103E
  8
BALSA_1_5
 10
-3694.5471323817019
 20
1424.048144735769
 30
0.0
 11
-3690.754252381701
 21
1424.164532735768
 31
0.0
  0
LINE
  5
103F
  8
BALSA_1_5
 10
-3702.5288123817022
 20
1423.8011847357691
 30
0.0
 11
-3694.5471323817019
 21
1424.048144735769
 31
0.0
  0
LINE
  5
1040
  8
BALSA_1_5
 10
-3700.754252381701
 20
1432.301062735768
 30
0.0
 11
-3701.3427323817018
 21
1432.387664735769
 31
0.0
  0
LINE
  5
1041
  8
BALSA_1_5
 10
-3700.754252381701
 20
1432.301062735768
 30
0.0
 11
-3700.754252381701
 21
1427.709748735768
 31
0.0
  0
LINE
  5
1042
  8
BALSA_1_5
  6
DISCONTINU2
 10
-3695.7542523817019
 20
1424.0107957357691
 30
0.0
 11
-3695.7542523817019
 21
1426.973937735768
 31
0.0
  0
LINE
  5
1043
  8
BALSA_1_5
 10
-3690.754252381701
 20
1424.164532735768
 30
0.0
 11
-3690.754252381701
 21
1426.2357927357691
 31
0.0
  0
LINE
  5
1044
  8
BALSA_1_5
 10
-3700.6968923817021
 20
1427.701307735769
 30
0.0
 11
-3700.754252381701
 21
1427.709613735768
 31
0.0
  0
LINE
  5
1045
  8
BALSA_1_5
 10
-3693.0596123817022
 20
1426.5773877357681
 30
0.0
 11
-3700.754252381701
 21
1427.709748735768
 31
0.0
  0
LINE
  5
1046
  8
BALSA_1_5
 10
-3690.754252381701
 20
1426.2357927357691
 30
0.0
 11
-3693.0596123817022
 21
1426.5773877357681
 31
0.0
  0
LINE
  5
1047
  8
BALSA_1_5
 10
-3697.623492381701
 20
1452.844644516538
 30
0.0
 11
-3694.754252381701
 21
1452.9326895165379
 31
0.0
  0
LINE
  5
1048
  8
BALSA_1_5
 10
-3705.4151323817009
 20
1452.603564516538
 30
0.0
 11
-3697.623492381701
 21
1452.844644516538
 31
0.0
  0
LINE
  5
1049
  8
BALSA_1_5
 10
-3694.754252381701
 20
1452.9326895165379
 30
0.0
 11
-3694.754252381701
 21
1454.9943825165381
 31
0.0
  0
LINE
  5
104A
  8
BALSA_1_5
  6
DISCONTINU2
 10
-3699.754252381701
 20
1452.778716516538
 30
0.0
 11
-3699.754252381701
 21
1455.731612516538
 31
0.0
  0
LINE
  5
104B
  8
BALSA_1_5
 10
-3696.1560123817012
 20
1455.2020875165381
 30
0.0
 11
-3703.6114523817018
 21
1456.2992475165379
 31
0.0
  0
LINE
  5
104C
  8
BALSA_1_5
 10
-3694.754252381701
 20
1454.9943825165381
 30
0.0
 11
-3696.1560123817012
 21
1455.2020875165381
 31
0.0
  0
LINE
  5
104D
  8
BALSA_1_5
 10
-3703.6114523817018
 20
1456.2992475165379
 30
0.0
 11
-3704.754252381701
 21
1456.4647345165381
 31
0.0
  0
LINE
  5
104E
  8
BALSA_1_5
 10
-3691.470772381701
 20
1397.850598679403
 30
0.0
 11
-3686.754252381701
 21
1397.995329679404
 31
0.0
  0
LINE
  5
104F
  8
BALSA_1_5
 10
-3699.6424923817021
 20
1397.597758679404
 30
0.0
 11
-3691.470772381701
 21
1397.850598679403
 31
0.0
  0
LINE
  5
1050
  8
BALSA_1_5
  6
DISCONTINU2
 10
-3691.754252381701
 20
1397.841827679405
 30
0.0
 11
-3691.754252381701
 21
1400.8152156794031
 31
0.0
  0
LINE
  5
1051
  8
BALSA_1_5
 10
-3686.754252381701
 20
1397.995329679404
 30
0.0
 11
-3686.754252381701
 21
1400.0761566794031
 31
0.0
  0
LINE
  5
1052
  8
BALSA_1_5
 10
-3645.187772381702
 20
1319.056545294701
 30
0.0
 11
-3649.1124923817019
 21
1319.7023852947
 31
0.0
  0
LINE
  5
1053
  8
BALSA_1_5
 10
-3649.215532381701
 20
1317.807185294701
 30
0.0
 11
-3645.246652381702
 21
1318.0408652947001
 31
0.0
  0
LINE
  5
1054
  8
BALSA_1_5
 10
-3640.4000923817021
 20
1318.265345294699
 30
0.0
 11
-3639.7579323817008
 21
1318.270865294701
 31
0.0
  0
LINE
  5
1055
  8
BALSA_1_5
 10
-3640.392732381702
 20
1318.342625294699
 30
0.0
 11
-3642.243772381702
 21
1318.591025294701
 31
0.0
  0
LINE
  5
1056
  8
BALSA_1_5
 10
-3642.243772381702
 20
1318.591025294701
 30
0.0
 11
-3645.187772381702
 21
1319.056545294701
 31
0.0
  0
LINE
  5
1057
  8
BALSA_1_5
 10
-3645.246652381702
 20
1318.0408652947001
 30
0.0
 11
-3642.269532381702
 21
1318.2046252947
 31
0.0
  0
LINE
  5
1058
  8
BALSA_1_5
 10
-3642.269532381702
 20
1318.2046252947
 30
0.0
 11
-3640.4000923817021
 21
1318.265345294699
 31
0.0
  0
TEXT
  5
1059
  8
COPERTURA_1MM
 10
-3679.6858424458942
 20
1463.4377300181679
 30
0.0
 40
5.0
  1
A16-Balsa 1,5mm
  0
TEXT
  5
105A
  8
COPERTURA_1MM
 10
-3679.6858424458942
 20
1486.6434702564461
 30
0.0
 40
5.0
  1
A17-Balsa 1,5mm
  0
LINE
  5
105B
  8
BALSA_1_5
 10
-3708.301452381701
 20
1476.0075142107
 30
0.0
 11
-3700.699852381701
 21
1476.2427142106969
 31
0.0
  0
LINE
  5
105C
  8
BALSA_1_5
  6
DISCONTINU2
 10
-3706.526012381702
 20
1479.4987572107
 30
0.0
 11
-3708.754252381701
 21
1479.8214262107001
 31
0.0
  0
LINE
  5
105D
  8
BALSA_1_5
 10
-3707.1718523817008
 20
1484.1851142107
 30
0.0
 11
-3714.784652381702
 21
1485.2875142107
 31
0.0
  0
LINE
  5
105E
  8
BALSA_1_5
 10
-3704.754252381701
 20
1461.0575685165379
 30
0.0
 11
-3712.060412381702
 21
1462.1155645165379
 31
0.0
  0
LINE
  5
105F
  8
BALSA_1_5
 10
-3724.656652381701
 20
1475.4923142107
 30
0.0
 11
-3716.319052381702
 21
1475.7563142107001
 31
0.0
  0
LINE
  5
1060
  8
BALSA_1_5
 10
-3714.784652381702
 20
1485.2875142107
 30
0.0
 11
-3722.631052381701
 21
1486.3963142107
 31
0.0
  0
LINE
  5
1061
  8
BALSA_1_5
  6
DISCONTINU2
 10
-3708.754252381701
 20
1484.4142592107
 30
0.0
 11
-3708.754252381701
 21
1479.8214262107001
 31
0.0
  0
LINE
  5
1062
  8
BALSA_1_5
 10
-3716.319052381702
 20
1475.7563142107001
 30
0.0
 11
-3708.301452381701
 21
1476.0075142107
 31
0.0
  0
LINE
  5
1063
  8
BALSA_1_5
 10
-3759.1366523817019
 20
1474.4107142107
 30
0.0
 11
-3750.5558523817008
 21
1474.6699142107
 31
0.0
  0
LINE
  5
1064
  8
BALSA_1_5
 10
-3746.5334523817028
 20
1489.3915142107001
 30
0.0
 11
-3754.301452381701
 21
1490.1003142106999
 31
0.0
  0
LINE
  5
1065
  8
BALSA_1_5
 10
-3754.301452381701
 20
1490.1003142106999
 30
0.0
 11
-3761.8694523817021
 21
1490.5739142107
 31
0.0
  0
LINE
  5
1066
  8
BALSA_1_5
 10
-3730.6086523817021
 20
1487.4795142107
 30
0.0
 11
-3738.6102523817021
 21
1488.4955142107001
 31
0.0
  0
LINE
  5
1067
  8
BALSA_1_5
 10
-3741.879052381702
 20
1474.9419142106999
 30
0.0
 11
-3733.2118523817012
 21
1475.2187142107
 31
0.0
  0
LINE
  5
1068
  8
BALSA_1_5
 10
-3733.2118523817012
 20
1475.2187142107
 30
0.0
 11
-3724.656652381701
 21
1475.4923142107
 31
0.0
  0
LINE
  5
1069
  8
BALSA_1_5
 10
-3722.631052381701
 20
1486.3963142107
 30
0.0
 11
-3730.6086523817021
 21
1487.4795142107
 31
0.0
  0
LINE
  5
106A
  8
BALSA_1_5
 10
-3750.5558523817008
 20
1474.6699142107
 30
0.0
 11
-3741.879052381702
 21
1474.9419142106999
 31
0.0
  0
LINE
  5
106B
  8
BALSA_1_5
 10
-3738.6102523817021
 20
1488.4955142107001
 30
0.0
 11
-3746.5334523817028
 21
1489.3915142107001
 31
0.0
  0
LINE
  5
106C
  8
BALSA_1_5
 10
-3712.060412381702
 20
1462.1155645165379
 30
0.0
 11
-3720.1029723817019
 21
1463.2520845165379
 31
0.0
  0
LINE
  5
106D
  8
BALSA_1_5
 10
-3744.602932381702
 20
1466.3221645165379
 30
0.0
 11
-3752.565132381701
 21
1467.0486845165381
 31
0.0
  0
LINE
  5
106E
  8
BALSA_1_5
 10
-3752.565132381701
 20
1467.0486845165381
 30
0.0
 11
-3760.322332381701
 21
1467.534124516538
 31
0.0
  0
LINE
  5
106F
  8
BALSA_1_5
 10
-3728.2800123817019
 20
1464.362364516538
 30
0.0
 11
-3736.4816523817012
 21
1465.4037645165381
 31
0.0
  0
LINE
  5
1070
  8
BALSA_1_5
 10
-3720.1029723817019
 20
1463.2520845165379
 30
0.0
 11
-3728.2800123817019
 21
1464.362364516538
 31
0.0
  0
LINE
  5
1071
  8
BALSA_1_5
 10
-3736.4816523817012
 20
1465.4037645165381
 30
0.0
 11
-3744.602932381702
 21
1466.3221645165379
 31
0.0
  0
LINE
  5
1072
  8
BALSA_1_5
 10
-3693.0630523817008
 20
1482.1019142107
 30
0.0
 11
-3699.8982523817022
 21
1483.1147142107
 31
0.0
  0
LINE
  5
1073
  8
BALSA_1_5
 10
-3700.699852381701
 20
1476.2427142106969
 30
0.0
 11
-3693.6086523817021
 21
1476.4603142107001
 31
0.0
  0
LINE
  5
1074
  8
BALSA_1_5
 10
-3693.6086523817021
 20
1476.4603142107001
 30
0.0
 11
-3687.1174523817022
 21
1476.6619142106999
 31
0.0
  0
LINE
  5
1075
  8
BALSA_1_5
 10
-3686.7590523817021
 20
1481.1627142106979
 30
0.0
 11
-3693.0630523817008
 21
1482.1019142107
 31
0.0
  0
LINE
  5
1076
  8
BALSA_1_5
 10
-3699.8982523817022
 20
1483.1147142107
 30
0.0
 11
-3707.1718523817008
 21
1484.1851142107
 31
0.0
  0
LINE
  5
1077
  8
BALSA_1_5
  6
DISCONTINU2
 10
-3698.754252381701
 20
1476.3024172107
 30
0.0
 11
-3698.754252381701
 21
1482.9452032106999
 31
0.0
  0
LINE
  5
1078
  8
BALSA_1_5
  6
DISCONTINU2
 10
-3703.754252381701
 20
1476.1482082107
 30
0.0
 11
-3703.754252381701
 21
1479.0908582106999
 31
0.0
  0
LINE
  5
1079
  8
BALSA_1_5
 10
-3698.754252381701
 20
1478.3545432107001
 30
0.0
 11
-3699.252412381702
 21
1478.4283572106999
 31
0.0
  0
LINE
  5
107A
  8
BALSA_1_5
  6
DISCONTINU2
 10
-3699.252412381702
 20
1478.4283572106999
 30
0.0
 11
-3706.526012381702
 21
1479.4987572107
 31
0.0
  0
LINE
  5
107B
  8
BALSA_1_5
 10
-3664.315852381701
 20
1477.6395142107001
 30
0.0
 11
-3663.757452381702
 21
1477.6443142107
 31
0.0
  0
LINE
  5
107C
  8
BALSA_1_5
 10
-3681.303052381701
 20
1476.8491142107
 30
0.0
 11
-3676.2454523817019
 21
1477.0363142107001
 31
0.0
  0
LINE
  5
107D
  8
BALSA_1_5
 10
-3676.1014523817021
 20
1479.5579142106981
 30
0.0
 11
-3681.0774523817022
 21
1480.3131142107
 31
0.0
  0
LINE
  5
107E
  8
BALSA_1_5
 10
-3668.4790523817019
 20
1478.3275142106991
 30
0.0
 11
-3671.891852381701
 21
1478.8891142107
 31
0.0
  0
LINE
  5
107F
  8
BALSA_1_5
 10
-3671.9814523817022
 20
1477.2411142107001
 30
0.0
 11
-3668.5302523817022
 21
1477.4443142107
 31
0.0
  0
LINE
  5
1080
  8
BALSA_1_5
 10
-3664.3094523817022
 20
1477.7067142107001
 30
0.0
 11
-3665.919052381701
 21
1477.9227142107
 31
0.0
  0
LINE
  5
1081
  8
BALSA_1_5
 10
-3665.919052381701
 20
1477.9227142107
 30
0.0
 11
-3668.4790523817019
 21
1478.3275142106991
 31
0.0
  0
LINE
  5
1082
  8
BALSA_1_5
 10
-3668.5302523817022
 20
1477.4443142107
 30
0.0
 11
-3665.9414523817009
 21
1477.586714210699
 31
0.0
  0
LINE
  5
1083
  8
BALSA_1_5
 10
-3665.9414523817009
 20
1477.586714210699
 30
0.0
 11
-3664.315852381701
 21
1477.6395142107001
 31
0.0
  0
LINE
  5
1084
  8
BALSA_1_5
 10
-3671.891852381701
 20
1478.8891142107
 30
0.0
 11
-3676.1014523817021
 21
1479.5579142106981
 31
0.0
  0
LINE
  5
1085
  8
BALSA_1_5
 10
-3676.2454523817019
 20
1477.0363142107001
 30
0.0
 11
-3671.9814523817022
 21
1477.2411142107001
 31
0.0
  0
LINE
  5
1086
  8
BALSA_1_5
 10
-3687.1174523817022
 20
1476.6619142106999
 30
0.0
 11
-3681.303052381701
 21
1476.8491142107
 31
0.0
  0
LINE
  5
1087
  8
BALSA_1_5
 10
-3681.0774523817022
 20
1480.3131142107
 30
0.0
 11
-3686.7590523817021
 21
1481.1627142106979
 31
0.0
  0
INSERT
  5
1088
  8
COPERTURA_1MM
  2
SCALIMETRO
 10
-4597.9507299940578
 20
785.18337119887258
 30
0.0
  0
ENDSEC
  0
EOF
