  0
SECTION
  2
HEADER
  9
$ACADVER
  1
AC1015
  9
$ACADMAINTVER
 70
    20
  9
$DWGCODEPAGE
  3
ANSI_1252
  9
$INSBASE
 10
0.0
 20
0.0
 30
0.0
  9
$EXTMIN
 10
-59.62138462653593
 20
54.78325132640799
 30
0.0
  9
$EXTMAX
 10
309.7928980355234
 20
263.6971963515184
 30
0.0
  9
$LIMMIN
 10
0.0
 20
0.0
  9
$LIMMAX
 10
420.0
 20
297.0
  9
$ORTHOMODE
 70
     0
  9
$REGENMODE
 70
     1
  9
$FILLMODE
 70
     1
  9
$QTEXTMODE
 70
     0
  9
$MIRRTEXT
 70
     1
  9
$LTSCALE
 40
1.0
  9
$ATTMODE
 70
     1
  9
$TEXTSIZE
 40
2.5
  9
$TRACEWID
 40
1.0
  9
$TEXTSTYLE
  7
Standard
  9
$CLAYER
  8
0
  9
$CELTYPE
  6
ByLayer
  9
$CECOLOR
 62
   256
  9
$CELTSCALE
 40
1.0
  9
$DISPSILH
 70
     0
  9
$DIMSCALE
 40
1.0
  9
$DIMASZ
 40
2.5
  9
$DIMEXO
 40
0.625
  9
$DIMDLI
 40
3.75
  9
$DIMRND
 40
1.0
  9
$DIMDLE
 40
0.0
  9
$DIMEXE
 40
1.25
  9
$DIMTP
 40
0.0
  9
$DIMTM
 40
0.0
  9
$DIMTXT
 40
2.5
  9
$DIMCEN
 40
2.5
  9
$DIMTSZ
 40
0.0
  9
$DIMTOL
 70
     0
  9
$DIMLIM
 70
     0
  9
$DIMTIH
 70
     0
  9
$DIMTOH
 70
     0
  9
$DIMSE1
 70
     0
  9
$DIMSE2
 70
     0
  9
$DIMTAD
 70
     1
  9
$DIMZIN
 70
     8
  9
$DIMBLK
  1

  9
$DIMASO
 70
     1
  9
$DIMSHO
 70
     1
  9
$DIMPOST
  1

  9
$DIMAPOST
  1

  9
$DIMALT
 70
     0
  9
$DIMALTD
 70
     3
  9
$DIMALTF
 40
0.03937007874016
  9
$DIMLFAC
 40
1.0
  9
$DIMTOFL
 70
     1
  9
$DIMTVP
 40
0.0
  9
$DIMTIX
 70
     0
  9
$DIMSOXD
 70
     0
  9
$DIMSAH
 70
     0
  9
$DIMBLK1
  1

  9
$DIMBLK2
  1

  9
$DIMSTYLE
  2
Copia di ISO-25
  9
$DIMCLRD
 70
     0
  9
$DIMCLRE
 70
     0
  9
$DIMCLRT
 70
     0
  9
$DIMTFAC
 40
1.0
  9
$DIMGAP
 40
0.625
  9
$DIMJUST
 70
     0
  9
$DIMSD1
 70
     0
  9
$DIMSD2
 70
     0
  9
$DIMTOLJ
 70
     0
  9
$DIMTZIN
 70
     8
  9
$DIMALTZ
 70
     0
  9
$DIMALTTZ
 70
     0
  9
$DIMUPT
 70
     0
  9
$DIMDEC
 70
     0
  9
$DIMTDEC
 70
     0
  9
$DIMALTU
 70
     2
  9
$DIMALTTD
 70
     3
  9
$DIMTXSTY
  7
Standard
  9
$DIMAUNIT
 70
     0
  9
$DIMADEC
 70
     0
  9
$DIMALTRND
 40
0.0
  9
$DIMAZIN
 70
     0
  9
$DIMDSEP
 70
    46
  9
$DIMATFIT
 70
     3
  9
$DIMFRAC
 70
     0
  9
$DIMLDRBLK
  1

  9
$DIMLUNIT
 70
     2
  9
$DIMLWD
 70
    -2
  9
$DIMLWE
 70
    -2
  9
$DIMTMOVE
 70
     0
  9
$LUNITS
 70
     2
  9
$LUPREC
 70
     4
  9
$SKETCHINC
 40
1.0
  9
$FILLETRAD
 40
10.0
  9
$AUNITS
 70
     0
  9
$AUPREC
 70
     0
  9
$MENU
  1
.
  9
$ELEVATION
 40
0.0
  9
$PELEVATION
 40
0.0
  9
$THICKNESS
 40
0.0
  9
$LIMCHECK
 70
     0
  9
$CHAMFERA
 40
10.0
  9
$CHAMFERB
 40
10.0
  9
$CHAMFERC
 40
20.0
  9
$CHAMFERD
 40
0.0
  9
$SKPOLY
 70
     0
  9
$TDCREATE
 40
2455164.861946632
  9
$TDUCREATE
 40
2455164.778613299
  9
$TDUPDATE
 40
2455317.888627489
  9
$TDUUPDATE
 40
2455317.805294155
  9
$TDINDWG
 40
0.1241715625
  9
$TDUSRTIMER
 40
0.1241708449
  9
$USRTIMER
 70
     1
  9
$ANGBASE
 50
0.0
  9
$ANGDIR
 70
     0
  9
$PDMODE
 70
     0
  9
$PDSIZE
 40
0.0
  9
$PLINEWID
 40
0.0
  9
$SPLFRAME
 70
     0
  9
$SPLINETYPE
 70
     6
  9
$SPLINESEGS
 70
     8
  9
$HANDSEED
  5
364
  9
$SURFTAB1
 70
     6
  9
$SURFTAB2
 70
     6
  9
$SURFTYPE
 70
     6
  9
$SURFU
 70
     6
  9
$SURFV
 70
     6
  9
$UCSBASE
  2

  9
$UCSNAME
  2

  9
$UCSORG
 10
0.0
 20
0.0
 30
0.0
  9
$UCSXDIR
 10
1.0
 20
0.0
 30
0.0
  9
$UCSYDIR
 10
0.0
 20
1.0
 30
0.0
  9
$UCSORTHOREF
  2

  9
$UCSORTHOVIEW
 70
     0
  9
$UCSORGTOP
 10
0.0
 20
0.0
 30
0.0
  9
$UCSORGBOTTOM
 10
0.0
 20
0.0
 30
0.0
  9
$UCSORGLEFT
 10
0.0
 20
0.0
 30
0.0
  9
$UCSORGRIGHT
 10
0.0
 20
0.0
 30
0.0
  9
$UCSORGFRONT
 10
0.0
 20
0.0
 30
0.0
  9
$UCSORGBACK
 10
0.0
 20
0.0
 30
0.0
  9
$PUCSBASE
  2

  9
$PUCSNAME
  2

  9
$PUCSORG
 10
0.0
 20
0.0
 30
0.0
  9
$PUCSXDIR
 10
1.0
 20
0.0
 30
0.0
  9
$PUCSYDIR
 10
0.0
 20
1.0
 30
0.0
  9
$PUCSORTHOREF
  2

  9
$PUCSORTHOVIEW
 70
     0
  9
$PUCSORGTOP
 10
0.0
 20
0.0
 30
0.0
  9
$PUCSORGBOTTOM
 10
0.0
 20
0.0
 30
0.0
  9
$PUCSORGLEFT
 10
0.0
 20
0.0
 30
0.0
  9
$PUCSORGRIGHT
 10
0.0
 20
0.0
 30
0.0
  9
$PUCSORGFRONT
 10
0.0
 20
0.0
 30
0.0
  9
$PUCSORGBACK
 10
0.0
 20
0.0
 30
0.0
  9
$USERI1
 70
     0
  9
$USERI2
 70
     0
  9
$USERI3
 70
     0
  9
$USERI4
 70
     0
  9
$USERI5
 70
     0
  9
$USERR1
 40
0.0
  9
$USERR2
 40
0.0
  9
$USERR3
 40
0.0
  9
$USERR4
 40
0.0
  9
$USERR5
 40
0.0
  9
$WORLDVIEW
 70
     1
  9
$SHADEDGE
 70
     3
  9
$SHADEDIF
 70
    70
  9
$TILEMODE
 70
     1
  9
$MAXACTVP
 70
    64
  9
$PINSBASE
 10
0.0
 20
0.0
 30
0.0
  9
$PLIMCHECK
 70
     0
  9
$PEXTMIN
 10
1.000000000000000E+20
 20
1.000000000000000E+20
 30
1.000000000000000E+20
  9
$PEXTMAX
 10
-1.000000000000000E+20
 20
-1.000000000000000E+20
 30
-1.000000000000000E+20
  9
$PLIMMIN
 10
0.0
 20
0.0
  9
$PLIMMAX
 10
420.0
 20
297.0
  9
$UNITMODE
 70
     0
  9
$VISRETAIN
 70
     1
  9
$PLINEGEN
 70
     0
  9
$PSLTSCALE
 70
     1
  9
$TREEDEPTH
 70
  3020
  9
$CMLSTYLE
  2
Standard
  9
$CMLJUST
 70
     0
  9
$CMLSCALE
 40
20.0
  9
$PROXYGRAPHICS
 70
     1
  9
$MEASUREMENT
 70
     1
  9
$CELWEIGHT
370
    -1
  9
$ENDCAPS
280
     0
  9
$JOINSTYLE
280
     0
  9
$LWDISPLAY
290
     0
  9
$INSUNITS
 70
     4
  9
$HYPERLINKBASE
  1

  9
$STYLESHEET
  1

  9
$XEDIT
290
     1
  9
$CEPSNTYPE
380
     0
  9
$PSTYLEMODE
290
     1
  9
$FINGERPRINTGUID
  2
{13614019-5ABE-4576-9BDD-CE248CD167E7}
  9
$VERSIONGUID
  2
{61A0F360-BAC2-49B0-92BD-02DBECDC122E}
  9
$EXTNAMES
290
     1
  9
$PSVPSCALE
 40
0.0
  9
$OLESTARTUP
290
     0
  0
ENDSEC
  0
SECTION
  2
CLASSES
  0
CLASS
  1
ACDBDICTIONARYWDFLT
  2
AcDbDictionaryWithDefault
  3
ObjectDBX Classes
 90
        0
280
     0
281
     0
  0
CLASS
  1
DICTIONARYVAR
  2
AcDbDictionaryVar
  3
ObjectDBX Classes
 90
        0
280
     0
281
     0
  0
CLASS
  1
MATERIAL
  2
AcDbMaterial
  3
ObjectDBX Classes
 90
     1024
280
     0
281
     0
  0
CLASS
  1
VISUALSTYLE
  2
AcDbVisualStyle
  3
ObjectDBX Classes
 90
     4095
280
     0
281
     0
  0
CLASS
  1
TABLESTYLE
  2
AcDbTableStyle
  3
ObjectDBX Classes
 90
     4095
280
     0
281
     0
  0
CLASS
  1
SORTENTSTABLE
  2
AcDbSortentsTable
  3
ObjectDBX Classes
 90
    32768
280
     0
281
     0
  0
CLASS
  1
ACDBPLACEHOLDER
  2
AcDbPlaceHolder
  3
ObjectDBX Classes
 90
        0
280
     0
281
     0
  0
CLASS
  1
LAYOUT
  2
AcDbLayout
  3
ObjectDBX Classes
 90
        0
280
     0
281
     0
  0
ENDSEC
  0
SECTION
  2
TABLES
  0
TABLE
  2
VPORT
  5
8
330
0
100
AcDbSymbolTable
 70
     1
  0
VPORT
  5
1A4
330
8
100
AcDbSymbolTableRecord
100
AcDbViewportTableRecord
  2
*Active
 70
     0
 10
0.0
 20
0.0
 11
1.0
 21
1.0
 12
157.6692358403656
 22
182.5754036837179
 13
0.0
 23
0.0
 14
10.0
 24
10.0
 15
10.0
 25
10.0
 16
0.0
 26
0.0
 36
1.0
 17
0.0
 27
0.0
 37
0.0
 40
206.2596645425031
 41
2.493333333333333
 42
50.0
 43
0.0
 44
0.0
 50
0.0
 51
0.0
 71
     0
 72
   100
 73
     1
 74
     3
 75
     0
 76
     1
 77
     0
 78
     0
281
     0
 65
     1
110
0.0
120
0.0
130
0.0
111
1.0
121
0.0
131
0.0
112
0.0
122
1.0
132
0.0
 79
     0
146
0.0
  0
ENDTAB
  0
TABLE
  2
LTYPE
  5
5
330
0
100
AcDbSymbolTable
 70
     1
  0
LTYPE
  5
14
330
5
100
AcDbSymbolTableRecord
100
AcDbLinetypeTableRecord
  2
ByBlock
 70
     0
  3

 72
    65
 73
     0
 40
0.0
  0
LTYPE
  5
15
330
5
100
AcDbSymbolTableRecord
100
AcDbLinetypeTableRecord
  2
ByLayer
 70
     0
  3

 72
    65
 73
     0
 40
0.0
  0
LTYPE
  5
16
330
5
100
AcDbSymbolTableRecord
100
AcDbLinetypeTableRecord
  2
Continuous
 70
     0
  3
Solid line
 72
    65
 73
     0
 40
0.0
  0
ENDTAB
  0
TABLE
  2
LAYER
  5
2
330
0
100
AcDbSymbolTable
 70
     2
  0
LAYER
  5
10
330
2
100
AcDbSymbolTableRecord
100
AcDbLayerTableRecord
  2
0
 70
     0
 62
     7
  6
Continuous
370
    -3
390
F
  0
LAYER
  5
58
330
2
100
AcDbSymbolTableRecord
100
AcDbLayerTableRecord
  2
Defpoints
 70
     0
 62
     7
  6
Continuous
290
     0
370
    -3
390
F
  0
ENDTAB
  0
TABLE
  2
STYLE
  5
3
330
0
100
AcDbSymbolTable
 70
     1
  0
STYLE
  5
11
330
3
100
AcDbSymbolTableRecord
100
AcDbTextStyleTableRecord
  2
Standard
 70
     0
 40
0.0
 41
1.0
 50
0.0
 71
     0
 42
2.5
  3
txt
  4

  0
ENDTAB
  0
TABLE
  2
VIEW
  5
6
330
0
100
AcDbSymbolTable
 70
     0
  0
ENDTAB
  0
TABLE
  2
UCS
  5
7
330
0
100
AcDbSymbolTable
 70
     0
  0
ENDTAB
  0
TABLE
  2
APPID
  5
9
330
0
100
AcDbSymbolTable
 70
     1
  0
APPID
  5
12
330
9
100
AcDbSymbolTableRecord
100
AcDbRegAppTableRecord
  2
ACAD
 70
     0
  0
ENDTAB
  0
TABLE
  2
DIMSTYLE
  5
A
330
0
100
AcDbSymbolTable
 70
     2
100
AcDbDimStyleTable
 71
     2
340
24C
340
27
  0
DIMSTYLE
105
27
330
A
100
AcDbSymbolTableRecord
100
AcDbDimStyleTableRecord
  2
ISO-25
 70
     0
 41
2.5
 42
0.625
 43
3.75
 44
1.25
 73
     0
 74
     0
 77
     1
 78
     8
140
2.5
141
2.5
143
0.03937007874016
147
0.625
171
     3
172
     1
271
     2
272
     2
274
     3
278
    44
283
     0
284
     8
340
11
  0
DIMSTYLE
105
24C
102
{ACAD_REACTORS
330
24D
330
25A
330
267
330
281
330
28E
330
29B
330
2A8
330
2C2
330
2CF
330
2E9
330
2F6
330
303
330
310
330
31D
330
32A
330
337
102
}
330
A
100
AcDbSymbolTableRecord
100
AcDbDimStyleTableRecord
  2
Copia di ISO-25
 70
     0
 41
2.5
 42
0.625
 43
3.75
 44
1.25
 45
1.0
 73
     0
 74
     0
 77
     1
 78
     8
140
2.5
141
2.5
143
0.03937007874016
147
0.625
171
     3
172
     1
271
     0
272
     0
274
     3
283
     0
284
     8
340
11
  0
ENDTAB
  0
TABLE
  2
BLOCK_RECORD
  5
1
330
0
100
AcDbSymbolTable
 70
    36
  0
BLOCK_RECORD
  5
1F
330
1
100
AcDbSymbolTableRecord
100
AcDbBlockTableRecord
  2
*Model_Space
340
22
  0
BLOCK_RECORD
  5
1B
330
1
100
AcDbSymbolTableRecord
100
AcDbBlockTableRecord
  2
*Paper_Space
340
1E
  0
BLOCK_RECORD
  5
23
330
1
100
AcDbSymbolTableRecord
100
AcDbBlockTableRecord
  2
*Paper_Space0
340
26
  0
BLOCK_RECORD
  5
59
330
1
100
AcDbSymbolTableRecord
100
AcDbBlockTableRecord
  2
*D1
340
0
  0
BLOCK_RECORD
  5
6D
330
1
100
AcDbSymbolTableRecord
100
AcDbBlockTableRecord
  2
*D2
340
0
  0
BLOCK_RECORD
  5
7A
330
1
100
AcDbSymbolTableRecord
100
AcDbBlockTableRecord
  2
*D3
340
0
  0
BLOCK_RECORD
  5
87
330
1
100
AcDbSymbolTableRecord
100
AcDbBlockTableRecord
  2
*D4
340
0
  0
BLOCK_RECORD
  5
D5
330
1
100
AcDbSymbolTableRecord
100
AcDbBlockTableRecord
  2
*D5
340
0
  0
BLOCK_RECORD
  5
EF
330
1
100
AcDbSymbolTableRecord
100
AcDbBlockTableRecord
  2
*D6
340
0
  0
BLOCK_RECORD
  5
FC
330
1
100
AcDbSymbolTableRecord
100
AcDbBlockTableRecord
  2
*D7
340
0
  0
BLOCK_RECORD
  5
10A
330
1
100
AcDbSymbolTableRecord
100
AcDbBlockTableRecord
  2
*D8
340
0
  0
BLOCK_RECORD
  5
117
330
1
100
AcDbSymbolTableRecord
100
AcDbBlockTableRecord
  2
*D9
340
0
  0
BLOCK_RECORD
  5
124
330
1
100
AcDbSymbolTableRecord
100
AcDbBlockTableRecord
  2
*D10
340
0
  0
BLOCK_RECORD
  5
131
330
1
100
AcDbSymbolTableRecord
100
AcDbBlockTableRecord
  2
*D11
340
0
  0
BLOCK_RECORD
  5
13E
330
1
100
AcDbSymbolTableRecord
100
AcDbBlockTableRecord
  2
*D12
340
0
  0
BLOCK_RECORD
  5
14B
330
1
100
AcDbSymbolTableRecord
100
AcDbBlockTableRecord
  2
*D13
340
0
  0
BLOCK_RECORD
  5
158
330
1
100
AcDbSymbolTableRecord
100
AcDbBlockTableRecord
  2
*D14
340
0
  0
BLOCK_RECORD
  5
165
330
1
100
AcDbSymbolTableRecord
100
AcDbBlockTableRecord
  2
*D15
340
0
  0
BLOCK_RECORD
  5
172
330
1
100
AcDbSymbolTableRecord
100
AcDbBlockTableRecord
  2
*D16
340
0
  0
BLOCK_RECORD
  5
17F
330
1
100
AcDbSymbolTableRecord
100
AcDbBlockTableRecord
  2
*D17
340
0
  0
BLOCK_RECORD
  5
18C
330
1
100
AcDbSymbolTableRecord
100
AcDbBlockTableRecord
  2
*D18
340
0
  0
BLOCK_RECORD
  5
1EF
330
1
100
AcDbSymbolTableRecord
100
AcDbBlockTableRecord
  2
*D19
340
0
  0
BLOCK_RECORD
  5
24E
330
1
100
AcDbSymbolTableRecord
100
AcDbBlockTableRecord
  2
*D20
340
0
  0
BLOCK_RECORD
  5
25B
330
1
100
AcDbSymbolTableRecord
100
AcDbBlockTableRecord
  2
*D21
340
0
  0
BLOCK_RECORD
  5
268
330
1
100
AcDbSymbolTableRecord
100
AcDbBlockTableRecord
  2
*D22
340
0
  0
BLOCK_RECORD
  5
282
330
1
100
AcDbSymbolTableRecord
100
AcDbBlockTableRecord
  2
*D23
340
0
  0
BLOCK_RECORD
  5
28F
330
1
100
AcDbSymbolTableRecord
100
AcDbBlockTableRecord
  2
*D24
340
0
  0
BLOCK_RECORD
  5
29C
330
1
100
AcDbSymbolTableRecord
100
AcDbBlockTableRecord
  2
*D25
340
0
  0
BLOCK_RECORD
  5
2A9
330
1
100
AcDbSymbolTableRecord
100
AcDbBlockTableRecord
  2
*D26
340
0
  0
BLOCK_RECORD
  5
2C3
330
1
100
AcDbSymbolTableRecord
100
AcDbBlockTableRecord
  2
*D27
340
0
  0
BLOCK_RECORD
  5
2D0
330
1
100
AcDbSymbolTableRecord
100
AcDbBlockTableRecord
  2
*D28
340
0
  0
BLOCK_RECORD
  5
2EA
330
1
100
AcDbSymbolTableRecord
100
AcDbBlockTableRecord
  2
*D29
340
0
  0
BLOCK_RECORD
  5
2F7
330
1
100
AcDbSymbolTableRecord
100
AcDbBlockTableRecord
  2
*D30
340
0
  0
BLOCK_RECORD
  5
304
330
1
100
AcDbSymbolTableRecord
100
AcDbBlockTableRecord
  2
*D31
340
0
  0
BLOCK_RECORD
  5
311
330
1
100
AcDbSymbolTableRecord
100
AcDbBlockTableRecord
  2
*D32
340
0
  0
BLOCK_RECORD
  5
31E
330
1
100
AcDbSymbolTableRecord
100
AcDbBlockTableRecord
  2
*D33
340
0
  0
BLOCK_RECORD
  5
32B
330
1
100
AcDbSymbolTableRecord
100
AcDbBlockTableRecord
  2
*D34
340
0
  0
BLOCK_RECORD
  5
338
330
1
100
AcDbSymbolTableRecord
100
AcDbBlockTableRecord
  2
*D35
340
0
  0
ENDTAB
  0
ENDSEC
  0
SECTION
  2
BLOCKS
  0
BLOCK
  5
20
330
1F
100
AcDbEntity
  8
0
100
AcDbBlockBegin
  2
*Model_Space
 70
     0
 10
0.0
 20
0.0
 30
0.0
  3
*Model_Space
  1

  0
ENDBLK
  5
21
330
1F
100
AcDbEntity
  8
0
100
AcDbBlockEnd
  0
BLOCK
  5
1C
330
1B
100
AcDbEntity
 67
     1
  8
0
100
AcDbBlockBegin
  2
*Paper_Space
 70
     0
 10
0.0
 20
0.0
 30
0.0
  3
*Paper_Space
  1

  0
ENDBLK
  5
1D
330
1B
100
AcDbEntity
 67
     1
  8
0
100
AcDbBlockEnd
  0
BLOCK
  5
24
330
23
100
AcDbEntity
 67
     1
  8
0
100
AcDbBlockBegin
  2
*Paper_Space0
 70
     0
 10
0.0
 20
0.0
 30
0.0
  3
*Paper_Space0
  1

  0
ENDBLK
  5
25
330
23
100
AcDbEntity
 67
     1
  8
0
100
AcDbBlockEnd
  0
BLOCK
  5
63
330
59
100
AcDbEntity
  8
0
100
AcDbBlockBegin
  2
*D1
 70
     1
 10
0.0
 20
0.0
 30
0.0
  3
*D1
  1

  0
LINE
  5
5A
330
59
100
AcDbEntity
  8
0
 62
     0
370
    -2
100
AcDbLine
 10
9.745722205730317
 20
239.9697602356451
 30
0.0
 11
8.718250296132065
 21
239.9697602356451
 31
0.0
  0
LINE
  5
5B
330
59
100
AcDbEntity
  8
0
 62
     0
370
    -2
100
AcDbLine
 10
9.745722205730306
 20
192.1199711949095
 30
0.0
 11
8.718250296132055
 21
192.1199711949095
 31
0.0
  0
LINE
  5
5C
330
59
100
AcDbEntity
  8
0
 62
     0
370
    -2
100
AcDbLine
 10
9.968250296132064
 20
237.4697602356451
 30
0.0
 11
9.968250296132056
 21
194.6199711949095
 31
0.0
  0
SOLID
  5
5D
330
59
100
AcDbEntity
  8
0
 62
     0
100
AcDbTrace
 10
9.551583629465399
 20
237.4697602356451
 30
0.0
 11
10.38491696279873
 21
237.4697602356451
 31
0.0
 12
9.968250296132064
 22
239.9697602356451
 32
0.0
 13
9.968250296132064
 23
239.9697602356451
 33
0.0
  0
SOLID
  5
5E
330
59
100
AcDbEntity
  8
0
 62
     0
100
AcDbTrace
 10
9.551583629465387
 20
194.6199711949095
 30
0.0
 11
10.38491696279872
 21
194.6199711949095
 31
0.0
 12
9.968250296132056
 22
192.1199711949095
 32
0.0
 13
9.968250296132056
 23
192.1199711949095
 33
0.0
  0
MTEXT
  5
5F
330
59
100
AcDbEntity
  8
0
 62
     0
100
AcDbMText
 10
7.884916962798691
 20
216.0448657152773
 30
0.0
 40
2.5
 41
0.0
 71
     5
 72
     1
  1
47,85
 11
0.0000000000000001
 21
1.0
 31
0.0
 73
     1
 44
1.0
1001
ACAD
1000
MTEXTBEGIN
1070
    73
1070
     1
1070
    44
1040
1.0
1070
    74
1070
     0
1000
MTEXTEND
  0
POINT
  5
60
330
59
100
AcDbEntity
  8
Defpoints
 62
     0
100
AcDbPoint
 10
10.37072220573031
 20
239.9697602356451
 30
0.0
  0
POINT
  5
61
330
59
100
AcDbEntity
  8
Defpoints
 62
     0
100
AcDbPoint
 10
10.3707222057303
 20
192.1199711949095
 30
0.0
  0
POINT
  5
62
330
59
100
AcDbEntity
  8
Defpoints
 62
     0
100
AcDbPoint
 10
9.968250296132056
 20
192.1199711949095
 30
0.0
  0
ENDBLK
  5
64
330
59
100
AcDbEntity
  8
0
100
AcDbBlockEnd
  0
BLOCK
  5
77
330
6D
100
AcDbEntity
  8
0
100
AcDbBlockBegin
  2
*D2
 70
     1
 10
0.0
 20
0.0
 30
0.0
  3
*D2
  1

  0
LINE
  5
6E
330
6D
100
AcDbEntity
  8
0
 62
     0
370
    -2
100
AcDbLine
 10
10.59325029613205
 20
239.9697602356451
 30
0.0
 11
11.62072220573032
 21
239.9697602356451
 31
0.0
  0
LINE
  5
6F
330
6D
100
AcDbEntity
  8
0
 62
     0
370
    -2
100
AcDbLine
 10
10.59325029613204
 20
191.7178720215121
 30
0.0
 11
11.62072220573031
 21
191.7178720215121
 31
0.0
  0
LINE
  5
70
330
6D
100
AcDbEntity
  8
0
 62
     0
370
    -2
100
AcDbLine
 10
10.37072220573032
 20
237.4697602356451
 30
0.0
 11
10.37072220573031
 21
194.2178720215121
 31
0.0
  0
SOLID
  5
71
330
6D
100
AcDbEntity
  8
0
 62
     0
100
AcDbTrace
 10
9.954055539063659
 20
237.4697602356451
 30
0.0
 11
10.78738887239699
 21
237.4697602356451
 31
0.0
 12
10.37072220573032
 22
239.9697602356451
 32
0.0
 13
10.37072220573032
 23
239.9697602356451
 33
0.0
  0
SOLID
  5
72
330
6D
100
AcDbEntity
  8
0
 62
     0
100
AcDbTrace
 10
9.954055539063647
 20
194.2178720215121
 30
0.0
 11
10.78738887239698
 21
194.2178720215121
 31
0.0
 12
10.37072220573031
 22
191.7178720215121
 32
0.0
 13
10.37072220573031
 23
191.7178720215121
 33
0.0
  0
MTEXT
  5
73
330
6D
100
AcDbEntity
  8
0
 62
     0
100
AcDbMText
 10
8.287388872396951
 20
215.8438161285786
 30
0.0
 40
2.5
 41
0.0
 71
     5
 72
     1
  1
48,25
 11
0.0000000000000001
 21
1.0
 31
0.0
 73
     1
 44
1.0
1001
ACAD
1000
MTEXTBEGIN
1070
    73
1070
     1
1070
    44
1040
1.0
1070
    74
1070
     0
1000
MTEXTEND
  0
POINT
  5
74
330
6D
100
AcDbEntity
  8
Defpoints
 62
     0
100
AcDbPoint
 10
9.968250296132056
 20
239.9697602356451
 30
0.0
  0
POINT
  5
75
330
6D
100
AcDbEntity
  8
Defpoints
 62
     0
100
AcDbPoint
 10
9.968250296132048
 20
191.7178720215121
 30
0.0
  0
POINT
  5
76
330
6D
100
AcDbEntity
  8
Defpoints
 62
     0
100
AcDbPoint
 10
10.37072220573031
 20
191.7178720215121
 30
0.0
  0
ENDBLK
  5
78
330
6D
100
AcDbEntity
  8
0
100
AcDbBlockEnd
  0
BLOCK
  5
84
330
7A
100
AcDbEntity
  8
0
100
AcDbBlockBegin
  2
*D3
 70
     1
 10
0.0
 20
0.0
 30
0.0
  3
*D3
  1

  0
LINE
  5
7B
330
7A
100
AcDbEntity
  8
0
 62
     0
370
    -2
100
AcDbLine
 10
119.6205707697188
 20
239.5676617618901
 30
0.0
 11
118.5930988601203
 21
239.5676617618901
 31
0.0
  0
LINE
  5
7C
330
7A
100
AcDbEntity
  8
0
 62
     0
370
    -2
100
AcDbLine
 10
119.6205707697188
 20
145.4764796743662
 30
0.0
 11
118.5930988601203
 21
145.4764796743662
 31
0.0
  0
LINE
  5
7D
330
7A
100
AcDbEntity
  8
0
 62
     0
370
    -2
100
AcDbLine
 10
119.8430988601203
 20
237.0676617618901
 30
0.0
 11
119.8430988601203
 21
147.9764796743662
 31
0.0
  0
SOLID
  5
7E
330
7A
100
AcDbEntity
  8
0
 62
     0
100
AcDbTrace
 10
119.4264321934536
 20
237.0676617618901
 30
0.0
 11
120.259765526787
 21
237.0676617618901
 31
0.0
 12
119.8430988601203
 22
239.5676617618901
 32
0.0
 13
119.8430988601203
 23
239.5676617618901
 33
0.0
  0
SOLID
  5
7F
330
7A
100
AcDbEntity
  8
0
 62
     0
100
AcDbTrace
 10
119.4264321934536
 20
147.9764796743662
 30
0.0
 11
120.2597655267869
 21
147.9764796743662
 31
0.0
 12
119.8430988601203
 22
145.4764796743662
 32
0.0
 13
119.8430988601203
 23
145.4764796743662
 33
0.0
  0
MTEXT
  5
80
330
7A
100
AcDbEntity
  8
0
 62
     0
100
AcDbMText
 10
117.7597655267869
 20
192.5220707181282
 30
0.0
 40
2.5
 41
0.0
 71
     5
 72
     1
  1
94,09
 11
0.0000000000000001
 21
1.0
 31
0.0
 73
     1
 44
1.0
1001
ACAD
1000
MTEXTBEGIN
1070
    73
1070
     1
1070
    44
1040
1.0
1070
    74
1070
     0
1000
MTEXTEND
  0
POINT
  5
81
330
7A
100
AcDbEntity
  8
Defpoints
 62
     0
100
AcDbPoint
 10
120.2455707697188
 20
239.5676617618901
 30
0.0
  0
POINT
  5
82
330
7A
100
AcDbEntity
  8
Defpoints
 62
     0
100
AcDbPoint
 10
120.2455707697188
 20
145.4764796743662
 30
0.0
  0
POINT
  5
83
330
7A
100
AcDbEntity
  8
Defpoints
 62
     0
100
AcDbPoint
 10
119.8430988601203
 20
145.4764796743662
 30
0.0
  0
ENDBLK
  5
85
330
7A
100
AcDbEntity
  8
0
100
AcDbBlockEnd
  0
BLOCK
  5
91
330
87
100
AcDbEntity
  8
0
100
AcDbBlockBegin
  2
*D4
 70
     1
 10
0.0
 20
0.0
 30
0.0
  3
*D4
  1

  0
LINE
  5
88
330
87
100
AcDbEntity
  8
0
 62
     0
370
    -2
100
AcDbLine
 10
20.03004936252432
 20
250.2451382982572
 30
0.0
 11
20.03004936252432
 21
250.8701382982571
 31
0.0
  0
LINE
  5
89
330
87
100
AcDbEntity
  8
0
 62
     0
370
    -2
100
AcDbLine
 10
60.27724695452821
 20
250.2451382982572
 30
0.0
 11
60.27724695452821
 21
250.8701382982571
 31
0.0
  0
LINE
  5
8A
330
87
100
AcDbEntity
  8
0
 62
     0
370
    -2
100
AcDbLine
 10
22.53004936252432
 20
249.6201382982571
 30
0.0
 11
57.77724695452821
 21
249.6201382982571
 31
0.0
  0
SOLID
  5
8B
330
87
100
AcDbEntity
  8
0
 62
     0
100
AcDbTrace
 10
22.53004936252432
 20
250.0368049649238
 30
0.0
 11
22.53004936252432
 21
249.2034716315905
 31
0.0
 12
20.03004936252432
 22
249.6201382982571
 32
0.0
 13
20.03004936252432
 23
249.6201382982571
 33
0.0
  0
SOLID
  5
8C
330
87
100
AcDbEntity
  8
0
 62
     0
100
AcDbTrace
 10
57.77724695452821
 20
250.0368049649238
 30
0.0
 11
57.77724695452821
 21
249.2034716315905
 31
0.0
 12
60.27724695452821
 22
249.6201382982571
 32
0.0
 13
60.27724695452821
 23
249.6201382982571
 33
0.0
  0
MTEXT
  5
8D
330
87
100
AcDbEntity
  8
0
 62
     0
100
AcDbMText
 10
40.15364815852627
 20
251.7034716315905
 30
0.0
 40
2.5
 41
0.0
 71
     5
 72
     1
  1
40,25
 73
     1
 44
1.0
1001
ACAD
1000
MTEXTBEGIN
1070
    73
1070
     1
1070
    44
1040
1.0
1070
    74
1070
     0
1000
MTEXTEND
  0
POINT
  5
8E
330
87
100
AcDbEntity
  8
Defpoints
 62
     0
100
AcDbPoint
 10
20.03004936252432
 20
249.6201382982571
 30
0.0
  0
POINT
  5
8F
330
87
100
AcDbEntity
  8
Defpoints
 62
     0
100
AcDbPoint
 10
60.27724695452821
 20
249.6201382982571
 30
0.0
  0
POINT
  5
90
330
87
100
AcDbEntity
  8
Defpoints
 62
     0
100
AcDbPoint
 10
60.27724695452821
 20
249.6201382982571
 30
0.0
  0
ENDBLK
  5
92
330
87
100
AcDbEntity
  8
0
100
AcDbBlockEnd
  0
BLOCK
  5
DF
330
D5
100
AcDbEntity
  8
0
100
AcDbBlockBegin
  2
*D5
 70
     1
 10
0.0
 20
0.0
 30
0.0
  3
*D5
  1

  0
LINE
  5
D6
330
D5
100
AcDbEntity
  8
0
 62
     0
370
    -2
100
AcDbLine
 10
9.767196062790617
 20
250.3624718250895
 30
0.0
 11
9.767196062790617
 21
250.9874718250895
 31
0.0
  0
LINE
  5
D7
330
D5
100
AcDbEntity
  8
0
 62
     0
370
    -2
100
AcDbLine
 10
280.2671188337678
 20
250.3624718250895
 30
0.0
 11
280.2671188337678
 21
250.9874718250895
 31
0.0
  0
LINE
  5
D8
330
D5
100
AcDbEntity
  8
0
 62
     0
370
    -2
100
AcDbLine
 10
12.26719606279061
 20
249.7374718250895
 30
0.0
 11
277.7671188337679
 21
249.7374718250895
 31
0.0
  0
SOLID
  5
D9
330
D5
100
AcDbEntity
  8
0
 62
     0
100
AcDbTrace
 10
12.26719606279061
 20
250.1541384917561
 30
0.0
 11
12.26719606279061
 21
249.3208051584228
 31
0.0
 12
9.767196062790617
 22
249.7374718250895
 32
0.0
 13
9.767196062790617
 23
249.7374718250895
 33
0.0
  0
SOLID
  5
DA
330
D5
100
AcDbEntity
  8
0
 62
     0
100
AcDbTrace
 10
277.7671188337679
 20
250.1541384917561
 30
0.0
 11
277.7671188337679
 21
249.3208051584228
 31
0.0
 12
280.2671188337678
 22
249.7374718250895
 32
0.0
 13
280.2671188337678
 23
249.7374718250895
 33
0.0
  0
MTEXT
  5
DB
330
D5
100
AcDbEntity
  8
0
 62
     0
100
AcDbMText
 10
145.0171574482792
 20
251.8208051584228
 30
0.0
 40
2.5
 41
0.0
 71
     5
 72
     1
  1
270,5
 73
     1
 44
1.0
1001
ACAD
1000
MTEXTBEGIN
1070
    73
1070
     1
1070
    44
1040
1.0
1070
    74
1070
     0
1000
MTEXTEND
  0
POINT
  5
DC
330
D5
100
AcDbEntity
  8
Defpoints
 62
     0
100
AcDbPoint
 10
9.767196062790617
 20
249.7374718250895
 30
0.0
  0
POINT
  5
DD
330
D5
100
AcDbEntity
  8
Defpoints
 62
     0
100
AcDbPoint
 10
280.2671188337678
 20
249.7374718250895
 30
0.0
  0
POINT
  5
DE
330
D5
100
AcDbEntity
  8
Defpoints
 62
     0
100
AcDbPoint
 10
280.2671188337678
 20
249.7374718250895
 30
0.0
  0
ENDBLK
  5
E0
330
D5
100
AcDbEntity
  8
0
100
AcDbBlockEnd
  0
BLOCK
  5
F9
330
EF
100
AcDbEntity
  8
0
100
AcDbBlockBegin
  2
*D6
 70
     1
 10
0.0
 20
0.0
 30
0.0
  3
*D6
  1

  0
LINE
  5
F0
330
EF
100
AcDbEntity
  8
0
 62
     0
370
    -2
100
AcDbLine
 10
10.09234748174117
 20
139.2979065949913
 30
0.0
 11
10.09234748174117
 21
136.2722439555494
 31
0.0
  0
LINE
  5
F1
330
EF
100
AcDbEntity
  8
0
 62
     0
370
    -2
100
AcDbLine
 10
310.4534365781403
 20
139.2979065949913
 30
0.0
 11
310.4534365781403
 21
136.2722439555494
 31
0.0
  0
LINE
  5
F2
330
EF
100
AcDbEntity
  8
0
 62
     0
370
    -2
100
AcDbLine
 10
12.59234748174117
 20
137.5222439555494
 30
0.0
 11
307.9534365781403
 21
137.5222439555494
 31
0.0
  0
SOLID
  5
F3
330
EF
100
AcDbEntity
  8
0
 62
     0
100
AcDbTrace
 10
12.59234748174117
 20
137.9389106222161
 30
0.0
 11
12.59234748174117
 21
137.1055772888828
 31
0.0
 12
10.09234748174117
 22
137.5222439555494
 32
0.0
 13
10.09234748174117
 23
137.5222439555494
 33
0.0
  0
SOLID
  5
F4
330
EF
100
AcDbEntity
  8
0
 62
     0
100
AcDbTrace
 10
307.9534365781403
 20
137.9389106222161
 30
0.0
 11
307.9534365781403
 21
137.1055772888828
 31
0.0
 12
310.4534365781403
 22
137.5222439555494
 32
0.0
 13
310.4534365781403
 23
137.5222439555494
 33
0.0
  0
MTEXT
  5
F5
330
EF
100
AcDbEntity
  8
0
 62
     0
100
AcDbMText
 10
160.2728920299407
 20
139.6055772888828
 30
0.0
 40
2.5
 41
0.0
 71
     5
 72
     1
  1
300,36
 73
     1
 44
1.0
1001
ACAD
1000
MTEXTBEGIN
1070
    73
1070
     1
1070
    44
1040
1.0
1070
    74
1070
     0
1000
MTEXTEND
  0
POINT
  5
F6
330
EF
100
AcDbEntity
  8
Defpoints
 62
     0
100
AcDbPoint
 10
10.09234748174117
 20
139.9229065949913
 30
0.0
  0
POINT
  5
F7
330
EF
100
AcDbEntity
  8
Defpoints
 62
     0
100
AcDbPoint
 10
310.4534365781403
 20
139.9229065949913
 30
0.0
  0
POINT
  5
F8
330
EF
100
AcDbEntity
  8
Defpoints
 62
     0
100
AcDbPoint
 10
310.4534365781403
 20
137.5222439555494
 30
0.0
  0
ENDBLK
  5
FA
330
EF
100
AcDbEntity
  8
0
100
AcDbBlockEnd
  0
BLOCK
  5
106
330
FC
100
AcDbEntity
  8
0
100
AcDbBlockBegin
  2
*D7
 70
     1
 10
0.0
 20
0.0
 30
0.0
  3
*D7
  1

  0
LINE
  5
FD
330
FC
100
AcDbEntity
  8
0
 62
     0
370
    -2
100
AcDbLine
 10
320.68999088804
 20
249.8732409288697
 30
0.0
 11
321.31499088804
 21
249.8732409288697
 31
0.0
  0
LINE
  5
FE
330
FC
100
AcDbEntity
  8
0
 62
     0
370
    -2
100
AcDbLine
 10
320.6899908880398
 20
80.38648069296948
 30
0.0
 11
321.31499088804
 21
80.38648069296948
 31
0.0
  0
LINE
  5
FF
330
FC
100
AcDbEntity
  8
0
 62
     0
370
    -2
100
AcDbLine
 10
320.0649908880401
 20
247.3732409288698
 30
0.0
 11
320.0649908880401
 21
82.88648069296948
 31
0.0
  0
SOLID
  5
100
330
FC
100
AcDbEntity
  8
0
 62
     0
100
AcDbTrace
 10
319.6483242213734
 20
247.3732409288698
 30
0.0
 11
320.4816575547067
 21
247.3732409288698
 31
0.0
 12
320.0649908880401
 22
249.8732409288697
 32
0.0
 13
320.0649908880401
 23
249.8732409288697
 33
0.0
  0
SOLID
  5
101
330
FC
100
AcDbEntity
  8
0
 62
     0
100
AcDbTrace
 10
319.6483242213734
 20
82.88648069296948
 30
0.0
 11
320.4816575547067
 21
82.88648069296948
 31
0.0
 12
320.0649908880401
 22
80.38648069296948
 32
0.0
 13
320.0649908880401
 23
80.38648069296948
 33
0.0
  0
MTEXT
  5
102
330
FC
100
AcDbEntity
  8
0
 62
     0
100
AcDbMText
 10
317.9816575547067
 20
165.1298608109196
 30
0.0
 40
2.5
 41
0.0
 71
     5
 72
     1
  1
169,49
 11
0.0000000000000001
 21
1.0
 31
0.0
 73
     1
 44
1.0
1001
ACAD
1000
MTEXTBEGIN
1070
    73
1070
     1
1070
    44
1040
1.0
1070
    74
1070
     0
1000
MTEXTEND
  0
POINT
  5
103
330
FC
100
AcDbEntity
  8
Defpoints
 62
     0
100
AcDbPoint
 10
320.0649908880401
 20
249.8732409288697
 30
0.0
  0
POINT
  5
104
330
FC
100
AcDbEntity
  8
Defpoints
 62
     0
100
AcDbPoint
 10
320.0649908880399
 20
80.38648069296948
 30
0.0
  0
POINT
  5
105
330
FC
100
AcDbEntity
  8
Defpoints
 62
     0
100
AcDbPoint
 10
320.0649908880401
 20
80.38648069296948
 30
0.0
  0
ENDBLK
  5
107
330
FC
100
AcDbEntity
  8
0
100
AcDbBlockEnd
  0
BLOCK
  5
114
330
10A
100
AcDbEntity
  8
0
100
AcDbBlockBegin
  2
*D8
 70
     1
 10
0.0
 20
0.0
 30
0.0
  3
*D8
  1

  0
LINE
  5
10B
330
10A
100
AcDbEntity
  8
0
 62
     0
370
    -2
100
AcDbLine
 10
10.71734748174117
 20
239.7904586827845
 30
0.0
 11
11.34234748174118
 21
239.7904586827845
 31
0.0
  0
LINE
  5
10C
330
10A
100
AcDbEntity
  8
0
 62
     0
370
    -2
100
AcDbLine
 10
10.71734748174116
 20
191.7772121907275
 30
0.0
 11
11.34234748174117
 21
191.7772121907275
 31
0.0
  0
LINE
  5
10D
330
10A
100
AcDbEntity
  8
0
 62
     0
370
    -2
100
AcDbLine
 10
10.09234748174118
 20
237.2904586827845
 30
0.0
 11
10.09234748174117
 21
194.2772121907275
 31
0.0
  0
SOLID
  5
10E
330
10A
100
AcDbEntity
  8
0
 62
     0
100
AcDbTrace
 10
9.675680815074516
 20
237.2904586827845
 30
0.0
 11
10.50901414840784
 21
237.2904586827845
 31
0.0
 12
10.09234748174118
 22
239.7904586827845
 32
0.0
 13
10.09234748174118
 23
239.7904586827845
 33
0.0
  0
SOLID
  5
10F
330
10A
100
AcDbEntity
  8
0
 62
     0
100
AcDbTrace
 10
9.675680815074503
 20
194.2772121907275
 30
0.0
 11
10.50901414840783
 21
194.2772121907275
 31
0.0
 12
10.09234748174117
 22
191.7772121907275
 32
0.0
 13
10.09234748174117
 23
191.7772121907275
 33
0.0
  0
MTEXT
  5
110
330
10A
100
AcDbEntity
  8
0
 62
     0
100
AcDbMText
 10
8.009014148407809
 20
215.783835436756
 30
0.0
 40
2.5
 41
0.0
 71
     5
 72
     1
  1
48,01
 11
0.0000000000000001
 21
1.0
 31
0.0
 73
     1
 44
1.0
1001
ACAD
1000
MTEXTBEGIN
1070
    73
1070
     1
1070
    44
1040
1.0
1070
    74
1070
     0
1000
MTEXTEND
  0
POINT
  5
111
330
10A
100
AcDbEntity
  8
Defpoints
 62
     0
100
AcDbPoint
 10
10.09234748174117
 20
239.7904586827845
 30
0.0
  0
POINT
  5
112
330
10A
100
AcDbEntity
  8
Defpoints
 62
     0
100
AcDbPoint
 10
10.09234748174116
 20
191.7772121907275
 30
0.0
  0
POINT
  5
113
330
10A
100
AcDbEntity
  8
Defpoints
 62
     0
100
AcDbPoint
 10
10.09234748174117
 20
191.7772121907275
 30
0.0
  0
ENDBLK
  5
115
330
10A
100
AcDbEntity
  8
0
100
AcDbBlockEnd
  0
BLOCK
  5
121
330
117
100
AcDbEntity
  8
0
100
AcDbBlockBegin
  2
*D9
 70
     1
 10
0.0
 20
0.0
 30
0.0
  3
*D9
  1

  0
LINE
  5
118
330
117
100
AcDbEntity
  8
0
 62
     0
370
    -2
100
AcDbLine
 10
119.3161979393564
 20
239.5948547626198
 30
0.0
 11
118.0380896935482
 21
239.5948547626198
 31
0.0
  0
LINE
  5
119
330
117
100
AcDbEntity
  8
0
 62
     0
370
    -2
100
AcDbLine
 10
119.3161979393564
 20
145.3081268252496
 30
0.0
 11
118.0380896935482
 21
145.3081268252496
 31
0.0
  0
LINE
  5
11A
330
117
100
AcDbEntity
  8
0
 62
     0
370
    -2
100
AcDbLine
 10
119.2880896935482
 20
237.0948547626198
 30
0.0
 11
119.2880896935482
 21
147.8081268252497
 31
0.0
  0
SOLID
  5
11B
330
117
100
AcDbEntity
  8
0
 62
     0
100
AcDbTrace
 10
118.8714230268816
 20
237.0948547626198
 30
0.0
 11
119.7047563602149
 21
237.0948547626198
 31
0.0
 12
119.2880896935482
 22
239.5948547626198
 32
0.0
 13
119.2880896935482
 23
239.5948547626198
 33
0.0
  0
SOLID
  5
11C
330
117
100
AcDbEntity
  8
0
 62
     0
100
AcDbTrace
 10
118.8714230268816
 20
147.8081268252497
 30
0.0
 11
119.7047563602149
 21
147.8081268252497
 31
0.0
 12
119.2880896935482
 22
145.3081268252496
 32
0.0
 13
119.2880896935482
 23
145.3081268252496
 33
0.0
  0
MTEXT
  5
11D
330
117
100
AcDbEntity
  8
0
 62
     0
100
AcDbMText
 10
117.2047563602149
 20
192.4514907939348
 30
0.0
 40
2.5
 41
0.0
 71
     5
 72
     1
  1
94,29
 11
0.0000000000000001
 21
1.0
 31
0.0
 73
     1
 44
1.0
1001
ACAD
1000
MTEXTBEGIN
1070
    73
1070
     1
1070
    44
1040
1.0
1070
    74
1070
     0
1000
MTEXTEND
  0
POINT
  5
11E
330
117
100
AcDbEntity
  8
Defpoints
 62
     0
100
AcDbPoint
 10
119.9411979393564
 20
239.5948547626198
 30
0.0
  0
POINT
  5
11F
330
117
100
AcDbEntity
  8
Defpoints
 62
     0
100
AcDbPoint
 10
119.9411979393564
 20
145.3081268252496
 30
0.0
  0
POINT
  5
120
330
117
100
AcDbEntity
  8
Defpoints
 62
     0
100
AcDbPoint
 10
119.2880896935482
 20
145.3081268252496
 30
0.0
  0
ENDBLK
  5
122
330
117
100
AcDbEntity
  8
0
100
AcDbBlockEnd
  0
BLOCK
  5
12E
330
124
100
AcDbEntity
  8
0
100
AcDbBlockBegin
  2
*D10
 70
     1
 10
0.0
 20
0.0
 30
0.0
  3
*D10
  1

  0
LINE
  5
125
330
124
100
AcDbEntity
  8
0
 62
     0
370
    -2
100
AcDbLine
 10
176.0804160766991
 20
239.9211064042779
 30
0.0
 11
177.3585243225075
 21
239.9211064042779
 31
0.0
  0
LINE
  5
126
330
124
100
AcDbEntity
  8
0
 62
     0
370
    -2
100
AcDbLine
 10
176.0804160766991
 20
161.6207096077914
 30
0.0
 11
177.3585243225074
 21
161.6207096077914
 31
0.0
  0
LINE
  5
127
330
124
100
AcDbEntity
  8
0
 62
     0
370
    -2
100
AcDbLine
 10
176.1085243225075
 20
237.4211064042778
 30
0.0
 11
176.1085243225075
 21
164.1207096077914
 31
0.0
  0
SOLID
  5
128
330
124
100
AcDbEntity
  8
0
 62
     0
100
AcDbTrace
 10
175.6918576558408
 20
237.4211064042778
 30
0.0
 11
176.5251909891741
 21
237.4211064042778
 31
0.0
 12
176.1085243225075
 22
239.9211064042779
 32
0.0
 13
176.1085243225075
 23
239.9211064042779
 33
0.0
  0
SOLID
  5
129
330
124
100
AcDbEntity
  8
0
 62
     0
100
AcDbTrace
 10
175.6918576558408
 20
164.1207096077914
 30
0.0
 11
176.5251909891741
 21
164.1207096077914
 31
0.0
 12
176.1085243225075
 22
161.6207096077914
 32
0.0
 13
176.1085243225075
 23
161.6207096077914
 33
0.0
  0
MTEXT
  5
12A
330
124
100
AcDbEntity
  8
0
 62
     0
100
AcDbMText
 10
174.0251909891741
 20
200.7709080060346
 30
0.0
 40
2.5
 41
0.0
 71
     5
 72
     1
  1
78,3
 11
0.0000000000000001
 21
1.0
 31
0.0
 73
     1
 44
1.0
1001
ACAD
1000
MTEXTBEGIN
1070
    73
1070
     1
1070
    44
1040
1.0
1070
    74
1070
     0
1000
MTEXTEND
  0
POINT
  5
12B
330
124
100
AcDbEntity
  8
Defpoints
 62
     0
100
AcDbPoint
 10
175.4554160766993
 20
239.9211064042779
 30
0.0
  0
POINT
  5
12C
330
124
100
AcDbEntity
  8
Defpoints
 62
     0
100
AcDbPoint
 10
175.4554160766992
 20
161.6207096077914
 30
0.0
  0
POINT
  5
12D
330
124
100
AcDbEntity
  8
Defpoints
 62
     0
100
AcDbPoint
 10
176.1085243225075
 20
161.6207096077914
 30
0.0
  0
ENDBLK
  5
12F
330
124
100
AcDbEntity
  8
0
100
AcDbBlockEnd
  0
BLOCK
  5
13B
330
131
100
AcDbEntity
  8
0
100
AcDbBlockBegin
  2
*D11
 70
     1
 10
0.0
 20
0.0
 30
0.0
  3
*D11
  1

  0
LINE
  5
132
330
131
100
AcDbEntity
  8
0
 62
     0
370
    -2
100
AcDbLine
 10
216.8996940408374
 20
239.9211064042779
 30
0.0
 11
218.8309105324538
 21
239.9211064042779
 31
0.0
  0
LINE
  5
133
330
131
100
AcDbEntity
  8
0
 62
     0
370
    -2
100
AcDbLine
 10
216.8996940408374
 20
175.6495301990848
 30
0.0
 11
218.8309105324538
 21
175.6495301990848
 31
0.0
  0
LINE
  5
134
330
131
100
AcDbEntity
  8
0
 62
     0
370
    -2
100
AcDbLine
 10
217.5809105324538
 20
237.4211064042778
 30
0.0
 11
217.5809105324538
 21
178.1495301990849
 31
0.0
  0
SOLID
  5
135
330
131
100
AcDbEntity
  8
0
 62
     0
100
AcDbTrace
 10
217.1642438657871
 20
237.4211064042778
 30
0.0
 11
217.9975771991204
 21
237.4211064042778
 31
0.0
 12
217.5809105324538
 22
239.9211064042779
 32
0.0
 13
217.5809105324538
 23
239.9211064042779
 33
0.0
  0
SOLID
  5
136
330
131
100
AcDbEntity
  8
0
 62
     0
100
AcDbTrace
 10
217.1642438657871
 20
178.1495301990849
 30
0.0
 11
217.9975771991204
 21
178.1495301990849
 31
0.0
 12
217.5809105324538
 22
175.6495301990848
 32
0.0
 13
217.5809105324538
 23
175.6495301990848
 33
0.0
  0
MTEXT
  5
137
330
131
100
AcDbEntity
  8
0
 62
     0
100
AcDbMText
 10
215.4975771991204
 20
207.7853183016814
 30
0.0
 40
2.5
 41
0.0
 71
     5
 72
     1
  1
64,27
 11
0.0000000000000001
 21
1.0
 31
0.0
 73
     1
 44
1.0
1001
ACAD
1000
MTEXTBEGIN
1070
    73
1070
     1
1070
    44
1040
1.0
1070
    74
1070
     0
1000
MTEXTEND
  0
POINT
  5
138
330
131
100
AcDbEntity
  8
Defpoints
 62
     0
100
AcDbPoint
 10
216.2746940408374
 20
239.9211064042779
 30
0.0
  0
POINT
  5
139
330
131
100
AcDbEntity
  8
Defpoints
 62
     0
100
AcDbPoint
 10
216.2746940408374
 20
175.6495301990848
 30
0.0
  0
POINT
  5
13A
330
131
100
AcDbEntity
  8
Defpoints
 62
     0
100
AcDbPoint
 10
217.5809105324538
 20
175.6495301990848
 30
0.0
  0
ENDBLK
  5
13C
330
131
100
AcDbEntity
  8
0
100
AcDbBlockEnd
  0
BLOCK
  5
148
330
13E
100
AcDbEntity
  8
0
100
AcDbBlockBegin
  2
*D12
 70
     1
 10
0.0
 20
0.0
 30
0.0
  3
*D12
  1

  0
LINE
  5
13F
330
13E
100
AcDbEntity
  8
0
 62
     0
370
    -2
100
AcDbLine
 10
280.577767240434
 20
239.9211064042779
 30
0.0
 11
286.1010797472129
 21
239.9211064042779
 31
0.0
  0
LINE
  5
140
330
13E
100
AcDbEntity
  8
0
 62
     0
370
    -2
100
AcDbLine
 10
280.577767240434
 20
190.0046031316787
 30
0.0
 11
286.1010797472129
 21
190.0046031316787
 31
0.0
  0
LINE
  5
141
330
13E
100
AcDbEntity
  8
0
 62
     0
370
    -2
100
AcDbLine
 10
284.8510797472128
 20
237.4211064042778
 30
0.0
 11
284.8510797472128
 21
192.5046031316787
 31
0.0
  0
SOLID
  5
142
330
13E
100
AcDbEntity
  8
0
 62
     0
100
AcDbTrace
 10
284.4344130805462
 20
237.4211064042778
 30
0.0
 11
285.2677464138796
 21
237.4211064042778
 31
0.0
 12
284.8510797472128
 22
239.9211064042779
 32
0.0
 13
284.8510797472128
 23
239.9211064042779
 33
0.0
  0
SOLID
  5
143
330
13E
100
AcDbEntity
  8
0
 62
     0
100
AcDbTrace
 10
284.4344130805462
 20
192.5046031316787
 30
0.0
 11
285.2677464138796
 21
192.5046031316787
 31
0.0
 12
284.8510797472128
 22
190.0046031316787
 32
0.0
 13
284.8510797472128
 23
190.0046031316787
 33
0.0
  0
MTEXT
  5
144
330
13E
100
AcDbEntity
  8
0
 62
     0
100
AcDbMText
 10
282.7677464138795
 20
214.9628547679783
 30
0.0
 40
2.5
 41
0.0
 71
     5
 72
     1
  1
49,92
 11
0.0000000000000001
 21
1.0
 31
0.0
 73
     1
 44
1.0
1001
ACAD
1000
MTEXTBEGIN
1070
    73
1070
     1
1070
    44
1040
1.0
1070
    74
1070
     0
1000
MTEXTEND
  0
POINT
  5
145
330
13E
100
AcDbEntity
  8
Defpoints
 62
     0
100
AcDbPoint
 10
279.952767240434
 20
239.9211064042779
 30
0.0
  0
POINT
  5
146
330
13E
100
AcDbEntity
  8
Defpoints
 62
     0
100
AcDbPoint
 10
279.952767240434
 20
190.0046031316787
 30
0.0
  0
POINT
  5
147
330
13E
100
AcDbEntity
  8
Defpoints
 62
     0
100
AcDbPoint
 10
284.8510797472128
 20
190.0046031316787
 30
0.0
  0
ENDBLK
  5
149
330
13E
100
AcDbEntity
  8
0
100
AcDbBlockEnd
  0
BLOCK
  5
155
330
14B
100
AcDbEntity
  8
0
100
AcDbBlockBegin
  2
*D13
 70
     1
 10
0.0
 20
0.0
 30
0.0
  3
*D13
  1

  0
LINE
  5
14C
330
14B
100
AcDbEntity
  8
0
 62
     0
370
    -2
100
AcDbLine
 10
20.34216060883454
 20
184.1595768651509
 30
0.0
 11
20.34216060883454
 21
181.9033186568609
 31
0.0
  0
LINE
  5
14D
330
14B
100
AcDbEntity
  8
0
 62
     0
370
    -2
100
AcDbLine
 10
60.50833032716446
 20
184.1595768651509
 30
0.0
 11
60.50833032716446
 21
181.9033186568609
 31
0.0
  0
LINE
  5
14E
330
14B
100
AcDbEntity
  8
0
 62
     0
370
    -2
100
AcDbLine
 10
22.84216060883454
 20
183.1533186568609
 30
0.0
 11
58.00833032716446
 21
183.1533186568609
 31
0.0
  0
SOLID
  5
14F
330
14B
100
AcDbEntity
  8
0
 62
     0
100
AcDbTrace
 10
22.84216060883454
 20
183.5699853235276
 30
0.0
 11
22.84216060883454
 21
182.7366519901943
 31
0.0
 12
20.34216060883454
 22
183.1533186568609
 32
0.0
 13
20.34216060883454
 23
183.1533186568609
 33
0.0
  0
SOLID
  5
150
330
14B
100
AcDbEntity
  8
0
 62
     0
100
AcDbTrace
 10
58.00833032716446
 20
183.5699853235276
 30
0.0
 11
58.00833032716446
 21
182.7366519901943
 31
0.0
 12
60.50833032716446
 22
183.1533186568609
 32
0.0
 13
60.50833032716446
 23
183.1533186568609
 33
0.0
  0
MTEXT
  5
151
330
14B
100
AcDbEntity
  8
0
 62
     0
100
AcDbMText
 10
40.4252454679995
 20
185.2366519901942
 30
0.0
 40
2.5
 41
0.0
 71
     5
 72
     1
  1
40,17
 73
     1
 44
1.0
1001
ACAD
1000
MTEXTBEGIN
1070
    73
1070
     1
1070
    44
1040
1.0
1070
    74
1070
     0
1000
MTEXTEND
  0
POINT
  5
152
330
14B
100
AcDbEntity
  8
Defpoints
 62
     0
100
AcDbPoint
 10
20.34216060883454
 20
184.7845768651509
 30
0.0
  0
POINT
  5
153
330
14B
100
AcDbEntity
  8
Defpoints
 62
     0
100
AcDbPoint
 10
60.50833032716446
 20
184.7845768651509
 30
0.0
  0
POINT
  5
154
330
14B
100
AcDbEntity
  8
Defpoints
 62
     0
100
AcDbPoint
 10
60.50833032716446
 20
183.1533186568609
 30
0.0
  0
ENDBLK
  5
156
330
14B
100
AcDbEntity
  8
0
100
AcDbBlockEnd
  0
BLOCK
  5
162
330
158
100
AcDbEntity
  8
0
100
AcDbBlockBegin
  2
*D14
 70
     1
 10
0.0
 20
0.0
 30
0.0
  3
*D14
  1

  0
LINE
  5
159
330
158
100
AcDbEntity
  8
0
 62
     0
370
    -2
100
AcDbLine
 10
70.30495666715615
 20
243.8636293874897
 30
0.0
 11
70.30495666715615
 21
241.2811195375418
 31
0.0
  0
LINE
  5
15A
330
158
100
AcDbEntity
  8
0
 62
     0
370
    -2
100
AcDbLine
 10
110.471126385486
 20
243.8636293874897
 30
0.0
 11
110.471126385486
 21
241.2811195375418
 31
0.0
  0
LINE
  5
15B
330
158
100
AcDbEntity
  8
0
 62
     0
370
    -2
100
AcDbLine
 10
72.80495666715615
 20
242.5311195375418
 30
0.0
 11
107.971126385486
 21
242.5311195375418
 31
0.0
  0
SOLID
  5
15C
330
158
100
AcDbEntity
  8
0
 62
     0
100
AcDbTrace
 10
72.80495666715615
 20
242.9477862042084
 30
0.0
 11
72.80495666715615
 21
242.1144528708751
 31
0.0
 12
70.30495666715615
 22
242.5311195375418
 32
0.0
 13
70.30495666715615
 23
242.5311195375418
 33
0.0
  0
SOLID
  5
15D
330
158
100
AcDbEntity
  8
0
 62
     0
100
AcDbTrace
 10
107.971126385486
 20
242.9477862042084
 30
0.0
 11
107.971126385486
 21
242.1144528708751
 31
0.0
 12
110.471126385486
 22
242.5311195375418
 32
0.0
 13
110.471126385486
 23
242.5311195375418
 33
0.0
  0
MTEXT
  5
15E
330
158
100
AcDbEntity
  8
0
 62
     0
100
AcDbMText
 10
90.38804152632108
 20
244.6144528708751
 30
0.0
 40
2.5
 41
0.0
 71
     5
 72
     1
  1
40,17
 73
     1
 44
1.0
1001
ACAD
1000
MTEXTBEGIN
1070
    73
1070
     1
1070
    44
1040
1.0
1070
    74
1070
     0
1000
MTEXTEND
  0
POINT
  5
15F
330
158
100
AcDbEntity
  8
Defpoints
 62
     0
100
AcDbPoint
 10
70.30495666715615
 20
244.4886293874897
 30
0.0
  0
POINT
  5
160
330
158
100
AcDbEntity
  8
Defpoints
 62
     0
100
AcDbPoint
 10
110.471126385486
 20
244.4886293874897
 30
0.0
  0
POINT
  5
161
330
158
100
AcDbEntity
  8
Defpoints
 62
     0
100
AcDbPoint
 10
110.471126385486
 20
242.5311195375418
 30
0.0
  0
ENDBLK
  5
163
330
158
100
AcDbEntity
  8
0
100
AcDbBlockEnd
  0
BLOCK
  5
16F
330
165
100
AcDbEntity
  8
0
100
AcDbBlockBegin
  2
*D15
 70
     1
 10
0.0
 20
0.0
 30
0.0
  3
*D15
  1

  0
LINE
  5
166
330
165
100
AcDbEntity
  8
0
 62
     0
370
    -2
100
AcDbLine
 10
130.0643790654694
 20
243.4823711791997
 30
0.0
 11
130.0643790654694
 21
244.4336228208577
 31
0.0
  0
LINE
  5
167
330
165
100
AcDbEntity
  8
0
 62
     0
370
    -2
100
AcDbLine
 10
170.2305487837993
 20
243.4823711791997
 30
0.0
 11
170.2305487837993
 21
244.4336228208577
 31
0.0
  0
LINE
  5
168
330
165
100
AcDbEntity
  8
0
 62
     0
370
    -2
100
AcDbLine
 10
132.5643790654694
 20
243.1836228208577
 30
0.0
 11
167.7305487837993
 21
243.1836228208577
 31
0.0
  0
SOLID
  5
169
330
165
100
AcDbEntity
  8
0
 62
     0
100
AcDbTrace
 10
132.5643790654694
 20
243.6002894875243
 30
0.0
 11
132.5643790654694
 21
242.7669561541911
 31
0.0
 12
130.0643790654694
 22
243.1836228208577
 32
0.0
 13
130.0643790654694
 23
243.1836228208577
 33
0.0
  0
SOLID
  5
16A
330
165
100
AcDbEntity
  8
0
 62
     0
100
AcDbTrace
 10
167.7305487837993
 20
243.6002894875243
 30
0.0
 11
167.7305487837993
 21
242.7669561541911
 31
0.0
 12
170.2305487837993
 22
243.1836228208577
 32
0.0
 13
170.2305487837993
 23
243.1836228208577
 33
0.0
  0
MTEXT
  5
16B
330
165
100
AcDbEntity
  8
0
 62
     0
100
AcDbMText
 10
150.1474639246344
 20
245.266956154191
 30
0.0
 40
2.5
 41
0.0
 71
     5
 72
     1
  1
40,17
 73
     1
 44
1.0
1001
ACAD
1000
MTEXTBEGIN
1070
    73
1070
     1
1070
    44
1040
1.0
1070
    74
1070
     0
1000
MTEXTEND
  0
POINT
  5
16C
330
165
100
AcDbEntity
  8
Defpoints
 62
     0
100
AcDbPoint
 10
130.0643790654694
 20
242.8573711791997
 30
0.0
  0
POINT
  5
16D
330
165
100
AcDbEntity
  8
Defpoints
 62
     0
100
AcDbPoint
 10
170.2305487837993
 20
242.8573711791997
 30
0.0
  0
POINT
  5
16E
330
165
100
AcDbEntity
  8
Defpoints
 62
     0
100
AcDbPoint
 10
170.2305487837993
 20
243.1836228208577
 30
0.0
  0
ENDBLK
  5
170
330
165
100
AcDbEntity
  8
0
100
AcDbBlockEnd
  0
BLOCK
  5
17C
330
172
100
AcDbEntity
  8
0
100
AcDbBlockBegin
  2
*D16
 70
     1
 10
0.0
 20
0.0
 30
0.0
  3
*D16
  1

  0
LINE
  5
173
330
172
100
AcDbEntity
  8
0
 62
     0
370
    -2
100
AcDbLine
 10
180.0271751237908
 20
245.4948875957795
 30
0.0
 11
180.0271751237908
 21
241.6073711791997
 31
0.0
  0
LINE
  5
174
330
172
100
AcDbEntity
  8
0
 62
     0
370
    -2
100
AcDbLine
 10
213.3357062714833
 20
245.4948875957795
 30
0.0
 11
213.3357062714833
 21
241.6073711791997
 31
0.0
  0
LINE
  5
175
330
172
100
AcDbEntity
  8
0
 62
     0
370
    -2
100
AcDbLine
 10
182.5271751237908
 20
242.8573711791997
 30
0.0
 11
210.8357062714833
 21
242.8573711791997
 31
0.0
  0
SOLID
  5
176
330
172
100
AcDbEntity
  8
0
 62
     0
100
AcDbTrace
 10
182.5271751237908
 20
243.2740378458663
 30
0.0
 11
182.5271751237908
 21
242.4407045125331
 31
0.0
 12
180.0271751237908
 22
242.8573711791997
 32
0.0
 13
180.0271751237908
 23
242.8573711791997
 33
0.0
  0
SOLID
  5
177
330
172
100
AcDbEntity
  8
0
 62
     0
100
AcDbTrace
 10
210.8357062714833
 20
243.2740378458663
 30
0.0
 11
210.8357062714833
 21
242.4407045125331
 31
0.0
 12
213.3357062714833
 22
242.8573711791997
 32
0.0
 13
213.3357062714833
 23
242.8573711791997
 33
0.0
  0
MTEXT
  5
178
330
172
100
AcDbEntity
  8
0
 62
     0
100
AcDbMText
 10
196.681440697637
 20
244.940704512533
 30
0.0
 40
2.5
 41
0.0
 71
     5
 72
     1
  1
33,31
 73
     1
 44
1.0
1001
ACAD
1000
MTEXTBEGIN
1070
    73
1070
     1
1070
    44
1040
1.0
1070
    74
1070
     0
1000
MTEXTEND
  0
POINT
  5
179
330
172
100
AcDbEntity
  8
Defpoints
 62
     0
100
AcDbPoint
 10
180.0271751237908
 20
246.1198875957795
 30
0.0
  0
POINT
  5
17A
330
172
100
AcDbEntity
  8
Defpoints
 62
     0
100
AcDbPoint
 10
213.3357062714833
 20
246.1198875957795
 30
0.0
  0
POINT
  5
17B
330
172
100
AcDbEntity
  8
Defpoints
 62
     0
100
AcDbPoint
 10
213.3357062714833
 20
242.8573711791997
 30
0.0
  0
ENDBLK
  5
17D
330
172
100
AcDbEntity
  8
0
100
AcDbBlockEnd
  0
BLOCK
  5
189
330
17F
100
AcDbEntity
  8
0
100
AcDbBlockBegin
  2
*D17
 70
     1
 10
0.0
 20
0.0
 30
0.0
  3
*D17
  1

  0
LINE
  5
180
330
17F
100
AcDbEntity
  8
0
 62
     0
370
    -2
100
AcDbLine
 10
220.1933448421209
 20
244.1348744625157
 30
0.0
 11
220.1933448421209
 21
244.7598744625157
 31
0.0
  0
LINE
  5
181
330
17F
100
AcDbEntity
  8
0
 62
     0
370
    -2
100
AcDbLine
 10
246.3176826330545
 20
244.1348744625157
 30
0.0
 11
246.3176826330545
 21
244.7598744625157
 31
0.0
  0
LINE
  5
182
330
17F
100
AcDbEntity
  8
0
 62
     0
370
    -2
100
AcDbLine
 10
222.6933448421209
 20
243.5098744625157
 30
0.0
 11
243.8176826330545
 21
243.5098744625157
 31
0.0
  0
SOLID
  5
183
330
17F
100
AcDbEntity
  8
0
 62
     0
100
AcDbTrace
 10
222.6933448421209
 20
243.9265411291824
 30
0.0
 11
222.6933448421209
 21
243.0932077958491
 31
0.0
 12
220.1933448421209
 22
243.5098744625157
 32
0.0
 13
220.1933448421209
 23
243.5098744625157
 33
0.0
  0
SOLID
  5
184
330
17F
100
AcDbEntity
  8
0
 62
     0
100
AcDbTrace
 10
243.8176826330545
 20
243.9265411291824
 30
0.0
 11
243.8176826330545
 21
243.0932077958491
 31
0.0
 12
246.3176826330545
 22
243.5098744625157
 32
0.0
 13
246.3176826330545
 23
243.5098744625157
 33
0.0
  0
MTEXT
  5
185
330
17F
100
AcDbEntity
  8
0
 62
     0
100
AcDbMText
 10
233.2555137375877
 20
245.593207795849
 30
0.0
 40
2.5
 41
0.0
 71
     5
 72
     1
  1
26,12
 73
     1
 44
1.0
1001
ACAD
1000
MTEXTBEGIN
1070
    73
1070
     1
1070
    44
1040
1.0
1070
    74
1070
     0
1000
MTEXTEND
  0
POINT
  5
186
330
17F
100
AcDbEntity
  8
Defpoints
 62
     0
100
AcDbPoint
 10
220.1933448421209
 20
243.5098744625157
 30
0.0
  0
POINT
  5
187
330
17F
100
AcDbEntity
  8
Defpoints
 62
     0
100
AcDbPoint
 10
246.3176826330545
 20
243.5098744625157
 30
0.0
  0
POINT
  5
188
330
17F
100
AcDbEntity
  8
Defpoints
 62
     0
100
AcDbPoint
 10
246.3176826330545
 20
243.5098744625157
 30
0.0
  0
ENDBLK
  5
18A
330
17F
100
AcDbEntity
  8
0
100
AcDbBlockEnd
  0
BLOCK
  5
196
330
18C
100
AcDbEntity
  8
0
100
AcDbBlockBegin
  2
*D18
 70
     1
 10
0.0
 20
0.0
 30
0.0
  3
*D18
  1

  0
LINE
  5
18D
330
18C
100
AcDbEntity
  8
0
 62
     0
370
    -2
100
AcDbLine
 10
254.8080924814296
 20
243.2111261041736
 30
0.0
 11
254.8080924814296
 21
241.2811195375418
 31
0.0
  0
LINE
  5
18E
330
18C
100
AcDbEntity
  8
0
 62
     0
370
    -2
100
AcDbLine
 10
275.0544534072211
 20
243.2111261041736
 30
0.0
 11
275.0544534072211
 21
241.2811195375418
 31
0.0
  0
LINE
  5
18F
330
18C
100
AcDbEntity
  8
0
 62
     0
370
    -2
100
AcDbLine
 10
257.3080924814296
 20
242.5311195375418
 30
0.0
 11
272.5544534072211
 21
242.5311195375418
 31
0.0
  0
SOLID
  5
190
330
18C
100
AcDbEntity
  8
0
 62
     0
100
AcDbTrace
 10
257.3080924814296
 20
242.9477862042084
 30
0.0
 11
257.3080924814296
 21
242.1144528708751
 31
0.0
 12
254.8080924814296
 22
242.5311195375418
 32
0.0
 13
254.8080924814296
 23
242.5311195375418
 33
0.0
  0
SOLID
  5
191
330
18C
100
AcDbEntity
  8
0
 62
     0
100
AcDbTrace
 10
272.5544534072211
 20
242.9477862042084
 30
0.0
 11
272.5544534072211
 21
242.1144528708751
 31
0.0
 12
275.0544534072211
 22
242.5311195375418
 32
0.0
 13
275.0544534072211
 23
242.5311195375418
 33
0.0
  0
MTEXT
  5
192
330
18C
100
AcDbEntity
  8
0
 62
     0
100
AcDbMText
 10
264.9312729443254
 20
244.6144528708751
 30
0.0
 40
2.5
 41
0.0
 71
     5
 72
     1
  1
20,25
 73
     1
 44
1.0
1001
ACAD
1000
MTEXTBEGIN
1070
    73
1070
     1
1070
    44
1040
1.0
1070
    74
1070
     0
1000
MTEXTEND
  0
POINT
  5
193
330
18C
100
AcDbEntity
  8
Defpoints
 62
     0
100
AcDbPoint
 10
254.8080924814296
 20
243.8361261041736
 30
0.0
  0
POINT
  5
194
330
18C
100
AcDbEntity
  8
Defpoints
 62
     0
100
AcDbPoint
 10
275.0544534072211
 20
243.8361261041736
 30
0.0
  0
POINT
  5
195
330
18C
100
AcDbEntity
  8
Defpoints
 62
     0
100
AcDbPoint
 10
275.0544534072211
 20
242.5311195375418
 30
0.0
  0
ENDBLK
  5
197
330
18C
100
AcDbEntity
  8
0
100
AcDbBlockEnd
  0
BLOCK
  5
1F9
330
1EF
100
AcDbEntity
  8
0
100
AcDbBlockBegin
  2
*D19
 70
     1
 10
0.0
 20
0.0
 30
0.0
  3
*D19
  1

  0
LINE
  5
1F0
330
1EF
100
AcDbEntity
  8
0
 62
     0
370
    -2
100
AcDbLine
 10
20.03004936252432
 20
240.5947602356451
 30
0.0
 11
20.03004936252432
 21
244.8316723271353
 31
0.0
  0
LINE
  5
1F1
330
1EF
100
AcDbEntity
  8
0
 62
     0
370
    -2
100
AcDbLine
 10
60.27724695452821
 20
240.5947602356451
 30
0.0
 11
60.27724695452821
 21
244.8316723271353
 31
0.0
  0
LINE
  5
1F2
330
1EF
100
AcDbEntity
  8
0
 62
     0
370
    -2
100
AcDbLine
 10
22.53004936252432
 20
243.5816723271353
 30
0.0
 11
57.77724695452821
 21
243.5816723271353
 31
0.0
  0
SOLID
  5
1F3
330
1EF
100
AcDbEntity
  8
0
 62
     0
100
AcDbTrace
 10
22.53004936252432
 20
243.9983389938019
 30
0.0
 11
22.53004936252432
 21
243.1650056604686
 31
0.0
 12
20.03004936252432
 22
243.5816723271353
 32
0.0
 13
20.03004936252432
 23
243.5816723271353
 33
0.0
  0
SOLID
  5
1F4
330
1EF
100
AcDbEntity
  8
0
 62
     0
100
AcDbTrace
 10
57.77724695452821
 20
243.9983389938019
 30
0.0
 11
57.77724695452821
 21
243.1650056604686
 31
0.0
 12
60.27724695452821
 22
243.5816723271353
 32
0.0
 13
60.27724695452821
 23
243.5816723271353
 33
0.0
  0
MTEXT
  5
1F5
330
1EF
100
AcDbEntity
  8
0
 62
     0
100
AcDbMText
 10
40.15364815852627
 20
245.6650056604686
 30
0.0
 40
2.5
 41
0.0
 71
     5
 72
     1
  1
40,25
 73
     1
 44
1.0
1001
ACAD
1000
MTEXTBEGIN
1070
    73
1070
     1
1070
    44
1040
1.0
1070
    74
1070
     0
1000
MTEXTEND
  0
POINT
  5
1F6
330
1EF
100
AcDbEntity
  8
Defpoints
 62
     0
100
AcDbPoint
 10
20.03004936252432
 20
239.9697602356451
 30
0.0
  0
POINT
  5
1F7
330
1EF
100
AcDbEntity
  8
Defpoints
 62
     0
100
AcDbPoint
 10
60.27724695452821
 20
239.9697602356451
 30
0.0
  0
POINT
  5
1F8
330
1EF
100
AcDbEntity
  8
Defpoints
 62
     0
100
AcDbPoint
 10
60.27724695452821
 20
243.5816723271353
 30
0.0
  0
ENDBLK
  5
1FA
330
1EF
100
AcDbEntity
  8
0
100
AcDbBlockEnd
  0
BLOCK
  5
258
330
24E
100
AcDbEntity
  8
0
100
AcDbBlockBegin
  2
*D20
 70
     1
 10
0.0
 20
0.0
 30
0.0
  3
*D20
  1

  0
LINE
  5
24F
330
24E
100
AcDbEntity
  8
0
 62
     0
370
    -2
100
AcDbLine
 10
9.845911287854503
 20
250.4104632036619
 30
0.0
 11
9.845911287854503
 21
244.295662145574
 31
0.0
  0
LINE
  5
250
330
24E
100
AcDbEntity
  8
0
 62
     0
370
    -2
100
AcDbLine
 10
49.88862674946132
 20
250.4104632036619
 30
0.0
 11
49.88862674946132
 21
244.295662145574
 31
0.0
  0
LINE
  5
251
330
24E
100
AcDbEntity
  8
0
 62
     0
370
    -2
100
AcDbLine
 10
12.3459112878545
 20
245.545662145574
 30
0.0
 11
47.38862674946132
 21
245.545662145574
 31
0.0
  0
SOLID
  5
252
330
24E
100
AcDbEntity
  8
0
 62
     0
100
AcDbTrace
 10
12.3459112878545
 20
245.9623288122406
 30
0.0
 11
12.3459112878545
 21
245.1289954789074
 31
0.0
 12
9.845911287854503
 22
245.545662145574
 32
0.0
 13
9.845911287854503
 23
245.545662145574
 33
0.0
  0
SOLID
  5
253
330
24E
100
AcDbEntity
  8
0
 62
     0
100
AcDbTrace
 10
47.38862674946132
 20
245.9623288122406
 30
0.0
 11
47.38862674946132
 21
245.1289954789074
 31
0.0
 12
49.88862674946132
 22
245.545662145574
 32
0.0
 13
49.88862674946132
 23
245.545662145574
 33
0.0
  0
MTEXT
  5
254
330
24E
100
AcDbEntity
  8
0
 62
     0
100
AcDbMText
 10
29.86726901865791
 20
247.420662145574
 30
0.0
 40
2.5
 41
0.0
 71
     5
 72
     1
  1
40
 73
     1
 44
1.0
1001
ACAD
1000
MTEXTBEGIN
1070
    73
1070
     1
1070
    44
1040
1.0
1070
    74
1070
     0
1000
MTEXTEND
  0
POINT
  5
255
330
24E
100
AcDbEntity
  8
Defpoints
 62
     0
100
AcDbPoint
 10
9.845911287854503
 20
251.0354632036619
 30
0.0
  0
POINT
  5
256
330
24E
100
AcDbEntity
  8
Defpoints
 62
     0
100
AcDbPoint
 10
49.88862674946132
 20
251.0354632036619
 30
0.0
  0
POINT
  5
257
330
24E
100
AcDbEntity
  8
Defpoints
 62
     0
100
AcDbPoint
 10
49.88862674946132
 20
245.545662145574
 30
0.0
  0
ENDBLK
  5
259
330
24E
100
AcDbEntity
  8
0
100
AcDbBlockEnd
  0
BLOCK
  5
265
330
25B
100
AcDbEntity
  8
0
100
AcDbBlockBegin
  2
*D21
 70
     1
 10
0.0
 20
0.0
 30
0.0
  3
*D21
  1

  0
LINE
  5
25C
330
25B
100
AcDbEntity
  8
0
 62
     0
370
    -2
100
AcDbLine
 10
0.6565198879741275
 20
240.055861087486
 30
0.0
 11
5.992428122393232
 21
240.055861087486
 31
0.0
  0
LINE
  5
25D
330
25B
100
AcDbEntity
  8
0
 62
     0
370
    -2
100
AcDbLine
 10
0.6565198879741168
 20
182.0208225173174
 30
0.0
 11
5.992428122393222
 21
182.0208225173174
 31
0.0
  0
LINE
  5
25E
330
25B
100
AcDbEntity
  8
0
 62
     0
370
    -2
100
AcDbLine
 10
4.74242812239323
 20
237.555861087486
 30
0.0
 11
4.742428122393222
 21
184.5208225173174
 31
0.0
  0
SOLID
  5
25F
330
25B
100
AcDbEntity
  8
0
 62
     0
100
AcDbTrace
 10
4.325761455726564
 20
237.555861087486
 30
0.0
 11
5.159094789059897
 21
237.555861087486
 31
0.0
 12
4.742428122393232
 22
240.055861087486
 32
0.0
 13
4.742428122393232
 23
240.055861087486
 33
0.0
  0
SOLID
  5
260
330
25B
100
AcDbEntity
  8
0
 62
     0
100
AcDbTrace
 10
4.325761455726554
 20
184.5208225173174
 30
0.0
 11
5.159094789059887
 21
184.5208225173174
 31
0.0
 12
4.742428122393222
 22
182.0208225173174
 32
0.0
 13
4.742428122393222
 23
182.0208225173174
 33
0.0
  0
MTEXT
  5
261
330
25B
100
AcDbEntity
  8
0
 62
     0
100
AcDbMText
 10
2.867428122393193
 20
211.0383418024017
 30
0.0
 40
2.5
 41
0.0
 71
     5
 72
     1
  1
58
 11
0.0000000000000001
 21
1.0
 31
0.0
 73
     1
 44
1.0
1001
ACAD
1000
MTEXTBEGIN
1070
    73
1070
     1
1070
    44
1040
1.0
1070
    74
1070
     0
1000
MTEXTEND
  0
POINT
  5
262
330
25B
100
AcDbEntity
  8
Defpoints
 62
     0
100
AcDbPoint
 10
0.0315198879741274
 20
240.055861087486
 30
0.0
  0
POINT
  5
263
330
25B
100
AcDbEntity
  8
Defpoints
 62
     0
100
AcDbPoint
 10
0.0315198879741168
 20
182.0208225173174
 30
0.0
  0
POINT
  5
264
330
25B
100
AcDbEntity
  8
Defpoints
 62
     0
100
AcDbPoint
 10
4.742428122393222
 20
182.0208225173174
 30
0.0
  0
ENDBLK
  5
266
330
25B
100
AcDbEntity
  8
0
100
AcDbBlockEnd
  0
BLOCK
  5
272
330
268
100
AcDbEntity
  8
0
100
AcDbBlockBegin
  2
*D22
 70
     1
 10
0.0
 20
0.0
 30
0.0
  3
*D22
  1

  0
LINE
  5
269
330
268
100
AcDbEntity
  8
0
 62
     0
370
    -2
100
AcDbLine
 10
70.30256070586574
 20
248.8419486898094
 30
0.0
 11
70.30256070586574
 21
243.1192763899866
 31
0.0
  0
LINE
  5
26A
330
268
100
AcDbEntity
  8
0
 62
     0
370
    -2
100
AcDbLine
 10
109.9527012364299
 20
248.8419486898094
 30
0.0
 11
109.9527012364299
 21
243.1192763899866
 31
0.0
  0
LINE
  5
26B
330
268
100
AcDbEntity
  8
0
 62
     0
370
    -2
100
AcDbLine
 10
72.80256070586573
 20
244.3692763899866
 30
0.0
 11
107.4527012364299
 21
244.3692763899866
 31
0.0
  0
SOLID
  5
26C
330
268
100
AcDbEntity
  8
0
 62
     0
100
AcDbTrace
 10
72.80256070586573
 20
244.7859430566533
 30
0.0
 11
72.80256070586573
 21
243.95260972332
 31
0.0
 12
70.30256070586574
 22
244.3692763899866
 32
0.0
 13
70.30256070586574
 23
244.3692763899866
 33
0.0
  0
SOLID
  5
26D
330
268
100
AcDbEntity
  8
0
 62
     0
100
AcDbTrace
 10
107.4527012364299
 20
244.7859430566533
 30
0.0
 11
107.4527012364299
 21
243.95260972332
 31
0.0
 12
109.9527012364299
 22
244.3692763899866
 32
0.0
 13
109.9527012364299
 23
244.3692763899866
 33
0.0
  0
MTEXT
  5
26E
330
268
100
AcDbEntity
  8
0
 62
     0
100
AcDbMText
 10
90.12763097114783
 20
246.2442763899866
 30
0.0
 40
2.5
 41
0.0
 71
     5
 72
     1
  1
40
 73
     1
 44
1.0
1001
ACAD
1000
MTEXTBEGIN
1070
    73
1070
     1
1070
    44
1040
1.0
1070
    74
1070
     0
1000
MTEXTEND
  0
POINT
  5
26F
330
268
100
AcDbEntity
  8
Defpoints
 62
     0
100
AcDbPoint
 10
70.30256070586574
 20
249.4669486898094
 30
0.0
  0
POINT
  5
270
330
268
100
AcDbEntity
  8
Defpoints
 62
     0
100
AcDbPoint
 10
109.9527012364299
 20
249.4669486898094
 30
0.0
  0
POINT
  5
271
330
268
100
AcDbEntity
  8
Defpoints
 62
     0
100
AcDbPoint
 10
109.9527012364299
 20
244.3692763899866
 30
0.0
  0
ENDBLK
  5
273
330
268
100
AcDbEntity
  8
0
100
AcDbBlockEnd
  0
BLOCK
  5
28C
330
282
100
AcDbEntity
  8
0
100
AcDbBlockBegin
  2
*D23
 70
     1
 10
0.0
 20
0.0
 30
0.0
  3
*D23
  1

  0
LINE
  5
283
330
282
100
AcDbEntity
  8
0
 62
     0
370
    -2
100
AcDbLine
 10
129.9740589672333
 20
249.2340769288665
 30
0.0
 11
129.9740589672333
 21
244.295662145574
 31
0.0
  0
LINE
  5
284
330
282
100
AcDbEntity
  8
0
 62
     0
370
    -2
100
AcDbLine
 10
170.0167744288399
 20
249.2340769288665
 30
0.0
 11
170.0167744288399
 21
244.295662145574
 31
0.0
  0
LINE
  5
285
330
282
100
AcDbEntity
  8
0
 62
     0
370
    -2
100
AcDbLine
 10
132.4740589672333
 20
245.545662145574
 30
0.0
 11
167.5167744288398
 21
245.545662145574
 31
0.0
  0
SOLID
  5
286
330
282
100
AcDbEntity
  8
0
 62
     0
100
AcDbTrace
 10
132.4740589672333
 20
245.9623288122406
 30
0.0
 11
132.4740589672333
 21
245.1289954789074
 31
0.0
 12
129.9740589672333
 22
245.545662145574
 32
0.0
 13
129.9740589672333
 23
245.545662145574
 33
0.0
  0
SOLID
  5
287
330
282
100
AcDbEntity
  8
0
 62
     0
100
AcDbTrace
 10
167.5167744288398
 20
245.9623288122406
 30
0.0
 11
167.5167744288398
 21
245.1289954789074
 31
0.0
 12
170.0167744288399
 22
245.545662145574
 32
0.0
 13
170.0167744288399
 23
245.545662145574
 33
0.0
  0
MTEXT
  5
288
330
282
100
AcDbEntity
  8
0
 62
     0
100
AcDbMText
 10
149.9954166980366
 20
247.420662145574
 30
0.0
 40
2.5
 41
0.0
 71
     5
 72
     1
  1
40
 73
     1
 44
1.0
1001
ACAD
1000
MTEXTBEGIN
1070
    73
1070
     1
1070
    44
1040
1.0
1070
    74
1070
     0
1000
MTEXTEND
  0
POINT
  5
289
330
282
100
AcDbEntity
  8
Defpoints
 62
     0
100
AcDbPoint
 10
129.9740589672333
 20
249.8590769288665
 30
0.0
  0
POINT
  5
28A
330
282
100
AcDbEntity
  8
Defpoints
 62
     0
100
AcDbPoint
 10
170.0167744288399
 20
249.8590769288665
 30
0.0
  0
POINT
  5
28B
330
282
100
AcDbEntity
  8
Defpoints
 62
     0
100
AcDbPoint
 10
170.0167744288399
 20
245.545662145574
 30
0.0
  0
ENDBLK
  5
28D
330
282
100
AcDbEntity
  8
0
100
AcDbBlockEnd
  0
BLOCK
  5
299
330
28F
100
AcDbEntity
  8
0
100
AcDbBlockBegin
  2
*D24
 70
     1
 10
0.0
 20
0.0
 30
0.0
  3
*D24
  1

  0
LINE
  5
290
330
28F
100
AcDbEntity
  8
0
 62
     0
370
    -2
100
AcDbLine
 10
190.4307083852443
 20
248.8419486898094
 30
0.0
 11
190.4307083852443
 21
243.1192763899866
 31
0.0
  0
LINE
  5
291
330
28F
100
AcDbEntity
  8
0
 62
     0
370
    -2
100
AcDbLine
 10
223.7996383681029
 20
248.8419486898094
 30
0.0
 11
223.7996383681029
 21
243.1192763899866
 31
0.0
  0
LINE
  5
292
330
28F
100
AcDbEntity
  8
0
 62
     0
370
    -2
100
AcDbLine
 10
192.9307083852443
 20
244.3692763899866
 30
0.0
 11
221.299638368103
 21
244.3692763899866
 31
0.0
  0
SOLID
  5
293
330
28F
100
AcDbEntity
  8
0
 62
     0
100
AcDbTrace
 10
192.9307083852443
 20
244.7859430566533
 30
0.0
 11
192.9307083852443
 21
243.95260972332
 31
0.0
 12
190.4307083852443
 22
244.3692763899866
 32
0.0
 13
190.4307083852443
 23
244.3692763899866
 33
0.0
  0
SOLID
  5
294
330
28F
100
AcDbEntity
  8
0
 62
     0
100
AcDbTrace
 10
221.299638368103
 20
244.7859430566533
 30
0.0
 11
221.299638368103
 21
243.95260972332
 31
0.0
 12
223.7996383681029
 22
244.3692763899866
 32
0.0
 13
223.7996383681029
 23
244.3692763899866
 33
0.0
  0
MTEXT
  5
295
330
28F
100
AcDbEntity
  8
0
 62
     0
100
AcDbMText
 10
207.1151733766736
 20
246.2442763899866
 30
0.0
 40
2.5
 41
0.0
 71
     5
 72
     1
  1
33
 73
     1
 44
1.0
1001
ACAD
1000
MTEXTBEGIN
1070
    73
1070
     1
1070
    44
1040
1.0
1070
    74
1070
     0
1000
MTEXTEND
  0
POINT
  5
296
330
28F
100
AcDbEntity
  8
Defpoints
 62
     0
100
AcDbPoint
 10
190.4307083852443
 20
249.4669486898094
 30
0.0
  0
POINT
  5
297
330
28F
100
AcDbEntity
  8
Defpoints
 62
     0
100
AcDbPoint
 10
223.7996383681029
 20
249.4669486898094
 30
0.0
  0
POINT
  5
298
330
28F
100
AcDbEntity
  8
Defpoints
 62
     0
100
AcDbPoint
 10
223.7996383681029
 20
244.3692763899866
 30
0.0
  0
ENDBLK
  5
29A
330
28F
100
AcDbEntity
  8
0
100
AcDbBlockEnd
  0
BLOCK
  5
2A6
330
29C
100
AcDbEntity
  8
0
100
AcDbBlockBegin
  2
*D25
 70
     1
 10
0.0
 20
0.0
 30
0.0
  3
*D25
  1

  0
LINE
  5
29D
330
29C
100
AcDbEntity
  8
0
 62
     0
370
    -2
100
AcDbLine
 10
241.4059278269535
 20
249.2340769288665
 30
0.0
 11
241.4059278269535
 21
243.9035333873089
 31
0.0
  0
LINE
  5
29E
330
29C
100
AcDbEntity
  8
0
 62
     0
370
    -2
100
AcDbLine
 10
267.3755346818841
 20
249.2340769288665
 30
0.0
 11
267.3755346818841
 21
243.9035333873089
 31
0.0
  0
LINE
  5
29F
330
29C
100
AcDbEntity
  8
0
 62
     0
370
    -2
100
AcDbLine
 10
243.9059278269535
 20
245.1535333873088
 30
0.0
 11
264.8755346818841
 21
245.1535333873088
 31
0.0
  0
SOLID
  5
2A0
330
29C
100
AcDbEntity
  8
0
 62
     0
100
AcDbTrace
 10
243.9059278269535
 20
245.5702000539755
 30
0.0
 11
243.9059278269535
 21
244.7368667206422
 31
0.0
 12
241.4059278269535
 22
245.1535333873088
 32
0.0
 13
241.4059278269535
 23
245.1535333873088
 33
0.0
  0
SOLID
  5
2A1
330
29C
100
AcDbEntity
  8
0
 62
     0
100
AcDbTrace
 10
264.8755346818841
 20
245.5702000539755
 30
0.0
 11
264.8755346818841
 21
244.7368667206422
 31
0.0
 12
267.3755346818841
 22
245.1535333873088
 32
0.0
 13
267.3755346818841
 23
245.1535333873088
 33
0.0
  0
MTEXT
  5
2A2
330
29C
100
AcDbEntity
  8
0
 62
     0
100
AcDbMText
 10
254.3907312544188
 20
247.0285333873089
 30
0.0
 40
2.5
 41
0.0
 71
     5
 72
     1
  1
26
 73
     1
 44
1.0
1001
ACAD
1000
MTEXTBEGIN
1070
    73
1070
     1
1070
    44
1040
1.0
1070
    74
1070
     0
1000
MTEXTEND
  0
POINT
  5
2A3
330
29C
100
AcDbEntity
  8
Defpoints
 62
     0
100
AcDbPoint
 10
241.4059278269535
 20
249.8590769288665
 30
0.0
  0
POINT
  5
2A4
330
29C
100
AcDbEntity
  8
Defpoints
 62
     0
100
AcDbPoint
 10
267.3755346818841
 20
249.8590769288665
 30
0.0
  0
POINT
  5
2A5
330
29C
100
AcDbEntity
  8
Defpoints
 62
     0
100
AcDbPoint
 10
267.3755346818841
 20
245.1535333873088
 30
0.0
  0
ENDBLK
  5
2A7
330
29C
100
AcDbEntity
  8
0
100
AcDbBlockEnd
  0
BLOCK
  5
2B3
330
2A9
100
AcDbEntity
  8
0
100
AcDbBlockBegin
  2
*D26
 70
     1
 10
0.0
 20
0.0
 30
0.0
  3
*D26
  1

  0
LINE
  5
2AA
330
2A9
100
AcDbEntity
  8
0
 62
     0
370
    -2
100
AcDbLine
 10
279.8018506943995
 20
248.8419486898094
 30
0.0
 11
279.8018506943995
 21
243.5114046290436
 31
0.0
  0
LINE
  5
2AB
330
2A9
100
AcDbEntity
  8
0
 62
     0
370
    -2
100
AcDbLine
 10
299.9593135080993
 20
248.8419486898094
 30
0.0
 11
299.9593135080993
 21
243.5114046290436
 31
0.0
  0
LINE
  5
2AC
330
2A9
100
AcDbEntity
  8
0
 62
     0
370
    -2
100
AcDbLine
 10
282.3018506943995
 20
244.7614046290436
 30
0.0
 11
297.4593135080993
 21
244.7614046290436
 31
0.0
  0
SOLID
  5
2AD
330
2A9
100
AcDbEntity
  8
0
 62
     0
100
AcDbTrace
 10
282.3018506943995
 20
245.1780712957103
 30
0.0
 11
282.3018506943995
 21
244.344737962377
 31
0.0
 12
279.8018506943995
 22
244.7614046290436
 32
0.0
 13
279.8018506943995
 23
244.7614046290436
 33
0.0
  0
SOLID
  5
2AE
330
2A9
100
AcDbEntity
  8
0
 62
     0
100
AcDbTrace
 10
297.4593135080993
 20
245.1780712957103
 30
0.0
 11
297.4593135080993
 21
244.344737962377
 31
0.0
 12
299.9593135080993
 22
244.7614046290436
 32
0.0
 13
299.9593135080993
 23
244.7614046290436
 33
0.0
  0
MTEXT
  5
2AF
330
2A9
100
AcDbEntity
  8
0
 62
     0
100
AcDbMText
 10
289.8805821012494
 20
246.6364046290436
 30
0.0
 40
2.5
 41
0.0
 71
     5
 72
     1
  1
20
 73
     1
 44
1.0
1001
ACAD
1000
MTEXTBEGIN
1070
    73
1070
     1
1070
    44
1040
1.0
1070
    74
1070
     0
1000
MTEXTEND
  0
POINT
  5
2B0
330
2A9
100
AcDbEntity
  8
Defpoints
 62
     0
100
AcDbPoint
 10
279.8018506943995
 20
249.4669486898094
 30
0.0
  0
POINT
  5
2B1
330
2A9
100
AcDbEntity
  8
Defpoints
 62
     0
100
AcDbPoint
 10
299.9593135080993
 20
249.4669486898094
 30
0.0
  0
POINT
  5
2B2
330
2A9
100
AcDbEntity
  8
Defpoints
 62
     0
100
AcDbPoint
 10
299.9593135080993
 20
244.7614046290436
 30
0.0
  0
ENDBLK
  5
2B4
330
2A9
100
AcDbEntity
  8
0
100
AcDbBlockEnd
  0
BLOCK
  5
2CD
330
2C3
100
AcDbEntity
  8
0
100
AcDbBlockBegin
  2
*D27
 70
     1
 10
0.0
 20
0.0
 30
0.0
  3
*D27
  1

  0
LINE
  5
2C4
330
2C3
100
AcDbEntity
  8
0
 62
     0
370
    -2
100
AcDbLine
 10
60.72059308038411
 20
239.6637323292209
 30
0.0
 11
67.23422869704771
 21
239.6637323292208
 31
0.0
  0
LINE
  5
2C5
330
2C3
100
AcDbEntity
  8
0
 62
     0
370
    -2
100
AcDbLine
 10
60.72059308038409
 20
145.5528589020275
 30
0.0
 11
67.23422869704768
 21
145.5528589020275
 31
0.0
  0
LINE
  5
2C6
330
2C3
100
AcDbEntity
  8
0
 62
     0
370
    -2
100
AcDbLine
 10
65.98422869704771
 20
237.1637323292208
 30
0.0
 11
65.98422869704768
 21
148.0528589020275
 31
0.0
  0
SOLID
  5
2C7
330
2C3
100
AcDbEntity
  8
0
 62
     0
100
AcDbTrace
 10
65.56756203038104
 20
237.1637323292208
 30
0.0
 11
66.40089536371438
 21
237.1637323292208
 31
0.0
 12
65.98422869704771
 22
239.6637323292208
 32
0.0
 13
65.98422869704771
 23
239.6637323292208
 33
0.0
  0
SOLID
  5
2C8
330
2C3
100
AcDbEntity
  8
0
 62
     0
100
AcDbTrace
 10
65.56756203038101
 20
148.0528589020275
 30
0.0
 11
66.40089536371435
 21
148.0528589020275
 31
0.0
 12
65.98422869704768
 22
145.5528589020275
 32
0.0
 13
65.98422869704768
 23
145.5528589020275
 33
0.0
  0
MTEXT
  5
2C9
330
2C3
100
AcDbEntity
  8
0
 62
     0
100
AcDbMText
 10
64.10922869704767
 20
192.6082956156242
 30
0.0
 40
2.5
 41
0.0
 71
     5
 72
     1
  1
94
 11
0.0000000000000001
 21
1.0
 31
0.0
 73
     1
 44
1.0
1001
ACAD
1000
MTEXTBEGIN
1070
    73
1070
     1
1070
    44
1040
1.0
1070
    74
1070
     0
1000
MTEXTEND
  0
POINT
  5
2CA
330
2C3
100
AcDbEntity
  8
Defpoints
 62
     0
100
AcDbPoint
 10
60.09559308038411
 20
239.6637323292209
 30
0.0
  0
POINT
  5
2CB
330
2C3
100
AcDbEntity
  8
Defpoints
 62
     0
100
AcDbPoint
 10
60.09559308038409
 20
145.5528589020275
 30
0.0
  0
POINT
  5
2CC
330
2C3
100
AcDbEntity
  8
Defpoints
 62
     0
100
AcDbPoint
 10
65.98422869704768
 20
145.5528589020275
 30
0.0
  0
ENDBLK
  5
2CE
330
2C3
100
AcDbEntity
  8
0
100
AcDbBlockEnd
  0
BLOCK
  5
2DA
330
2D0
100
AcDbEntity
  8
0
100
AcDbBlockBegin
  2
*D28
 70
     1
 10
0.0
 20
0.0
 30
0.0
  3
*D28
  1

  0
LINE
  5
2D1
330
2D0
100
AcDbEntity
  8
0
 62
     0
370
    -2
100
AcDbLine
 10
121.1772437929539
 20
239.6637323292209
 30
0.0
 11
126.1205758017718
 21
239.6637323292209
 31
0.0
  0
LINE
  5
2D2
330
2D0
100
AcDbEntity
  8
0
 62
     0
370
    -2
100
AcDbLine
 10
121.1772437929539
 20
145.5528589020275
 30
0.0
 11
126.1205758017718
 21
145.5528589020275
 31
0.0
  0
LINE
  5
2D3
330
2D0
100
AcDbEntity
  8
0
 62
     0
370
    -2
100
AcDbLine
 10
124.8705758017718
 20
237.1637323292209
 30
0.0
 11
124.8705758017718
 21
148.0528589020275
 31
0.0
  0
SOLID
  5
2D4
330
2D0
100
AcDbEntity
  8
0
 62
     0
100
AcDbTrace
 10
124.4539091351051
 20
237.1637323292209
 30
0.0
 11
125.2872424684385
 21
237.1637323292209
 31
0.0
 12
124.8705758017718
 22
239.6637323292209
 32
0.0
 13
124.8705758017718
 23
239.6637323292209
 33
0.0
  0
SOLID
  5
2D5
330
2D0
100
AcDbEntity
  8
0
 62
     0
100
AcDbTrace
 10
124.4539091351051
 20
148.0528589020275
 30
0.0
 11
125.2872424684384
 21
148.0528589020275
 31
0.0
 12
124.8705758017718
 22
145.5528589020275
 32
0.0
 13
124.8705758017718
 23
145.5528589020275
 33
0.0
  0
MTEXT
  5
2D6
330
2D0
100
AcDbEntity
  8
0
 62
     0
100
AcDbMText
 10
122.9955758017718
 20
192.6082956156242
 30
0.0
 40
2.5
 41
0.0
 71
     5
 72
     1
  1
94
 11
0.0000000000000001
 21
1.0
 31
0.0
 73
     1
 44
1.0
1001
ACAD
1000
MTEXTBEGIN
1070
    73
1070
     1
1070
    44
1040
1.0
1070
    74
1070
     0
1000
MTEXTEND
  0
POINT
  5
2D7
330
2D0
100
AcDbEntity
  8
Defpoints
 62
     0
100
AcDbPoint
 10
120.5522437929539
 20
239.6637323292209
 30
0.0
  0
POINT
  5
2D8
330
2D0
100
AcDbEntity
  8
Defpoints
 62
     0
100
AcDbPoint
 10
120.5522437929539
 20
145.5528589020275
 30
0.0
  0
POINT
  5
2D9
330
2D0
100
AcDbEntity
  8
Defpoints
 62
     0
100
AcDbPoint
 10
124.8705758017718
 20
145.5528589020275
 30
0.0
  0
ENDBLK
  5
2DB
330
2D0
100
AcDbEntity
  8
0
100
AcDbBlockEnd
  0
BLOCK
  5
2F4
330
2EA
100
AcDbEntity
  8
0
100
AcDbBlockBegin
  2
*D29
 70
     1
 10
0.0
 20
0.0
 30
0.0
  3
*D29
  1

  0
LINE
  5
2EB
330
2EA
100
AcDbEntity
  8
0
 62
     0
370
    -2
100
AcDbLine
 10
180.4561658287205
 20
240.055861087486
 30
0.0
 11
187.3623763764262
 21
240.055861087486
 31
0.0
  0
LINE
  5
2EC
330
2EA
100
AcDbEntity
  8
0
 62
     0
370
    -2
100
AcDbLine
 10
180.4561658287204
 20
161.6301327988182
 30
0.0
 11
187.3623763764262
 21
161.6301327988182
 31
0.0
  0
LINE
  5
2ED
330
2EA
100
AcDbEntity
  8
0
 62
     0
370
    -2
100
AcDbLine
 10
186.1123763764263
 20
237.555861087486
 30
0.0
 11
186.1123763764262
 21
164.1301327988182
 31
0.0
  0
SOLID
  5
2EE
330
2EA
100
AcDbEntity
  8
0
 62
     0
100
AcDbTrace
 10
185.6957097097596
 20
237.555861087486
 30
0.0
 11
186.5290430430929
 21
237.555861087486
 31
0.0
 12
186.1123763764263
 22
240.055861087486
 32
0.0
 13
186.1123763764263
 23
240.055861087486
 33
0.0
  0
SOLID
  5
2EF
330
2EA
100
AcDbEntity
  8
0
 62
     0
100
AcDbTrace
 10
185.6957097097596
 20
164.1301327988182
 30
0.0
 11
186.5290430430929
 21
164.1301327988182
 31
0.0
 12
186.1123763764262
 22
161.6301327988182
 32
0.0
 13
186.1123763764262
 23
161.6301327988182
 33
0.0
  0
MTEXT
  5
2F0
330
2EA
100
AcDbEntity
  8
0
 62
     0
100
AcDbMText
 10
184.2373763764262
 20
200.8429969431521
 30
0.0
 40
2.5
 41
0.0
 71
     5
 72
     1
  1
78
 11
0.0000000000000001
 21
1.0
 31
0.0
 73
     1
 44
1.0
1001
ACAD
1000
MTEXTBEGIN
1070
    73
1070
     1
1070
    44
1040
1.0
1070
    74
1070
     0
1000
MTEXTEND
  0
POINT
  5
2F1
330
2EA
100
AcDbEntity
  8
Defpoints
 62
     0
100
AcDbPoint
 10
179.8311658287205
 20
240.055861087486
 30
0.0
  0
POINT
  5
2F2
330
2EA
100
AcDbEntity
  8
Defpoints
 62
     0
100
AcDbPoint
 10
179.8311658287204
 20
161.6301327988182
 30
0.0
  0
POINT
  5
2F3
330
2EA
100
AcDbEntity
  8
Defpoints
 62
     0
100
AcDbPoint
 10
186.1123763764262
 20
161.6301327988182
 30
0.0
  0
ENDBLK
  5
2F5
330
2EA
100
AcDbEntity
  8
0
100
AcDbBlockEnd
  0
BLOCK
  5
301
330
2F7
100
AcDbEntity
  8
0
100
AcDbBlockBegin
  2
*D30
 70
     1
 10
0.0
 20
0.0
 30
0.0
  3
*D30
  1

  0
LINE
  5
2F8
330
2F7
100
AcDbEntity
  8
0
 62
     0
370
    -2
100
AcDbLine
 10
233.8464535423823
 20
240.055861087486
 30
0.0
 11
238.7897855512004
 21
240.055861087486
 31
0.0
  0
LINE
  5
2F9
330
2F7
100
AcDbEntity
  8
0
 62
     0
370
    -2
100
AcDbLine
 10
233.8464535423823
 20
176.1388927009644
 30
0.0
 11
238.7897855512004
 21
176.1388927009644
 31
0.0
  0
LINE
  5
2FA
330
2F7
100
AcDbEntity
  8
0
 62
     0
370
    -2
100
AcDbLine
 10
237.5397855512004
 20
237.555861087486
 30
0.0
 11
237.5397855512003
 21
178.6388927009644
 31
0.0
  0
SOLID
  5
2FB
330
2F7
100
AcDbEntity
  8
0
 62
     0
100
AcDbTrace
 10
237.1231188845337
 20
237.555861087486
 30
0.0
 11
237.956452217867
 21
237.555861087486
 31
0.0
 12
237.5397855512004
 22
240.055861087486
 32
0.0
 13
237.5397855512004
 23
240.055861087486
 33
0.0
  0
SOLID
  5
2FC
330
2F7
100
AcDbEntity
  8
0
 62
     0
100
AcDbTrace
 10
237.1231188845337
 20
178.6388927009644
 30
0.0
 11
237.956452217867
 21
178.6388927009644
 31
0.0
 12
237.5397855512003
 22
176.1388927009644
 32
0.0
 13
237.5397855512003
 23
176.1388927009644
 33
0.0
  0
MTEXT
  5
2FD
330
2F7
100
AcDbEntity
  8
0
 62
     0
100
AcDbMText
 10
235.6647855512003
 20
208.0973768942252
 30
0.0
 40
2.5
 41
0.0
 71
     5
 72
     1
  1
64
 11
0.0000000000000001
 21
1.0
 31
0.0
 73
     1
 44
1.0
1001
ACAD
1000
MTEXTBEGIN
1070
    73
1070
     1
1070
    44
1040
1.0
1070
    74
1070
     0
1000
MTEXTEND
  0
POINT
  5
2FE
330
2F7
100
AcDbEntity
  8
Defpoints
 62
     0
100
AcDbPoint
 10
233.2214535423823
 20
240.055861087486
 30
0.0
  0
POINT
  5
2FF
330
2F7
100
AcDbEntity
  8
Defpoints
 62
     0
100
AcDbPoint
 10
233.2214535423823
 20
176.1388927009644
 30
0.0
  0
POINT
  5
300
330
2F7
100
AcDbEntity
  8
Defpoints
 62
     0
100
AcDbPoint
 10
237.5397855512003
 20
176.1388927009644
 30
0.0
  0
ENDBLK
  5
302
330
2F7
100
AcDbEntity
  8
0
100
AcDbBlockEnd
  0
BLOCK
  5
30E
330
304
100
AcDbEntity
  8
0
100
AcDbBlockBegin
  2
*D31
 70
     1
 10
0.0
 20
0.0
 30
0.0
  3
*D31
  1

  0
LINE
  5
305
330
304
100
AcDbEntity
  8
0
 62
     0
370
    -2
100
AcDbLine
 10
309.1487049079796
 20
240.055861087486
 30
0.0
 11
306.5608263690919
 21
240.055861087486
 31
0.0
  0
LINE
  5
306
330
304
100
AcDbEntity
  8
0
 62
     0
370
    -2
100
AcDbLine
 10
309.1487049079796
 20
189.86339508658
 30
0.0
 11
306.5608263690919
 21
189.86339508658
 31
0.0
  0
LINE
  5
307
330
304
100
AcDbEntity
  8
0
 62
     0
370
    -2
100
AcDbLine
 10
307.810826369092
 20
237.555861087486
 30
0.0
 11
307.810826369092
 21
192.3633950865801
 31
0.0
  0
SOLID
  5
308
330
304
100
AcDbEntity
  8
0
 62
     0
100
AcDbTrace
 10
307.3941597024253
 20
237.555861087486
 30
0.0
 11
308.2274930357586
 21
237.555861087486
 31
0.0
 12
307.810826369092
 22
240.055861087486
 32
0.0
 13
307.810826369092
 23
240.055861087486
 33
0.0
  0
SOLID
  5
309
330
304
100
AcDbEntity
  8
0
 62
     0
100
AcDbTrace
 10
307.3941597024253
 20
192.3633950865801
 30
0.0
 11
308.2274930357586
 21
192.3633950865801
 31
0.0
 12
307.810826369092
 22
189.86339508658
 32
0.0
 13
307.810826369092
 23
189.86339508658
 33
0.0
  0
MTEXT
  5
30A
330
304
100
AcDbEntity
  8
0
 62
     0
100
AcDbMText
 10
305.9358263690919
 20
214.9596280870331
 30
0.0
 40
2.5
 41
0.0
 71
     5
 72
     1
  1
50
 11
0.0000000000000001
 21
1.0
 31
0.0
 73
     1
 44
1.0
1001
ACAD
1000
MTEXTBEGIN
1070
    73
1070
     1
1070
    44
1040
1.0
1070
    74
1070
     0
1000
MTEXTEND
  0
POINT
  5
30B
330
304
100
AcDbEntity
  8
Defpoints
 62
     0
100
AcDbPoint
 10
309.7737049079797
 20
240.055861087486
 30
0.0
  0
POINT
  5
30C
330
304
100
AcDbEntity
  8
Defpoints
 62
     0
100
AcDbPoint
 10
309.7737049079797
 20
189.86339508658
 30
0.0
  0
POINT
  5
30D
330
304
100
AcDbEntity
  8
Defpoints
 62
     0
100
AcDbPoint
 10
307.810826369092
 20
189.86339508658
 30
0.0
  0
ENDBLK
  5
30F
330
304
100
AcDbEntity
  8
0
100
AcDbBlockEnd
  0
BLOCK
  5
31B
330
311
100
AcDbEntity
  8
0
100
AcDbBlockBegin
  2
*D32
 70
     1
 10
0.0
 20
0.0
 30
0.0
  3
*D32
  1

  0
LINE
  5
312
330
311
100
AcDbEntity
  8
0
 62
     0
370
    -2
100
AcDbLine
 10
10.25767934644068
 20
78.15171203687402
 30
0.0
 11
10.25767934644068
 21
72.82116849531631
 31
0.0
  0
LINE
  5
313
330
311
100
AcDbEntity
  8
0
 62
     0
370
    -2
100
AcDbLine
 10
309.7928980355234
 20
78.15171203687402
 30
0.0
 11
309.7928980355234
 21
72.82116849531631
 31
0.0
  0
LINE
  5
314
330
311
100
AcDbEntity
  8
0
 62
     0
370
    -2
100
AcDbLine
 10
12.75767934644068
 20
74.07116849531631
 30
0.0
 11
307.2928980355233
 21
74.07116849531631
 31
0.0
  0
SOLID
  5
315
330
311
100
AcDbEntity
  8
0
 62
     0
100
AcDbTrace
 10
12.75767934644068
 20
74.487835161983
 30
0.0
 11
12.75767934644068
 21
73.65450182864965
 31
0.0
 12
10.25767934644068
 22
74.07116849531631
 32
0.0
 13
10.25767934644068
 23
74.07116849531631
 33
0.0
  0
SOLID
  5
316
330
311
100
AcDbEntity
  8
0
 62
     0
100
AcDbTrace
 10
307.2928980355233
 20
74.487835161983
 30
0.0
 11
307.2928980355233
 21
73.65450182864965
 31
0.0
 12
309.7928980355234
 22
74.07116849531631
 32
0.0
 13
309.7928980355234
 23
74.07116849531631
 33
0.0
  0
MTEXT
  5
317
330
311
100
AcDbEntity
  8
0
 62
     0
100
AcDbMText
 10
160.025288690982
 20
75.94616849531631
 30
0.0
 40
2.5
 41
0.0
 71
     5
 72
     1
  1
300
 73
     1
 44
1.0
1001
ACAD
1000
MTEXTBEGIN
1070
    73
1070
     1
1070
    44
1040
1.0
1070
    74
1070
     0
1000
MTEXTEND
  0
POINT
  5
318
330
311
100
AcDbEntity
  8
Defpoints
 62
     0
100
AcDbPoint
 10
10.25767934644068
 20
78.77671203687402
 30
0.0
  0
POINT
  5
319
330
311
100
AcDbEntity
  8
Defpoints
 62
     0
100
AcDbPoint
 10
309.7928980355234
 20
78.77671203687402
 30
0.0
  0
POINT
  5
31A
330
311
100
AcDbEntity
  8
Defpoints
 62
     0
100
AcDbPoint
 10
309.7928980355234
 20
74.07116849531631
 30
0.0
  0
ENDBLK
  5
31C
330
311
100
AcDbEntity
  8
0
100
AcDbBlockEnd
  0
BLOCK
  5
328
330
31E
100
AcDbEntity
  8
0
100
AcDbBlockBegin
  2
*D33
 70
     1
 10
0.0
 20
0.0
 30
0.0
  3
*D33
  1

  0
LINE
  5
31F
330
31E
100
AcDbEntity
  8
0
 62
     0
370
    -2
100
AcDbLine
 10
-0.9668632100831471
 20
130.1455643125752
 30
0.0
 11
-1.984438141125555
 21
130.1455643125752
 31
0.0
  0
LINE
  5
320
330
31E
100
AcDbEntity
  8
0
 62
     0
370
    -2
100
AcDbLine
 10
-0.9668632100831546
 20
90.14844291131504
 30
0.0
 11
-1.984438141125565
 21
90.14844291131504
 31
0.0
  0
LINE
  5
321
330
31E
100
AcDbEntity
  8
0
 62
     0
370
    -2
100
AcDbLine
 10
-0.7344381411255571
 20
127.6455643125752
 30
0.0
 11
-0.734438141125565
 21
92.64844291131504
 31
0.0
  0
SOLID
  5
322
330
31E
100
AcDbEntity
  8
0
 62
     0
100
AcDbTrace
 10
-1.151104807792223
 20
127.6455643125752
 30
0.0
 11
-0.3177714744588903
 21
127.6455643125752
 31
0.0
 12
-0.7344381411255565
 22
130.1455643125752
 32
0.0
 13
-0.7344381411255565
 23
130.1455643125752
 33
0.0
  0
SOLID
  5
323
330
31E
100
AcDbEntity
  8
0
 62
     0
100
AcDbTrace
 10
-1.151104807792231
 20
92.64844291131504
 30
0.0
 11
-0.3177714744588981
 21
92.64844291131504
 31
0.0
 12
-0.7344381411255654
 22
90.14844291131504
 32
0.0
 13
-0.7344381411255654
 23
90.14844291131504
 33
0.0
  0
MTEXT
  5
324
330
31E
100
AcDbEntity
  8
0
 62
     0
100
AcDbMText
 10
-2.609438141125577
 20
110.1470036119451
 30
0.0
 40
2.5
 41
0.0
 71
     5
 72
     1
  1
40
 11
0.0000000000000001
 21
1.0
 31
0.0
 73
     1
 44
1.0
1001
ACAD
1000
MTEXTBEGIN
1070
    73
1070
     1
1070
    44
1040
1.0
1070
    74
1070
     0
1000
MTEXTEND
  0
POINT
  5
325
330
31E
100
AcDbEntity
  8
Defpoints
 62
     0
100
AcDbPoint
 10
-0.3418632100831473
 20
130.1455643125752
 30
0.0
  0
POINT
  5
326
330
31E
100
AcDbEntity
  8
Defpoints
 62
     0
100
AcDbPoint
 10
-0.3418632100831547
 20
90.14844291131504
 30
0.0
  0
POINT
  5
327
330
31E
100
AcDbEntity
  8
Defpoints
 62
     0
100
AcDbPoint
 10
-0.7344381411255654
 20
90.14844291131504
 30
0.0
  0
ENDBLK
  5
329
330
31E
100
AcDbEntity
  8
0
100
AcDbBlockEnd
  0
BLOCK
  5
335
330
32B
100
AcDbEntity
  8
0
100
AcDbBlockBegin
  2
*D34
 70
     1
 10
0.0
 20
0.0
 30
0.0
  3
*D34
  1

  0
LINE
  5
32C
330
32B
100
AcDbEntity
  8
0
 62
     0
370
    -2
100
AcDbLine
 10
10.25767934644068
 20
63.64295265393588
 30
0.0
 11
10.25767934644068
 21
54.78325132640799
 31
0.0
  0
LINE
  5
32D
330
32B
100
AcDbEntity
  8
0
 62
     0
370
    -2
100
AcDbLine
 10
129.993252094777
 20
63.64295265393588
 30
0.0
 11
129.993252094777
 21
54.78325132640799
 31
0.0
  0
LINE
  5
32E
330
32B
100
AcDbEntity
  8
0
 62
     0
370
    -2
100
AcDbLine
 10
12.75767934644068
 20
56.03325132640799
 30
0.0
 11
127.493252094777
 21
56.03325132640799
 31
0.0
  0
SOLID
  5
32F
330
32B
100
AcDbEntity
  8
0
 62
     0
100
AcDbTrace
 10
12.75767934644068
 20
56.44991799307465
 30
0.0
 11
12.75767934644068
 21
55.61658465974133
 31
0.0
 12
10.25767934644068
 22
56.03325132640799
 32
0.0
 13
10.25767934644068
 23
56.03325132640799
 33
0.0
  0
SOLID
  5
330
330
32B
100
AcDbEntity
  8
0
 62
     0
100
AcDbTrace
 10
127.493252094777
 20
56.44991799307465
 30
0.0
 11
127.493252094777
 21
55.61658465974133
 31
0.0
 12
129.993252094777
 22
56.03325132640799
 32
0.0
 13
129.993252094777
 23
56.03325132640799
 33
0.0
  0
MTEXT
  5
331
330
32B
100
AcDbEntity
  8
0
 62
     0
100
AcDbMText
 10
70.12546572060886
 20
57.90825132640799
 30
0.0
 40
2.5
 41
0.0
 71
     5
 72
     1
  1
120
 73
     1
 44
1.0
1001
ACAD
1000
MTEXTBEGIN
1070
    73
1070
     1
1070
    44
1040
1.0
1070
    74
1070
     0
1000
MTEXTEND
  0
POINT
  5
332
330
32B
100
AcDbEntity
  8
Defpoints
 62
     0
100
AcDbPoint
 10
10.25767934644068
 20
64.26795265393588
 30
0.0
  0
POINT
  5
333
330
32B
100
AcDbEntity
  8
Defpoints
 62
     0
100
AcDbPoint
 10
129.993252094777
 20
64.26795265393588
 30
0.0
  0
POINT
  5
334
330
32B
100
AcDbEntity
  8
Defpoints
 62
     0
100
AcDbPoint
 10
129.993252094777
 20
56.03325132640799
 30
0.0
  0
ENDBLK
  5
336
330
32B
100
AcDbEntity
  8
0
100
AcDbBlockEnd
  0
BLOCK
  5
342
330
338
100
AcDbEntity
  8
0
100
AcDbBlockBegin
  2
*D35
 70
     1
 10
0.0
 20
0.0
 30
0.0
  3
*D35
  1

  0
LINE
  5
339
330
338
100
AcDbEntity
  8
0
 62
     0
370
    -2
100
AcDbLine
 10
209.453684312549
 20
119.9502197129296
 30
0.0
 11
208.828684312549
 21
119.9502197129296
 31
0.0
  0
LINE
  5
33A
330
338
100
AcDbEntity
  8
0
 62
     0
370
    -2
100
AcDbLine
 10
209.453684312549
 20
99.95165875269549
 30
0.0
 11
208.828684312549
 21
99.95165875269549
 31
0.0
  0
LINE
  5
33B
330
338
100
AcDbEntity
  8
0
 62
     0
370
    -2
100
AcDbLine
 10
210.0786843125491
 20
117.4502197129296
 30
0.0
 11
210.0786843125491
 21
102.4516587526955
 31
0.0
  0
SOLID
  5
33C
330
338
100
AcDbEntity
  8
0
 62
     0
100
AcDbTrace
 10
209.6620176458824
 20
117.4502197129296
 30
0.0
 11
210.4953509792157
 21
117.4502197129296
 31
0.0
 12
210.0786843125491
 22
119.9502197129296
 32
0.0
 13
210.0786843125491
 23
119.9502197129296
 33
0.0
  0
SOLID
  5
33D
330
338
100
AcDbEntity
  8
0
 62
     0
100
AcDbTrace
 10
209.6620176458824
 20
102.4516587526955
 30
0.0
 11
210.4953509792157
 21
102.4516587526955
 31
0.0
 12
210.0786843125491
 22
99.95165875269549
 32
0.0
 13
210.0786843125491
 23
99.95165875269549
 33
0.0
  0
MTEXT
  5
33E
330
338
100
AcDbEntity
  8
0
 62
     0
100
AcDbMText
 10
208.203684312549
 20
109.9509392328126
 30
0.0
 40
2.5
 41
0.0
 71
     5
 72
     1
  1
20
 11
0.0000000000000001
 21
1.0
 31
0.0
 73
     1
 44
1.0
1001
ACAD
1000
MTEXTBEGIN
1070
    73
1070
     1
1070
    44
1040
1.0
1070
    74
1070
     0
1000
MTEXTEND
  0
POINT
  5
33F
330
338
100
AcDbEntity
  8
Defpoints
 62
     0
100
AcDbPoint
 10
210.0786843125491
 20
119.9502197129296
 30
0.0
  0
POINT
  5
340
330
338
100
AcDbEntity
  8
Defpoints
 62
     0
100
AcDbPoint
 10
210.0786843125491
 20
99.95165875269549
 30
0.0
  0
POINT
  5
341
330
338
100
AcDbEntity
  8
Defpoints
 62
     0
100
AcDbPoint
 10
210.0786843125491
 20
99.95165875269549
 30
0.0
  0
ENDBLK
  5
343
330
338
100
AcDbEntity
  8
0
100
AcDbBlockEnd
  0
ENDSEC
  0
SECTION
  2
ENTITIES
  0
LINE
  5
37
330
1F
100
AcDbEntity
  8
0
100
AcDbLine
 10
130.0649626964284
 20
239.7736000997813
 30
0.0
 11
130.0649626964284
 21
150.0072091639876
 31
0.0
  0
LINE
  5
38
330
1F
100
AcDbEntity
  8
0
100
AcDbLine
 10
130.0649626964284
 20
150.0072091639876
 30
0.0
 11
134.884483697255
 21
150.0072091639876
 31
0.0
  0
LINE
  5
39
330
1F
100
AcDbEntity
  8
0
100
AcDbLine
 10
134.884483697255
 20
150.0072091639876
 30
0.0
 11
134.884483697255
 21
144.8482210987532
 31
0.0
  0
LINE
  5
3A
330
1F
100
AcDbEntity
  8
0
100
AcDbLine
 10
134.884483697255
 20
144.8482210987532
 30
0.0
 11
165.1786166499037
 21
144.8482210987532
 31
0.0
  0
LINE
  5
3B
330
1F
100
AcDbEntity
  8
0
100
AcDbLine
 10
165.1786166499037
 20
144.8482210987532
 30
0.0
 11
165.1786166499037
 21
150.0072091639876
 31
0.0
  0
LINE
  5
3C
330
1F
100
AcDbEntity
  8
0
100
AcDbLine
 10
165.1786166499037
 20
150.0072091639876
 30
0.0
 11
169.9981376507303
 21
150.0072091639876
 31
0.0
  0
LINE
  5
3D
330
1F
100
AcDbEntity
  8
0
100
AcDbLine
 10
169.9981376507303
 20
150.0072091639876
 30
0.0
 11
169.9981376507303
 21
239.7736000997813
 31
0.0
  0
LINE
  5
3E
330
1F
100
AcDbEntity
  8
0
100
AcDbLine
 10
169.9981376507303
 20
239.7736000997813
 30
0.0
 11
130.0649626964284
 21
239.7736000997813
 31
0.0
  0
LINE
  5
4E
330
1F
100
AcDbEntity
  8
0
100
AcDbLine
 10
74.98472325545343
 20
150.0072091639876
 30
0.0
 11
74.98472325545343
 21
144.8482210987532
 31
0.0
  0
LINE
  5
4F
330
1F
100
AcDbEntity
  8
0
100
AcDbLine
 10
105.278856208102
 20
144.8482210987532
 30
0.0
 11
105.278856208102
 21
150.0072091639876
 31
0.0
  0
LINE
  5
50
330
1F
100
AcDbEntity
  8
0
100
AcDbLine
 10
74.98472325545343
 20
144.8482210987532
 30
0.0
 11
105.278856208102
 21
144.8482210987532
 31
0.0
  0
LINE
  5
51
330
1F
100
AcDbEntity
  8
0
100
AcDbLine
 10
110.0983772089286
 20
239.7736000997813
 30
0.0
 11
70.16520225462682
 21
239.7736000997813
 31
0.0
  0
LINE
  5
52
330
1F
100
AcDbEntity
  8
0
100
AcDbLine
 10
70.16520225462682
 20
239.7736000997813
 30
0.0
 11
70.16520225462682
 21
150.0072091639876
 31
0.0
  0
LINE
  5
53
330
1F
100
AcDbEntity
  8
0
100
AcDbLine
 10
70.16520225462682
 20
150.0072091639876
 30
0.0
 11
74.98472325545343
 21
150.0072091639876
 31
0.0
  0
LINE
  5
54
330
1F
100
AcDbEntity
  8
0
100
AcDbLine
 10
110.0983772089286
 20
150.0072091639876
 30
0.0
 11
110.0983772089286
 21
239.7736000997813
 31
0.0
  0
LINE
  5
55
330
1F
100
AcDbEntity
  8
0
100
AcDbLine
 10
105.278856208102
 20
150.0072091639876
 30
0.0
 11
110.0983772089286
 21
150.0072091639876
 31
0.0
  0
LINE
  5
97
330
1F
100
AcDbEntity
  8
0
100
AcDbLine
 10
190.7069690913976
 20
234.632564158604
 30
0.0
 11
190.7069690913976
 21
166.7217560889457
 31
0.0
  0
LINE
  5
98
330
1F
100
AcDbEntity
  8
0
100
AcDbLine
 10
190.7069690913976
 20
166.7217560889457
 30
0.0
 11
195.793442893051
 21
166.7217560889457
 31
0.0
  0
LINE
  5
99
330
1F
100
AcDbEntity
  8
0
100
AcDbLine
 10
195.793442893051
 20
166.7217560889457
 30
0.0
 11
195.793442893051
 21
161.6399945505994
 31
0.0
  0
LINE
  5
9A
330
1F
100
AcDbEntity
  8
0
100
AcDbLine
 10
195.793442893051
 20
161.6399945505994
 30
0.0
 11
218.9137790786223
 21
161.6399945505994
 31
0.0
  0
LINE
  5
9B
330
1F
100
AcDbEntity
  8
0
100
AcDbLine
 10
218.9137790786223
 20
161.6399945505994
 30
0.0
 11
218.9137790786223
 21
166.7217560889457
 31
0.0
  0
LINE
  5
9C
330
1F
100
AcDbEntity
  8
0
100
AcDbLine
 10
218.9137790786223
 20
166.7217560889457
 30
0.0
 11
224.0002542067097
 21
166.7217560889457
 31
0.0
  0
LINE
  5
9D
330
1F
100
AcDbEntity
  8
0
100
AcDbLine
 10
224.0002542067097
 20
166.7217560889457
 30
0.0
 11
224.0002542067097
 21
235.0945429254987
 31
0.0
  0
LINE
  5
9E
330
1F
100
AcDbEntity
  8
0
100
AcDbLine
 10
224.0002542067097
 20
235.0945429254987
 30
0.0
 11
218.451372248796
 21
235.0945429254987
 31
0.0
  0
LINE
  5
9F
330
1F
100
AcDbEntity
  8
0
100
AcDbLine
 10
218.451372248796
 20
235.0945429254987
 30
0.0
 11
218.451372248796
 21
240.1763037642027
 31
0.0
  0
LINE
  5
A0
330
1F
100
AcDbEntity
  8
0
100
AcDbLine
 10
218.451372248796
 20
240.1763037642027
 30
0.0
 11
195.3310360632248
 21
240.1763037642027
 31
0.0
  0
LINE
  5
A1
330
1F
100
AcDbEntity
  8
0
100
AcDbLine
 10
195.3310360632248
 20
240.1763037642027
 30
0.0
 11
195.3310360632248
 21
235.0945429254987
 31
0.0
  0
LINE
  5
A2
330
1F
100
AcDbEntity
  8
0
100
AcDbLine
 10
195.3310360632248
 20
235.0945429254987
 30
0.0
 11
190.7069690913976
 21
235.0945429254987
 31
0.0
  0
LINE
  5
A3
330
1F
100
AcDbEntity
  8
0
100
AcDbLine
 10
241.4059278269535
 20
235.0771365225051
 30
0.0
 11
241.4059278269535
 21
181.044397798244
 31
0.0
  0
LINE
  5
A4
330
1F
100
AcDbEntity
  8
0
100
AcDbLine
 10
241.4059278269535
 20
181.044397798244
 30
0.0
 11
246.4459074640871
 21
181.044397798244
 31
0.0
  0
LINE
  5
A5
330
1F
100
AcDbEntity
  8
0
100
AcDbLine
 10
246.4459074640871
 20
181.044397798244
 30
0.0
 11
246.4459074640871
 21
176.0090883166669
 31
0.0
  0
LINE
  5
A6
330
1F
100
AcDbEntity
  8
0
100
AcDbLine
 10
246.4459074640871
 20
176.0090883166669
 30
0.0
 11
262.5350703718487
 21
176.0090883166669
 31
0.0
  0
LINE
  5
A7
330
1F
100
AcDbEntity
  8
0
100
AcDbLine
 10
262.5350703718487
 20
176.0090883166669
 30
0.0
 11
262.5350703718487
 21
181.044397798244
 31
0.0
  0
LINE
  5
A8
330
1F
100
AcDbEntity
  8
0
100
AcDbLine
 10
262.5350703718487
 20
181.044397798244
 30
0.0
 11
267.5750486825485
 21
181.044397798244
 31
0.0
  0
LINE
  5
A9
330
1F
100
AcDbEntity
  8
0
100
AcDbLine
 10
267.5750486825485
 20
181.044397798244
 30
0.0
 11
267.5750486825485
 21
235.0771365225051
 31
0.0
  0
LINE
  5
AA
330
1F
100
AcDbEntity
  8
0
100
AcDbLine
 10
267.5750486825485
 20
235.0771365225051
 30
0.0
 11
262.5350703718487
 21
235.0771365225051
 31
0.0
  0
LINE
  5
AB
330
1F
100
AcDbEntity
  8
0
100
AcDbLine
 10
262.5350703718487
 20
235.0771365225051
 30
0.0
 11
262.5350703718487
 21
240.1124453044396
 31
0.0
  0
LINE
  5
AC
330
1F
100
AcDbEntity
  8
0
100
AcDbLine
 10
262.5350703718487
 20
240.1124453044396
 30
0.0
 11
246.4459074640871
 21
240.1124453044396
 31
0.0
  0
LINE
  5
AD
330
1F
100
AcDbEntity
  8
0
100
AcDbLine
 10
246.4459074640871
 20
240.1124453044396
 30
0.0
 11
246.4459074640871
 21
235.0771365225051
 31
0.0
  0
LINE
  5
AE
330
1F
100
AcDbEntity
  8
0
100
AcDbLine
 10
246.4459074640871
 20
235.0771365225051
 30
0.0
 11
241.4059278269535
 21
235.0771365225051
 31
0.0
  0
LINE
  5
B0
330
1F
100
AcDbEntity
  8
0
100
AcDbLine
 10
279.6080056298409
 20
235.0771365225051
 30
0.0
 11
279.6080056298409
 21
194.9883300788484
 31
0.0
  0
LINE
  5
B1
330
1F
100
AcDbEntity
  8
0
100
AcDbLine
 10
279.6080056298409
 20
194.9883300788484
 30
0.0
 11
284.6479839405407
 21
194.9883300788484
 31
0.0
  0
LINE
  5
B2
330
1F
100
AcDbEntity
  8
0
100
AcDbLine
 10
284.6479839405407
 20
194.9883300788484
 30
0.0
 11
284.6479839405407
 21
189.9530212969139
 31
0.0
  0
LINE
  5
B3
330
1F
100
AcDbEntity
  8
0
100
AcDbLine
 10
284.6479839405407
 20
189.9530212969139
 30
0.0
 11
294.921786952933
 21
189.9530212969139
 31
0.0
  0
LINE
  5
B4
330
1F
100
AcDbEntity
  8
0
100
AcDbLine
 10
294.921786952933
 20
189.9530212969139
 30
0.0
 11
294.921786952933
 21
194.9883300788484
 31
0.0
  0
LINE
  5
B5
330
1F
100
AcDbEntity
  8
0
100
AcDbLine
 10
294.921786952933
 20
194.9883300788484
 30
0.0
 11
299.9617652636328
 21
194.9883300788484
 31
0.0
  0
LINE
  5
B6
330
1F
100
AcDbEntity
  8
0
100
AcDbLine
 10
299.9617652636328
 20
194.9883300788484
 30
0.0
 11
299.9617652636328
 21
235.0771365225051
 31
0.0
  0
LINE
  5
B7
330
1F
100
AcDbEntity
  8
0
100
AcDbLine
 10
299.9617652636328
 20
235.0771365225051
 30
0.0
 11
294.921786952933
 21
235.0771365225051
 31
0.0
  0
LINE
  5
B8
330
1F
100
AcDbEntity
  8
0
100
AcDbLine
 10
294.921786952933
 20
235.0771365225051
 30
0.0
 11
294.921786952933
 21
240.1124453044396
 31
0.0
  0
LINE
  5
B9
330
1F
100
AcDbEntity
  8
0
100
AcDbLine
 10
294.921786952933
 20
240.1124453044396
 30
0.0
 11
284.8418290050996
 21
240.1124453044396
 31
0.0
  0
LINE
  5
BA
330
1F
100
AcDbEntity
  8
0
100
AcDbLine
 10
284.8418290050996
 20
240.1124453044396
 30
0.0
 11
284.8418290050996
 21
235.0771365225051
 31
0.0
  0
LINE
  5
BB
330
1F
100
AcDbEntity
  8
0
100
AcDbLine
 10
284.8418290050996
 20
235.0771365225051
 30
0.0
 11
279.8018506943995
 21
235.0771365225051
 31
0.0
  0
LINE
  5
BC
330
1F
100
AcDbEntity
  8
0
100
AcDbLine
 10
286.0049020453205
 20
225.0065182589935
 30
0.0
 11
293.7587152391459
 21
225.0065182589935
 31
0.0
  0
LINE
  5
BD
330
1F
100
AcDbEntity
  8
0
100
AcDbLine
 10
293.7587152391459
 20
225.0065182589935
 30
0.0
 11
293.7587152391459
 21
204.4779513097603
 31
0.0
  0
LINE
  5
BE
330
1F
100
AcDbEntity
  8
0
100
AcDbLine
 10
293.7587152391459
 20
204.4779513097603
 30
0.0
 11
286.0049020453205
 21
204.4779513097603
 31
0.0
  0
LINE
  5
BF
330
1F
100
AcDbEntity
  8
0
100
AcDbLine
 10
286.0049020453205
 20
204.4779513097603
 30
0.0
 11
286.0049020453205
 21
225.0065182589935
 31
0.0
  0
LINE
  5
C0
330
1F
100
AcDbEntity
  8
0
100
AcDbLine
 10
248.5782058271025
 20
227.9115048212767
 30
0.0
 11
260.2089256178407
 21
227.9115048212767
 31
0.0
  0
LINE
  5
C1
330
1F
100
AcDbEntity
  8
0
100
AcDbLine
 10
260.2089256178407
 20
227.9115048212767
 30
0.0
 11
260.2089256178407
 21
188.2100294994724
 31
0.0
  0
LINE
  5
C2
330
1F
100
AcDbEntity
  8
0
100
AcDbLine
 10
260.2089256178407
 20
188.2100294994724
 30
0.0
 11
248.5782058271025
 21
188.2100294994724
 31
0.0
  0
LINE
  5
C3
330
1F
100
AcDbEntity
  8
0
100
AcDbLine
 10
248.5782058271025
 20
188.2100294994724
 30
0.0
 11
248.5782058271025
 21
227.9115048212767
 31
0.0
  0
LINE
  5
C4
330
1F
100
AcDbEntity
  8
0
100
AcDbLine
 10
198.8746512655588
 20
229.0790024061507
 30
0.0
 11
216.3207309516662
 21
229.0790024061507
 31
0.0
  0
LINE
  5
C5
330
1F
100
AcDbEntity
  8
0
100
AcDbLine
 10
216.3207309516662
 20
229.0790024061507
 30
0.0
 11
216.3207309516662
 21
173.4969377951955
 31
0.0
  0
LINE
  5
C6
330
1F
100
AcDbEntity
  8
0
100
AcDbLine
 10
216.3207309516662
 20
173.4969377951955
 30
0.0
 11
198.6808062009998
 21
173.4969377951955
 31
0.0
  0
LINE
  5
C7
330
1F
100
AcDbEntity
  8
0
100
AcDbLine
 10
198.6808062009998
 20
173.4969377951955
 30
0.0
 11
198.6808062009998
 21
229.0790024061507
 31
0.0
  0
LINE
  5
C8
330
1F
100
AcDbEntity
  8
0
100
AcDbLine
 10
139.9677647722742
 20
225.2052866616832
 30
0.0
 11
160.0639746958554
 21
225.2052866616832
 31
0.0
  0
LINE
  5
C9
330
1F
100
AcDbEntity
  8
0
100
AcDbLine
 10
160.0639746958554
 20
225.2052866616832
 30
0.0
 11
160.0639746958554
 21
196.6333306629413
 31
0.0
  0
LINE
  5
CA
330
1F
100
AcDbEntity
  8
0
100
AcDbLine
 10
160.0639746958554
 20
196.6333306629413
 30
0.0
 11
139.9677647722742
 21
196.6333306629413
 31
0.0
  0
LINE
  5
CB
330
1F
100
AcDbEntity
  8
0
100
AcDbLine
 10
139.9677647722742
 20
196.6333306629413
 30
0.0
 11
139.9677647722742
 21
225.2052866616832
 31
0.0
  0
LINE
  5
CC
330
1F
100
AcDbEntity
  8
0
100
AcDbLine
 10
79.93677756212083
 20
177.0705507670037
 30
0.0
 11
100.032987485702
 21
177.0705507670037
 31
0.0
  0
LINE
  5
CD
330
1F
100
AcDbEntity
  8
0
100
AcDbLine
 10
100.032987485702
 20
177.0705507670037
 30
0.0
 11
100.032987485702
 21
160.596630449579
 31
0.0
  0
LINE
  5
CE
330
1F
100
AcDbEntity
  8
0
100
AcDbLine
 10
100.032987485702
 20
160.596630449579
 30
0.0
 11
79.93677756212083
 21
160.596630449579
 31
0.0
  0
LINE
  5
CF
330
1F
100
AcDbEntity
  8
0
100
AcDbLine
 10
79.93677756212083
 20
160.596630449579
 30
0.0
 11
79.93677756212083
 21
177.3279554986656
 31
0.0
  0
LINE
  5
D0
330
1F
100
AcDbEntity
  8
0
100
AcDbLine
 10
19.59333731936771
 20
200.1756474074062
 30
0.0
 11
39.94719245640748
 21
200.1756474074062
 31
0.0
  0
LINE
  5
D1
330
1F
100
AcDbEntity
  8
0
100
AcDbLine
 10
39.94719245640748
 20
200.1756474074062
 30
0.0
 11
39.94719245640748
 21
190.1368523779541
 31
0.0
  0
LINE
  5
D2
330
1F
100
AcDbEntity
  8
0
100
AcDbLine
 10
39.94719245640748
 20
190.1368523779541
 30
0.0
 11
19.59333731936771
 21
190.1368523779541
 31
0.0
  0
LINE
  5
D3
330
1F
100
AcDbEntity
  8
0
100
AcDbLine
 10
19.59333731936771
 20
190.1368523779541
 30
0.0
 11
19.59333731936771
 21
199.9182426757442
 31
0.0
  0
LINE
  5
E2
330
1F
100
AcDbEntity
  8
0
100
AcDbLine
 10
10.04524470256836
 20
130.269061654517
 30
0.0
 11
10.04524470256836
 21
90.38270932965493
 31
0.0
  0
LINE
  5
E3
330
1F
100
AcDbEntity
  8
0
100
AcDbLine
 10
10.2995855503841
 20
90.12836848183916
 30
0.0
 11
309.6263293732606
 21
90.12836848183916
 31
0.0
  0
LINE
  5
E4
330
1F
100
AcDbEntity
  8
0
100
AcDbLine
 10
309.6263293732606
 20
90.12836848183916
 30
0.0
 11
309.6263293732606
 21
130.2634905519993
 31
0.0
  0
LINE
  5
E5
330
1F
100
AcDbEntity
  8
0
100
AcDbLine
 10
309.6263293732606
 20
130.2634905519993
 30
0.0
 11
10.19050227120533
 21
130.2634905519993
 31
0.0
  0
CIRCLE
  5
E6
330
1F
100
AcDbEntity
  8
0
100
AcDbCircle
 10
26.14373111801159
 20
109.5130565066066
 30
0.0
 40
9.437740672534506
  0
CIRCLE
  5
E7
330
1F
100
AcDbEntity
  8
0
100
AcDbCircle
 10
55.67965317410289
 20
109.9172832925087
 30
0.0
 40
9.437211685578168
  0
CIRCLE
  5
E9
330
1F
100
AcDbEntity
  8
0
100
AcDbCircle
 10
86.02477955539461
 20
109.9172832925087
 30
0.0
 40
9.710439964497027
  0
CIRCLE
  5
EA
330
1F
100
AcDbEntity
  8
0
100
AcDbCircle
 10
115.9653037740861
 20
109.9172832925087
 30
0.0
 40
9.710439964497027
  0
CIRCLE
  5
EB
330
1F
100
AcDbEntity
  8
0
100
AcDbCircle
 10
289.9638076570013
 20
110.3215100784109
 30
0.0
 40
9.724632961687259
  0
CIRCLE
  5
EC
330
1F
100
AcDbEntity
  8
0
100
AcDbCircle
 10
260.0232834383098
 20
109.9172832925087
 30
0.0
 40
10.11504212709701
  0
CIRCLE
  5
ED
330
1F
100
AcDbEntity
  8
0
100
AcDbCircle
 10
230.0827592196183
 20
109.9172832925087
 30
0.0
 40
10.11504212709701
  0
MTEXT
  5
1A2
330
1F
100
AcDbEntity
  8
0
100
AcDbMText
 10
35.23922412118327
 20
187.449423071361
 30
0.0
 40
2.5
 41
10.07179999999999
 71
     1
 72
     5
  1

 73
     1
 44
1.0
1001
ACAD
1000
MTEXTBEGIN
1070
    73
1070
     1
1070
    44
1040
1.0
1070
    74
1070
     0
1000
MTEXTEND
  0
MTEXT
  5
1A3
330
1F
100
AcDbEntity
  8
0
100
AcDbMText
 10
35.47580954204568
 20
187.449423071361
 30
0.0
 40
2.5
 41
9.902799999999999
 71
     1
 72
     5
  1

 73
     1
 44
1.0
1001
ACAD
1000
MTEXTBEGIN
1070
    73
1070
     1
1070
    44
1040
1.0
1070
    74
1070
     0
1000
MTEXTEND
  0
LINE
  5
209
330
1F
100
AcDbEntity
  8
0
100
AcDbLine
 10
9.722088455481292
 20
239.9697602356451
 30
0.0
 11
49.69203909295697
 21
239.9697602356451
 31
0.0
  0
LINE
  5
20A
330
1F
100
AcDbEntity
  8
0
100
AcDbLine
 10
49.69203909295697
 20
239.9697602356451
 30
0.0
 11
49.69203909295697
 21
239.9697602356451
 31
0.0
  0
LINE
  5
20B
330
1F
100
AcDbEntity
  8
0
100
AcDbLine
 10
9.722088455481292
 20
239.9697602356451
 30
0.0
 11
9.722088455481284
 21
181.8862576173494
 31
0.0
  0
LINE
  5
20C
330
1F
100
AcDbEntity
  8
0
100
AcDbLine
 10
9.722088455481284
 20
181.8862576173494
 30
0.0
 11
49.71874702810396
 21
181.8862576173494
 31
0.0
  0
LINE
  5
20D
330
1F
100
AcDbEntity
  8
0
100
AcDbLine
 10
49.71874702810396
 20
181.8862576173494
 30
0.0
 11
49.69203909295697
 21
239.9697602356451
 31
0.0
  0
DIMENSION
  5
24D
330
1F
100
AcDbEntity
  8
0
100
AcDbDimension
  2
*D20
 10
49.88862674946132
 20
245.545662145574
 30
0.0
 11
29.86726901865791
 21
247.420662145574
 31
0.0
 70
    32
 71
     5
 42
40.04271546160679
  3
Copia di ISO-25
100
AcDbAlignedDimension
 13
9.845911287854503
 23
251.0354632036619
 33
0.0
 14
49.88862674946132
 24
251.0354632036619
 34
0.0
100
AcDbRotatedDimension
  0
DIMENSION
  5
25A
330
1F
100
AcDbEntity
  8
0
100
AcDbDimension
  2
*D21
 10
4.742428122393222
 20
182.0208225173174
 30
0.0
 11
2.867428122393193
 21
211.0383418024017
 31
0.0
 70
    32
 71
     5
 42
58.03503857016858
  3
Copia di ISO-25
100
AcDbAlignedDimension
 13
0.0315198879741274
 23
240.055861087486
 33
0.0
 14
0.0315198879741168
 24
182.0208225173174
 34
0.0
 50
90.0
100
AcDbRotatedDimension
  0
DIMENSION
  5
267
330
1F
100
AcDbEntity
  8
0
100
AcDbDimension
  2
*D22
 10
109.9527012364299
 20
244.3692763899866
 30
0.0
 11
90.12763097114783
 21
246.2442763899866
 31
0.0
 70
    32
 71
     5
 42
39.65014053056416
  3
Copia di ISO-25
100
AcDbAlignedDimension
 13
70.30256070586574
 23
249.4669486898094
 33
0.0
 14
109.9527012364299
 24
249.4669486898094
 34
0.0
100
AcDbRotatedDimension
  0
DIMENSION
  5
281
330
1F
100
AcDbEntity
  8
0
100
AcDbDimension
  2
*D23
 10
170.0167744288399
 20
245.545662145574
 30
0.0
 11
149.9954166980366
 21
247.420662145574
 31
0.0
 70
    32
 71
     5
 42
40.04271546160658
  3
Copia di ISO-25
100
AcDbAlignedDimension
 13
129.9740589672333
 23
249.8590769288665
 33
0.0
 14
170.0167744288399
 24
249.8590769288665
 34
0.0
100
AcDbRotatedDimension
  0
DIMENSION
  5
28E
330
1F
100
AcDbEntity
  8
0
100
AcDbDimension
  2
*D24
 10
223.7996383681029
 20
244.3692763899866
 30
0.0
 11
207.1151733766736
 21
246.2442763899866
 31
0.0
 70
    32
 71
     5
 42
33.36892998285862
  3
Copia di ISO-25
100
AcDbAlignedDimension
 13
190.4307083852443
 23
249.4669486898094
 33
0.0
 14
223.7996383681029
 24
249.4669486898094
 34
0.0
100
AcDbRotatedDimension
  0
DIMENSION
  5
29B
330
1F
100
AcDbEntity
  8
0
100
AcDbDimension
  2
*D25
 10
267.3755346818841
 20
245.1535333873088
 30
0.0
 11
254.3907312544188
 21
247.0285333873089
 31
0.0
 70
    32
 71
     5
 42
25.96960685493062
  3
Copia di ISO-25
100
AcDbAlignedDimension
 13
241.4059278269535
 23
249.8590769288665
 33
0.0
 14
267.3755346818841
 24
249.8590769288665
 34
0.0
100
AcDbRotatedDimension
  0
DIMENSION
  5
2A8
330
1F
100
AcDbEntity
  8
0
100
AcDbDimension
  2
*D26
 10
299.9593135080993
 20
244.7614046290436
 30
0.0
 11
289.8805821012494
 21
246.6364046290436
 31
0.0
 70
    32
 71
     5
 42
20.15746281369979
  3
Copia di ISO-25
100
AcDbAlignedDimension
 13
279.8018506943995
 23
249.4669486898094
 33
0.0
 14
299.9593135080993
 24
249.4669486898094
 34
0.0
100
AcDbRotatedDimension
  0
DIMENSION
  5
2C2
330
1F
100
AcDbEntity
  8
0
100
AcDbDimension
  2
*D27
 10
65.98422869704768
 20
145.5528589020275
 30
0.0
 11
64.10922869704767
 21
192.6082956156242
 31
0.0
 70
    32
 71
     5
 42
94.11087342719332
  3
Copia di ISO-25
100
AcDbAlignedDimension
 13
60.09559308038411
 23
239.6637323292209
 33
0.0
 14
60.09559308038409
 24
145.5528589020275
 34
0.0
 50
90.0
100
AcDbRotatedDimension
  0
DIMENSION
  5
2CF
330
1F
100
AcDbEntity
  8
0
100
AcDbDimension
  2
*D28
 10
124.8705758017718
 20
145.5528589020275
 30
0.0
 11
122.9955758017718
 21
192.6082956156242
 31
0.0
 70
    32
 71
     5
 42
94.11087342719332
  3
Copia di ISO-25
100
AcDbAlignedDimension
 13
120.5522437929539
 23
239.6637323292209
 33
0.0
 14
120.5522437929539
 24
145.5528589020275
 34
0.0
 50
90.0
100
AcDbRotatedDimension
  0
DIMENSION
  5
2E9
330
1F
100
AcDbEntity
  8
0
100
AcDbDimension
  2
*D29
 10
186.1123763764262
 20
161.6301327988182
 30
0.0
 11
184.2373763764262
 21
200.8429969431521
 31
0.0
 70
    32
 71
     5
 42
78.42572828866774
  3
Copia di ISO-25
100
AcDbAlignedDimension
 13
179.8311658287205
 23
240.055861087486
 33
0.0
 14
179.8311658287204
 24
161.6301327988182
 34
0.0
 50
90.0
100
AcDbRotatedDimension
  0
DIMENSION
  5
2F6
330
1F
100
AcDbEntity
  8
0
100
AcDbDimension
  2
*D30
 10
237.5397855512003
 20
176.1388927009644
 30
0.0
 11
235.6647855512003
 21
208.0973768942252
 31
0.0
 70
    32
 71
     5
 42
63.91696838652159
  3
Copia di ISO-25
100
AcDbAlignedDimension
 13
233.2214535423823
 23
240.055861087486
 33
0.0
 14
233.2214535423823
 24
176.1388927009644
 34
0.0
 50
90.0
100
AcDbRotatedDimension
  0
DIMENSION
  5
303
330
1F
100
AcDbEntity
  8
0
100
AcDbDimension
  2
*D31
 10
307.810826369092
 20
189.86339508658
 30
0.0
 11
305.9358263690919
 21
214.9596280870331
 31
0.0
 70
    32
 71
     5
 42
50.19246600090582
  3
Copia di ISO-25
100
AcDbAlignedDimension
 13
309.7737049079797
 23
240.055861087486
 33
0.0
 14
309.7737049079797
 24
189.86339508658
 34
0.0
 50
90.0
100
AcDbRotatedDimension
  0
DIMENSION
  5
310
330
1F
100
AcDbEntity
  8
0
100
AcDbDimension
  2
*D32
 10
309.7928980355234
 20
74.07116849531631
 30
0.0
 11
160.025288690982
 21
75.94616849531631
 31
0.0
 70
    32
 71
     5
 42
299.5352186890827
  3
Copia di ISO-25
100
AcDbAlignedDimension
 13
10.25767934644068
 23
78.77671203687402
 33
0.0
 14
309.7928980355234
 24
78.77671203687402
 34
0.0
100
AcDbRotatedDimension
  0
DIMENSION
  5
31D
330
1F
100
AcDbEntity
  8
0
100
AcDbDimension
  2
*D33
 10
-0.7344381411255654
 20
90.14844291131504
 30
0.0
 11
-2.609438141125577
 21
110.1470036119451
 31
0.0
 70
    32
 71
     5
 42
39.99712140126019
  3
Copia di ISO-25
100
AcDbAlignedDimension
 13
-0.3418632100831473
 23
130.1455643125752
 33
0.0
 14
-0.3418632100831547
 24
90.14844291131504
 34
0.0
 50
90.0
100
AcDbRotatedDimension
  0
DIMENSION
  5
32A
330
1F
100
AcDbEntity
  8
0
100
AcDbDimension
  2
*D34
 10
129.993252094777
 20
56.03325132640799
 30
0.0
 11
70.12546572060886
 21
57.90825132640799
 31
0.0
 70
    32
 71
     5
 42
119.7355727483364
  3
Copia di ISO-25
100
AcDbAlignedDimension
 13
10.25767934644068
 23
64.26795265393588
 33
0.0
 14
129.993252094777
 24
64.26795265393588
 34
0.0
100
AcDbRotatedDimension
  0
DIMENSION
  5
337
330
1F
100
AcDbEntity
  8
0
100
AcDbDimension
  2
*D35
 10
210.0786843125491
 20
99.95165875269549
 30
0.0
 11
208.203684312549
 21
109.9509392328126
 31
0.0
 70
    32
 71
     5
 42
19.99856096023416
  3
Copia di ISO-25
100
AcDbAlignedDimension
 13
210.0786843125491
 23
119.9502197129296
 33
0.0
 14
210.0786843125491
 24
99.95165875269549
 34
0.0
 50
90.0
100
AcDbRotatedDimension
  0
TEXT
  5
344
330
1F
100
AcDbEntity
  8
0
100
AcDbText
 10
29.49328653991438
 20
260.4129388349881
 30
0.0
 40
2.5
  1
1
100
AcDbText
  0
TEXT
  5
345
330
1F
100
AcDbEntity
  8
0
100
AcDbText
 10
89.55736102688318
 20
261.1971963515184
 30
0.0
 40
2.5
  1
2
100
AcDbText
  0
TEXT
  5
346
330
1F
100
AcDbEntity
  8
0
100
AcDbText
 10
149.2288592882507
 20
261.1971963515184
 30
0.0
 40
2.5
  1
3
100
AcDbText
  0
TEXT
  5
347
330
1F
100
AcDbEntity
  8
0
100
AcDbText
 10
205.3671766974439
 20
260.8050675932532
 30
0.0
 40
2.5
  1
4
100
AcDbText
  0
TEXT
  5
348
330
1F
100
AcDbEntity
  8
0
100
AcDbText
 10
251.2985277757141
 20
259.6286813184577
 30
0.0
 40
2.5
  1
5
100
AcDbText
  0
TEXT
  5
349
330
1F
100
AcDbEntity
  8
0
100
AcDbText
 10
287.808062385146
 20
259.6286818376658
 30
0.0
 40
2.5
  1
6
100
AcDbText
  0
TEXT
  5
34A
330
1F
100
AcDbEntity
  8
0
100
AcDbText
 10
23.60465221780964
 20
140.0294463921504
 30
0.0
 40
2.5
  1
A + B
100
AcDbText
  0
TEXT
  5
34B
330
1F
100
AcDbEntity
  8
0
100
AcDbText
 10
-59.22880969549375
 20
158.8516210775891
 30
0.0
 40
2.5
  1
1 2  A B = compensato 4 mm
100
AcDbText
  0
TEXT
  5
34C
330
1F
100
AcDbEntity
  8
0
100
AcDbText
 10
-59.62138462653593
 20
147.0877614448829
 30
0.0
 40
2.5
  1
3 4 5 6 = balsa 3 mm
100
AcDbText
  0
ENDSEC
  0
SECTION
  2
OBJECTS
  0
DICTIONARY
  5
C
330
0
100
AcDbDictionary
281
     1
  3
ACAD_COLOR
350
1BC
  3
ACAD_GROUP
350
D
  3
ACAD_LAYOUT
350
1A
  3
ACAD_MATERIAL
350
1A7
  3
ACAD_MLINESTYLE
350
17
  3
ACAD_PLOTSETTINGS
350
19
  3
ACAD_PLOTSTYLENAME
350
E
  3
ACAD_TABLESTYLE
350
1BD
  3
ACAD_VISUALSTYLE
350
1AB
  3
AcDbVariableDictionary
350
2B
  3
DWGPROPS
350
355
  0
DICTIONARY
  5
1BC
102
{ACAD_REACTORS
330
C
102
}
330
C
100
AcDbDictionary
281
     1
  0
DICTIONARY
  5
D
102
{ACAD_REACTORS
330
C
102
}
330
C
100
AcDbDictionary
281
     1
  0
DICTIONARY
  5
1A
102
{ACAD_REACTORS
330
C
102
}
330
C
100
AcDbDictionary
281
     1
  3
Layout1
350
1E
  3
Layout2
350
26
  3
Model
350
22
  0
DICTIONARY
  5
1A7
102
{ACAD_REACTORS
330
C
102
}
330
C
100
AcDbDictionary
281
     1
  3
ByBlock
350
1A9
  3
ByLayer
350
1A8
  3
Global
350
1AA
  0
DICTIONARY
  5
17
102
{ACAD_REACTORS
330
C
102
}
330
C
100
AcDbDictionary
281
     1
  3
Standard
350
18
  0
DICTIONARY
  5
19
102
{ACAD_REACTORS
330
C
102
}
330
C
100
AcDbDictionary
281
     1
  0
ACDBDICTIONARYWDFLT
  5
E
102
{ACAD_REACTORS
330
C
102
}
330
C
100
AcDbDictionary
281
     1
  3
Normal
350
F
100
AcDbDictionaryWithDefault
340
F
  0
DICTIONARY
  5
1BD
102
{ACAD_REACTORS
330
C
102
}
330
C
100
AcDbDictionary
281
     1
  3
Standard
350
1BE
  0
DICTIONARY
  5
1AB
102
{ACAD_REACTORS
330
C
102
}
330
C
100
AcDbDictionary
281
     1
  3
2dWireframe
350
1B1
  3
3D Hidden
350
1B3
  3
3dWireframe
350
1B2
  3
Basic
350
1B0
  3
Brighten
350
1B7
  3
ColorChange
350
1BB
  3
Conceptual
350
1B4
  3
Dim
350
1B6
  3
Facepattern
350
1BA
  3
Flat
350
1AC
  3
FlatWithEdges
350
1AD
  3
Gouraud
350
1AE
  3
GouraudWithEdges
350
1AF
  3
Linepattern
350
1B9
  3
Realistic
350
1B5
  3
Thicken
350
1B8
  0
DICTIONARY
  5
2B
102
{ACAD_REACTORS
330
C
102
}
330
C
100
AcDbDictionary
281
     1
  3
CTABLESTYLE
350
1FB
  3
DIMASSOC
350
352
  3
INDEXCTL
350
351
  3
LOFTANG1
350
353
  3
LOFTANG2
350
354
  3
SORTENTS
350
2C
  0
XRECORD
  5
355
102
{ACAD_REACTORS
330
C
102
}
330
C
100
AcDbXrecord
280
     1
  1
DWGPROPS COOKIE
  2

  3

  4

  6

  7

  8
Paolo
  9

300
=
301
=
302
=
303
=
304
=
305
=
306
=
307
=
308
=
309
=
 40
0.1241713773148148
 41
2455164.861946632
 42
2455317.888627489
  1

 90
        0
  0
LAYOUT
  5
1E
102
{ACAD_XDICTIONARY
360
356
102
}
102
{ACAD_REACTORS
330
1A
102
}
330
1A
100
AcDbPlotSettings
  1

  2
Canon Bubble-Jet BJ-10sx
  4

  6

 40
0.0
 41
0.0
 42
0.0
 43
0.0
 44
0.0
 45
0.0
 46
0.0
 47
0.0
 48
0.0
 49
0.0
140
0.0
141
0.0
142
1.0
143
1.0
 70
   688
 72
     0
 73
     0
 74
     5
  7

 75
    16
147
1.0
148
0.0
149
0.0
100
AcDbLayout
  1
Layout1
 70
     1
 71
     1
 10
0.0
 20
0.0
 11
420.0
 21
297.0
 12
0.0
 22
0.0
 32
0.0
 14
1.000000000000000E+20
 24
1.000000000000000E+20
 34
1.000000000000000E+20
 15
-1.000000000000000E+20
 25
-1.000000000000000E+20
 35
-1.000000000000000E+20
146
0.0
 13
0.0
 23
0.0
 33
0.0
 16
1.0
 26
0.0
 36
0.0
 17
0.0
 27
1.0
 37
0.0
 76
     0
330
1B
  0
LAYOUT
  5
26
102
{ACAD_XDICTIONARY
360
35A
102
}
102
{ACAD_REACTORS
330
1A
102
}
330
1A
100
AcDbPlotSettings
  1

  2
Canon Bubble-Jet BJ-10sx
  4

  6

 40
0.0
 41
0.0
 42
0.0
 43
0.0
 44
0.0
 45
0.0
 46
0.0
 47
0.0
 48
0.0
 49
0.0
140
0.0
141
0.0
142
1.0
143
1.0
 70
   688
 72
     0
 73
     0
 74
     5
  7

 75
    16
147
1.0
148
0.0
149
0.0
100
AcDbLayout
  1
Layout2
 70
     1
 71
     2
 10
0.0
 20
0.0
 11
12.0
 21
9.0
 12
0.0
 22
0.0
 32
0.0
 14
0.0
 24
0.0
 34
0.0
 15
0.0
 25
0.0
 35
0.0
146
0.0
 13
0.0
 23
0.0
 33
0.0
 16
1.0
 26
0.0
 36
0.0
 17
0.0
 27
1.0
 37
0.0
 76
     0
330
23
  0
LAYOUT
  5
22
102
{ACAD_XDICTIONARY
360
358
102
}
102
{ACAD_REACTORS
330
1A
102
}
330
1A
100
AcDbPlotSettings
  1

  2
Canon Bubble-Jet BJ-10sx
  4

  6

 40
0.0
 41
0.0
 42
0.0
 43
0.0
 44
0.0
 45
0.0
 46
0.0
 47
0.0
 48
0.0
 49
0.0
140
0.0
141
0.0
142
1.0
143
1.0
 70
  1712
 72
     0
 73
     0
 74
     0
  7

 75
     0
147
1.0
148
0.0
149
0.0
100
AcDbLayout
  1
Model
 70
     1
 71
     0
 10
0.0
 20
0.0
 11
12.0
 21
9.0
 12
0.0
 22
0.0
 32
0.0
 14
0.0
 24
0.0
 34
0.0
 15
0.0
 25
0.0
 35
0.0
146
0.0
 13
0.0
 23
0.0
 33
0.0
 16
1.0
 26
0.0
 36
0.0
 17
0.0
 27
1.0
 37
0.0
 76
     0
330
1F
331
1A4
  0
MATERIAL
  5
1A9
102
{ACAD_XDICTIONARY
360
35E
102
}
102
{ACAD_REACTORS
330
1A7
102
}
330
1A7
100
AcDbMaterial
  1
ByBlock
  0
MATERIAL
  5
1A8
102
{ACAD_XDICTIONARY
360
35C
102
}
102
{ACAD_REACTORS
330
1A7
102
}
330
1A7
100
AcDbMaterial
  1
ByLayer
  0
MATERIAL
  5
1AA
102
{ACAD_XDICTIONARY
360
360
102
}
102
{ACAD_REACTORS
330
1A7
102
}
330
1A7
100
AcDbMaterial
  1
Global
  0
MLINESTYLE
  5
18
102
{ACAD_REACTORS
330
17
102
}
330
17
100
AcDbMlineStyle
  2
STANDARD
 70
     0
  3

 62
   256
 51
90.0
 52
90.0
 71
     2
 49
0.5
 62
   256
  6
BYLAYER
 49
-0.5
 62
   256
  6
BYLAYER
  0
ACDBPLACEHOLDER
  5
F
102
{ACAD_REACTORS
330
E
102
}
330
E
  0
TABLESTYLE
  5
1BE
102
{ACAD_XDICTIONARY
360
362
102
}
102
{ACAD_REACTORS
330
1BD
102
}
330
1BD
100
AcDbTableStyle
  3
Standard
 70
     0
 71
     0
 40
1.5
 41
1.5
280
     0
281
     0
  7
Standard
140
4.5
170
     2
 62
     0
 63
     7
283
     0
274
    -2
284
     1
 64
     0
275
    -2
285
     1
 65
     0
276
    -2
286
     1
 66
     0
277
    -2
287
     1
 67
     0
278
    -2
288
     1
 68
     0
279
    -2
289
     1
 69
     0
  7
Standard
140
6.0
170
     5
 62
     0
 63
     7
283
     0
274
    -2
284
     1
 64
     0
275
    -2
285
     1
 65
     0
276
    -2
286
     1
 66
     0
277
    -2
287
     1
 67
     0
278
    -2
288
     1
 68
     0
279
    -2
289
     1
 69
     0
  7
Standard
140
4.5
170
     5
 62
     0
 63
     7
283
     0
274
    -2
284
     1
 64
     0
275
    -2
285
     1
 65
     0
276
    -2
286
     1
 66
     0
277
    -2
287
     1
 67
     0
278
    -2
288
     1
 68
     0
279
    -2
289
     1
 69
     0
  0
VISUALSTYLE
  5
1B1
102
{ACAD_REACTORS
330
1AB
102
}
330
1AB
100
AcDbVisualStyle
  2
2dWireframe
 70
     4
 71
     0
 72
     2
 73
     0
 90
        0
 40
-0.6
 41
-30.0
 62
     5
 63
     7
 74
     1
 91
        4
 64
     7
 65
   257
 75
     1
175
     1
 42
1.0
 92
        0
 66
   257
 43
1.0
 76
     1
 77
     6
 78
     2
 67
     7
 79
     5
170
     0
171
     0
290
     0
174
     0
 93
        1
 44
0.0
173
     0
291
     0
 45
0.0
1001
ACAD
1000
AcDbSavedByObjectVersion
1070
     0
  0
VISUALSTYLE
  5
1B3
102
{ACAD_REACTORS
330
1AB
102
}
330
1AB
100
AcDbVisualStyle
  2
3D Hidden
 70
     6
 71
     1
 72
     2
 73
     2
 90
        0
 40
-0.6
 41
-30.0
 62
     5
 63
     7
 74
     2
 91
        2
 64
     7
 65
   257
 75
     2
175
     1
 42
40.0
 92
        0
 66
   257
 43
1.0
 76
     1
 77
     6
 78
     2
 67
     7
 79
     3
170
     0
171
     0
290
     0
174
     0
 93
        1
 44
0.0
173
     0
291
     0
 45
0.0
1001
ACAD
1000
AcDbSavedByObjectVersion
1070
     0
  0
VISUALSTYLE
  5
1B2
102
{ACAD_REACTORS
330
1AB
102
}
330
1AB
100
AcDbVisualStyle
  2
3dWireframe
 70
     5
 71
     0
 72
     2
 73
     0
 90
        0
 40
-0.6
 41
-30.0
 62
     5
 63
     7
 74
     1
 91
        4
 64
     7
 65
   257
 75
     1
175
     1
 42
1.0
 92
        0
 66
   257
 43
1.0
 76
     1
 77
     6
 78
     2
 67
     7
 79
     5
170
     0
171
     0
290
     0
174
     0
 93
        1
 44
0.0
173
     0
291
     0
 45
0.0
1001
ACAD
1000
AcDbSavedByObjectVersion
1070
     0
  0
VISUALSTYLE
  5
1B0
102
{ACAD_REACTORS
330
1AB
102
}
330
1AB
100
AcDbVisualStyle
  2
Basic
 70
     7
 71
     1
 72
     0
 73
     1
 90
        0
 40
-0.6
 41
-30.0
 62
     5
 63
     7
 74
     0
 91
        4
 64
     7
 65
   257
 75
     1
175
     1
 42
1.0
 92
        8
 66
     7
 43
1.0
 76
     1
 77
     6
 78
     2
 67
     7
 79
     5
170
     0
171
     0
290
     0
174
     0
 93
        1
 44
0.0
173
     0
291
     1
 45
0.0
1001
ACAD
1000
AcDbSavedByObjectVersion
1070
     0
  0
VISUALSTYLE
  5
1B7
102
{ACAD_REACTORS
330
1AB
102
}
330
1AB
100
AcDbVisualStyle
  2
Brighten
 70
    12
 71
     2
 72
     2
 73
     0
 90
        0
 40
-0.6
 41
-30.0
 62
     5
 63
     7
 74
     1
 91
        4
 64
     7
 65
   257
 75
     1
175
     1
 42
1.0
 92
        8
 66
     7
 43
1.0
 76
     1
 77
     6
 78
     2
 67
     7
 79
     5
170
     0
171
     0
290
     0
174
     0
 93
        1
 44
50.0
173
     0
291
     1
 45
0.0
1001
ACAD
1000
AcDbSavedByObjectVersion
1070
     0
  0
VISUALSTYLE
  5
1BB
102
{ACAD_REACTORS
330
1AB
102
}
330
1AB
100
AcDbVisualStyle
  2
ColorChange
 70
    16
 71
     2
 72
     2
 73
     3
 90
        0
 40
-0.6
 41
-30.0
 62
     5
 63
     8
 74
     1
 91
        4
 64
     7
 65
   257
 75
     1
175
     1
 42
1.0
 92
        8
 66
     8
 43
1.0
 76
     1
 77
     6
 78
     2
 67
     7
 79
     5
170
     0
171
     0
290
     0
174
     0
 93
        1
 44
0.0
173
     0
291
     1
 45
0.0
1001
ACAD
1000
AcDbSavedByObjectVersion
1070
     0
  0
VISUALSTYLE
  5
1B4
102
{ACAD_REACTORS
330
1AB
102
}
330
1AB
100
AcDbVisualStyle
  2
Conceptual
 70
     9
 71
     3
 72
     2
 73
     0
 90
        0
 40
-0.6
 41
-30.0
 62
     5
 63
     7
 74
     2
 91
        2
 64
     7
 65
   257
 75
     1
175
     1
 42
40.0
 92
        8
 66
     7
 43
1.0
 76
     1
 77
     6
 78
     2
 67
     7
 79
     3
170
     0
171
     0
290
     0
174
     0
 93
        1
 44
0.0
173
     0
291
     0
 45
0.0
1001
ACAD
1000
AcDbSavedByObjectVersion
1070
     0
  0
VISUALSTYLE
  5
1B6
102
{ACAD_REACTORS
330
1AB
102
}
330
1AB
100
AcDbVisualStyle
  2
Dim
 70
    11
 71
     2
 72
     2
 73
     0
 90
        0
 40
-0.6
 41
-30.0
 62
     5
 63
     7
 74
     1
 91
        4
 64
     7
 65
   257
 75
     1
175
     1
 42
1.0
 92
        8
 66
     7
 43
1.0
 76
     1
 77
     6
 78
     2
 67
     7
 79
     5
170
     0
171
     0
290
     0
174
     0
 93
        1
 44
-50.0
173
     0
291
     1
 45
0.0
1001
ACAD
1000
AcDbSavedByObjectVersion
1070
     0
  0
VISUALSTYLE
  5
1BA
102
{ACAD_REACTORS
330
1AB
102
}
330
1AB
100
AcDbVisualStyle
  2
Facepattern
 70
    15
 71
     2
 72
     2
 73
     0
 90
        0
 40
-0.6
 41
-30.0
 62
     5
 63
     7
 74
     1
 91
        4
 64
     7
 65
   257
 75
     1
175
     1
 42
1.0
 92
        8
 66
     7
 43
1.0
 76
     1
 77
     6
 78
     2
 67
     7
 79
     5
170
     0
171
     0
290
     0
174
     0
 93
        1
 44
0.0
173
     0
291
     1
 45
0.0
1001
ACAD
1000
AcDbSavedByObjectVersion
1070
     0
  0
VISUALSTYLE
  5
1AC
102
{ACAD_REACTORS
330
1AB
102
}
330
1AB
100
AcDbVisualStyle
  2
Flat
 70
     0
 71
     2
 72
     1
 73
     1
 90
        2
 40
-0.6
 41
30.0
 62
     5
 63
     7
 74
     0
 91
        4
 64
     7
 65
   257
 75
     1
175
     1
 42
1.0
 92
        8
 66
     7
 43
1.0
 76
     1
 77
     6
 78
     2
 67
     7
 79
     5
170
     0
171
     0
290
     0
174
     0
 93
       13
 44
0.0
173
     0
291
     1
 45
0.0
1001
ACAD
1000
AcDbSavedByObjectVersion
1070
     0
  0
VISUALSTYLE
  5
1AD
102
{ACAD_REACTORS
330
1AB
102
}
330
1AB
100
AcDbVisualStyle
  2
FlatWithEdges
 70
     1
 71
     2
 72
     1
 73
     1
 90
        2
 40
-0.6
 41
30.0
 62
     5
 63
     7
 74
     1
 91
        4
 64
     7
 65
   257
 75
     1
175
     1
 42
1.0
 92
        0
 66
   257
 43
1.0
 76
     1
 77
     6
 78
     2
 67
     7
 79
     5
170
     0
171
     0
290
     0
174
     0
 93
       13
 44
0.0
173
     0
291
     1
 45
0.0
1001
ACAD
1000
AcDbSavedByObjectVersion
1070
     0
  0
VISUALSTYLE
  5
1AE
102
{ACAD_REACTORS
330
1AB
102
}
330
1AB
100
AcDbVisualStyle
  2
Gouraud
 70
     2
 71
     2
 72
     2
 73
     1
 90
        2
 40
-0.6
 41
30.0
 62
     5
 63
     7
 74
     0
 91
        4
 64
     7
 65
   257
 75
     1
175
     1
 42
1.0
 92
        0
 66
     7
 43
1.0
 76
     1
 77
     6
 78
     2
 67
     7
 79
     5
170
     0
171
     0
290
     0
174
     0
 93
       13
 44
0.0
173
     0
291
     1
 45
0.0
1001
ACAD
1000
AcDbSavedByObjectVersion
1070
     0
  0
VISUALSTYLE
  5
1AF
102
{ACAD_REACTORS
330
1AB
102
}
330
1AB
100
AcDbVisualStyle
  2
GouraudWithEdges
 70
     3
 71
     2
 72
     2
 73
     1
 90
        2
 40
-0.6
 41
30.0
 62
     5
 63
     7
 74
     1
 91
        4
 64
     7
 65
   257
 75
     1
175
     1
 42
1.0
 92
        0
 66
   257
 43
1.0
 76
     1
 77
     6
 78
     2
 67
     7
 79
     5
170
     0
171
     0
290
     0
174
     0
 93
       13
 44
0.0
173
     0
291
     1
 45
0.0
1001
ACAD
1000
AcDbSavedByObjectVersion
1070
     0
  0
VISUALSTYLE
  5
1B9
102
{ACAD_REACTORS
330
1AB
102
}
330
1AB
100
AcDbVisualStyle
  2
Linepattern
 70
    14
 71
     2
 72
     2
 73
     0
 90
        0
 40
-0.6
 41
-30.0
 62
     5
 63
     7
 74
     1
 91
        4
 64
     7
 65
   257
 75
     7
175
     7
 42
1.0
 92
        8
 66
     7
 43
1.0
 76
     1
 77
     6
 78
     2
 67
     7
 79
     5
170
     0
171
     0
290
     0
174
     0
 93
        1
 44
0.0
173
     0
291
     1
 45
0.0
1001
ACAD
1000
AcDbSavedByObjectVersion
1070
     0
  0
VISUALSTYLE
  5
1B5
102
{ACAD_REACTORS
330
1AB
102
}
330
1AB
100
AcDbVisualStyle
  2
Realistic
 70
     8
 71
     2
 72
     2
 73
     0
 90
        0
 40
-0.6
 41
-30.0
 62
     5
 63
     7
 74
     1
 91
        0
 64
     7
 65
   257
 75
     1
175
     1
 42
1.0
 92
        8
 66
     8
 43
1.0
 76
     1
 77
     6
 78
     2
 67
     7
 79
     5
170
     0
171
     0
290
     0
174
     0
 93
       13
 44
0.0
173
     0
291
     0
 45
0.0
1001
ACAD
1000
AcDbSavedByObjectVersion
1070
     0
  0
VISUALSTYLE
  5
1B8
102
{ACAD_REACTORS
330
1AB
102
}
330
1AB
100
AcDbVisualStyle
  2
Thicken
 70
    13
 71
     2
 72
     2
 73
     0
 90
        0
 40
-0.6
 41
-30.0
 62
     5
 63
     7
 74
     1
 91
        4
 64
     7
 65
   257
 75
     1
175
     1
 42
1.0
 92
       12
 66
     7
 43
1.0
 76
     1
 77
     6
 78
     2
 67
     7
 79
     5
170
     0
171
     0
290
     0
174
     0
 93
        1
 44
0.0
173
     0
291
     1
 45
0.0
1001
ACAD
1000
AcDbSavedByObjectVersion
1070
     0
  0
DICTIONARYVAR
  5
1FB
102
{ACAD_REACTORS
330
2B
102
}
330
2B
100
DictionaryVariables
280
     0
  1
STANDARD
  0
DICTIONARYVAR
  5
352
102
{ACAD_REACTORS
330
2B
102
}
330
2B
100
DictionaryVariables
280
     0
  1
1
  0
DICTIONARYVAR
  5
351
102
{ACAD_REACTORS
330
2B
102
}
330
2B
100
DictionaryVariables
280
     0
  1
0
  0
DICTIONARYVAR
  5
353
102
{ACAD_REACTORS
330
2B
102
}
330
2B
100
DictionaryVariables
280
     0
  1
1.570796
  0
DICTIONARYVAR
  5
354
102
{ACAD_REACTORS
330
2B
102
}
330
2B
100
DictionaryVariables
280
     0
  1
1.570796
  0
DICTIONARYVAR
  5
2C
102
{ACAD_REACTORS
330
2B
102
}
330
2B
100
DictionaryVariables
280
     0
  1
96
  0
DICTIONARY
  5
356
330
1E
100
AcDbDictionary
280
     1
281
     1
  3
ACAD_XREC_ROUNDTRIP
360
357
  0
DICTIONARY
  5
35A
330
26
100
AcDbDictionary
280
     1
281
     1
  3
ACAD_XREC_ROUNDTRIP
360
35B
  0
DICTIONARY
  5
358
330
22
100
AcDbDictionary
280
     1
281
     1
  3
ACAD_XREC_ROUNDTRIP
360
359
  0
DICTIONARY
  5
35E
330
1A9
100
AcDbDictionary
280
     1
281
     1
  3
ACAD_XREC_ROUNDTRIP
360
35F
  0
DICTIONARY
  5
35C
330
1A8
100
AcDbDictionary
280
     1
281
     1
  3
ACAD_XREC_ROUNDTRIP
360
35D
  0
DICTIONARY
  5
360
330
1AA
100
AcDbDictionary
280
     1
281
     1
  3
ACAD_XREC_ROUNDTRIP
360
361
  0
DICTIONARY
  5
362
330
1BE
100
AcDbDictionary
280
     1
281
     1
  3
ACAD_XREC_ROUNDTRIP
360
363
  0
XRECORD
  5
357
102
{ACAD_REACTORS
330
356
102
}
330
356
100
AcDbXrecord
280
     1
102
SHADEPLOT
 70
     0
102
SHADEPLOTRESLEVEL
 70
     2
102
SHADEPLOTCUSTOMDPI
 70
   300
  0
XRECORD
  5
35B
102
{ACAD_REACTORS
330
35A
102
}
330
35A
100
AcDbXrecord
280
     1
102
SHADEPLOT
 70
     0
102
SHADEPLOTRESLEVEL
 70
     2
102
SHADEPLOTCUSTOMDPI
 70
   300
  0
XRECORD
  5
359
102
{ACAD_REACTORS
330
358
102
}
330
358
100
AcDbXrecord
280
     1
102
SHADEPLOT
 70
     0
102
SHADEPLOTRESLEVEL
 70
     2
102
SHADEPLOTCUSTOMDPI
 70
   300
  0
XRECORD
  5
35F
102
{ACAD_REACTORS
330
35E
102
}
330
35E
100
AcDbXrecord
280
     1
102
MATERIAL
148
0.0
149
0.0
149
0.0
 93
        0
 94
       63
282
     0
 72
     1
 77
     1
171
     1
175
     1
179
     1
273
     0
  0
XRECORD
  5
35D
102
{ACAD_REACTORS
330
35C
102
}
330
35C
100
AcDbXrecord
280
     1
102
MATERIAL
148
0.0
149
0.0
149
0.0
 93
        0
 94
       63
282
     0
 72
     1
 77
     1
171
     1
175
     1
179
     1
273
     0
  0
XRECORD
  5
361
102
{ACAD_REACTORS
330
360
102
}
330
360
100
AcDbXrecord
280
     1
102
MATERIAL
148
0.0
149
0.0
149
0.0
 93
        0
 94
       63
282
     0
 72
     1
 77
     1
171
     1
175
     1
179
     1
273
     0
  0
XRECORD
  5
363
102
{ACAD_REACTORS
330
362
102
}
330
362
100
AcDbXrecord
280
     1
102
ACAD_ROUNDTRIP_PRE2007_TABLESTYLE
 90
      512
 91
        0
  1

 92
      512
 93
        0
  2

 94
      512
 95
        0
  3

  0
ENDSEC
  0
EOF
