  0
SECTION
  2
HEADER
  9
$ACADVER
  1
AC1015
  9
$ACADMAINTVER
 70
    20
  9
$DWGCODEPAGE
  3
ANSI_1252
  9
$INSBASE
 10
0.0
 20
0.0
 30
0.0
  9
$EXTMIN
 10
3679.393931986532
 20
2422.70586547939
 30
0.0
  9
$EXTMAX
 10
4638.272951886436
 20
2770.012086619638
 30
0.0
  9
$LIMMIN
 10
0.0
 20
0.0
  9
$LIMMAX
 10
2.0
 20
1.0
  9
$ORTHOMODE
 70
     0
  9
$REGENMODE
 70
     1
  9
$FILLMODE
 70
     1
  9
$QTEXTMODE
 70
     0
  9
$MIRRTEXT
 70
     0
  9
$LTSCALE
 40
1.0
  9
$ATTMODE
 70
     1
  9
$TEXTSIZE
 40
10.0
  9
$TRACEWID
 40
1.0
  9
$TEXTSTYLE
  7
STANDARD
  9
$CLAYER
  8
0
  9
$CELTYPE
  6
CONTINUOUS
  9
$CECOLOR
 62
   256
  9
$CELTSCALE
 40
1.0
  9
$DISPSILH
 70
     0
  9
$DIMSCALE
 40
1.0
  9
$DIMASZ
 40
2.5
  9
$DIMEXO
 40
0.625
  9
$DIMDLI
 40
3.75
  9
$DIMRND
 40
1.0
  9
$DIMDLE
 40
0.0
  9
$DIMEXE
 40
1.25
  9
$DIMTP
 40
0.0
  9
$DIMTM
 40
0.0
  9
$DIMTXT
 40
1.0
  9
$DIMCEN
 40
2.5
  9
$DIMTSZ
 40
0.0
  9
$DIMTOL
 70
     0
  9
$DIMLIM
 70
     0
  9
$DIMTIH
 70
     0
  9
$DIMTOH
 70
     0
  9
$DIMSE1
 70
     0
  9
$DIMSE2
 70
     0
  9
$DIMTAD
 70
     1
  9
$DIMZIN
 70
     8
  9
$DIMBLK
  1

  9
$DIMASO
 70
     1
  9
$DIMSHO
 70
     1
  9
$DIMPOST
  1

  9
$DIMAPOST
  1

  9
$DIMALT
 70
     0
  9
$DIMALTD
 70
     3
  9
$DIMALTF
 40
0.03937007874016
  9
$DIMLFAC
 40
1.0
  9
$DIMTOFL
 70
     1
  9
$DIMTVP
 40
0.0
  9
$DIMTIX
 70
     0
  9
$DIMSOXD
 70
     0
  9
$DIMSAH
 70
     0
  9
$DIMBLK1
  1

  9
$DIMBLK2
  1

  9
$DIMSTYLE
  2
Copia di ISO-25
  9
$DIMCLRD
 70
     0
  9
$DIMCLRE
 70
     0
  9
$DIMCLRT
 70
     0
  9
$DIMTFAC
 40
1.0
  9
$DIMGAP
 40
10.0
  9
$DIMJUST
 70
     0
  9
$DIMSD1
 70
     0
  9
$DIMSD2
 70
     0
  9
$DIMTOLJ
 70
     1
  9
$DIMTZIN
 70
     8
  9
$DIMALTZ
 70
     8
  9
$DIMALTTZ
 70
     8
  9
$DIMUPT
 70
     0
  9
$DIMDEC
 70
     0
  9
$DIMTDEC
 70
     0
  9
$DIMALTU
 70
     2
  9
$DIMALTTD
 70
     3
  9
$DIMTXSTY
  7
STANDARD
  9
$DIMAUNIT
 70
     0
  9
$DIMADEC
 70
     0
  9
$DIMALTRND
 40
0.0
  9
$DIMAZIN
 70
     0
  9
$DIMDSEP
 70
    46
  9
$DIMATFIT
 70
     3
  9
$DIMFRAC
 70
     0
  9
$DIMLDRBLK
  1

  9
$DIMLUNIT
 70
     2
  9
$DIMLWD
 70
    -2
  9
$DIMLWE
 70
    -2
  9
$DIMTMOVE
 70
     2
  9
$LUNITS
 70
     2
  9
$LUPREC
 70
     0
  9
$SKETCHINC
 40
1.0
  9
$FILLETRAD
 40
0.0
  9
$AUNITS
 70
     0
  9
$AUPREC
 70
     0
  9
$MENU
  1
.
  9
$ELEVATION
 40
0.0
  9
$PELEVATION
 40
0.0
  9
$THICKNESS
 40
0.0
  9
$LIMCHECK
 70
     0
  9
$CHAMFERA
 40
0.0
  9
$CHAMFERB
 40
0.0
  9
$CHAMFERC
 40
0.0
  9
$CHAMFERD
 40
0.0
  9
$SKPOLY
 70
     0
  9
$TDCREATE
 40
2455316.660349607
  9
$TDUCREATE
 40
2455316.577016273
  9
$TDUPDATE
 40
2455319.984718784
  9
$TDUUPDATE
 40
2455319.901385451
  9
$TDINDWG
 40
0.2328727894
  9
$TDUSRTIMER
 40
0.2328717245
  9
$USRTIMER
 70
     1
  9
$ANGBASE
 50
0.0
  9
$ANGDIR
 70
     0
  9
$PDMODE
 70
     0
  9
$PDSIZE
 40
0.0
  9
$PLINEWID
 40
0.0
  9
$SPLFRAME
 70
     0
  9
$SPLINETYPE
 70
     6
  9
$SPLINESEGS
 70
     8
  9
$HANDSEED
  5
98E
  9
$SURFTAB1
 70
     6
  9
$SURFTAB2
 70
     6
  9
$SURFTYPE
 70
     6
  9
$SURFU
 70
     6
  9
$SURFV
 70
     6
  9
$UCSBASE
  2

  9
$UCSNAME
  2

  9
$UCSORG
 10
0.0
 20
0.0
 30
0.0
  9
$UCSXDIR
 10
1.0
 20
0.0
 30
0.0
  9
$UCSYDIR
 10
0.0
 20
1.0
 30
0.0
  9
$UCSORTHOREF
  2

  9
$UCSORTHOVIEW
 70
     0
  9
$UCSORGTOP
 10
0.0
 20
0.0
 30
0.0
  9
$UCSORGBOTTOM
 10
0.0
 20
0.0
 30
0.0
  9
$UCSORGLEFT
 10
0.0
 20
0.0
 30
0.0
  9
$UCSORGRIGHT
 10
0.0
 20
0.0
 30
0.0
  9
$UCSORGFRONT
 10
0.0
 20
0.0
 30
0.0
  9
$UCSORGBACK
 10
0.0
 20
0.0
 30
0.0
  9
$PUCSBASE
  2

  9
$PUCSNAME
  2

  9
$PUCSORG
 10
0.0
 20
0.0
 30
0.0
  9
$PUCSXDIR
 10
1.0
 20
0.0
 30
0.0
  9
$PUCSYDIR
 10
0.0
 20
1.0
 30
0.0
  9
$PUCSORTHOREF
  2

  9
$PUCSORTHOVIEW
 70
     0
  9
$PUCSORGTOP
 10
0.0
 20
0.0
 30
0.0
  9
$PUCSORGBOTTOM
 10
0.0
 20
0.0
 30
0.0
  9
$PUCSORGLEFT
 10
0.0
 20
0.0
 30
0.0
  9
$PUCSORGRIGHT
 10
0.0
 20
0.0
 30
0.0
  9
$PUCSORGFRONT
 10
0.0
 20
0.0
 30
0.0
  9
$PUCSORGBACK
 10
0.0
 20
0.0
 30
0.0
  9
$USERI1
 70
     0
  9
$USERI2
 70
     0
  9
$USERI3
 70
     0
  9
$USERI4
 70
     0
  9
$USERI5
 70
     0
  9
$USERR1
 40
0.0
  9
$USERR2
 40
0.0
  9
$USERR3
 40
0.0
  9
$USERR4
 40
0.0
  9
$USERR5
 40
0.0
  9
$WORLDVIEW
 70
     1
  9
$SHADEDGE
 70
     3
  9
$SHADEDIF
 70
    70
  9
$TILEMODE
 70
     1
  9
$MAXACTVP
 70
    64
  9
$PINSBASE
 10
0.0
 20
0.0
 30
0.0
  9
$PLIMCHECK
 70
     0
  9
$PEXTMIN
 10
0.0
 20
0.0
 30
0.0
  9
$PEXTMAX
 10
0.0
 20
0.0
 30
0.0
  9
$PLIMMIN
 10
0.0
 20
0.0
  9
$PLIMMAX
 10
12.0
 20
9.0
  9
$UNITMODE
 70
     0
  9
$VISRETAIN
 70
     1
  9
$PLINEGEN
 70
     0
  9
$PSLTSCALE
 70
     1
  9
$TREEDEPTH
 70
  3020
  9
$CMLSTYLE
  2
Standard
  9
$CMLJUST
 70
     0
  9
$CMLSCALE
 40
1.0
  9
$PROXYGRAPHICS
 70
     1
  9
$MEASUREMENT
 70
     0
  9
$CELWEIGHT
370
    -1
  9
$ENDCAPS
280
     0
  9
$JOINSTYLE
280
     0
  9
$LWDISPLAY
290
     0
  9
$INSUNITS
 70
     0
  9
$HYPERLINKBASE
  1

  9
$STYLESHEET
  1

  9
$XEDIT
290
     1
  9
$CEPSNTYPE
380
     0
  9
$PSTYLEMODE
290
     1
  9
$FINGERPRINTGUID
  2
{A4F55839-6F99-48A3-A4DD-A6535F5ABBCA}
  9
$VERSIONGUID
  2
{66FEA48F-8DCE-40CD-BFDA-14DBE6AF3AC3}
  9
$EXTNAMES
290
     1
  9
$PSVPSCALE
 40
0.0
  9
$OLESTARTUP
290
     0
  0
ENDSEC
  0
SECTION
  2
CLASSES
  0
CLASS
  1
ACDBDICTIONARYWDFLT
  2
AcDbDictionaryWithDefault
  3
ObjectDBX Classes
 90
        0
280
     0
281
     0
  0
CLASS
  1
MATERIAL
  2
AcDbMaterial
  3
ObjectDBX Classes
 90
     1024
280
     0
281
     0
  0
CLASS
  1
VISUALSTYLE
  2
AcDbVisualStyle
  3
ObjectDBX Classes
 90
     4095
280
     0
281
     0
  0
CLASS
  1
TABLESTYLE
  2
AcDbTableStyle
  3
ObjectDBX Classes
 90
     4095
280
     0
281
     0
  0
CLASS
  1
DICTIONARYVAR
  2
AcDbDictionaryVar
  3
ObjectDBX Classes
 90
        0
280
     0
281
     0
  0
CLASS
  1
SORTENTSTABLE
  2
AcDbSortentsTable
  3
ObjectDBX Classes
 90
        0
280
     0
281
     0
  0
CLASS
  1
ACDBPLACEHOLDER
  2
AcDbPlaceHolder
  3
ObjectDBX Classes
 90
        0
280
     0
281
     0
  0
CLASS
  1
LAYOUT
  2
AcDbLayout
  3
ObjectDBX Classes
 90
        0
280
     0
281
     0
  0
ENDSEC
  0
SECTION
  2
TABLES
  0
TABLE
  2
VPORT
  5
1BC
330
0
100
AcDbSymbolTable
 70
     1
  0
VPORT
  5
1EE
330
1BC
100
AcDbSymbolTableRecord
100
AcDbViewportTableRecord
  2
*ACTIVE
 70
     0
 10
0.0
 20
0.0
 11
1.0
 21
1.0
 12
4291.940846613202
 22
2584.689739948808
 13
0.0
 23
0.0
 14
10.0
 24
10.0
 15
10.0
 25
10.0
 16
0.0
 26
0.0
 36
1.0
 17
0.0
 27
0.0
 37
0.0
 40
345.1134135969709
 41
2.493333333333333
 42
50.0
 43
0.0
 44
0.0
 50
0.0
 51
0.0
 71
     0
 72
  1000
 73
     1
 74
     3
 75
     0
 76
     1
 77
     0
 78
     0
281
     0
 65
     1
110
0.0
120
0.0
130
0.0
111
1.0
121
0.0
131
0.0
112
0.0
122
1.0
132
0.0
 79
     0
146
0.0
  0
ENDTAB
  0
TABLE
  2
LTYPE
  5
1B9
330
0
100
AcDbSymbolTable
 70
     2
  0
LTYPE
  5
1DC
330
1B9
100
AcDbSymbolTableRecord
100
AcDbLinetypeTableRecord
  2
ByBlock
 70
     0
  3

 72
    65
 73
     0
 40
0.0
  0
LTYPE
  5
1DD
330
1B9
100
AcDbSymbolTableRecord
100
AcDbLinetypeTableRecord
  2
ByLayer
 70
     0
  3

 72
    65
 73
     0
 40
0.0
  0
LTYPE
  5
1DE
330
1B9
100
AcDbSymbolTableRecord
100
AcDbLinetypeTableRecord
  2
CONTINUOUS
 70
     0
  3
Solid line
 72
    65
 73
     0
 40
0.0
  0
LTYPE
  5
1EF
330
1B9
100
AcDbSymbolTableRecord
100
AcDbLinetypeTableRecord
  2
ACAD_ISO02W100
 70
     0
  3
Linea ISO __ __ __ __ __ __ __ __ __ __ __ __ __
 72
    65
 73
     2
 40
15.0
 49
12.0
 74
     0
 49
-3.0
 74
     0
  0
ENDTAB
  0
TABLE
  2
LAYER
  5
1B6
330
0
100
AcDbSymbolTable
 70
     2
  0
LAYER
  5
1D9
330
1B6
100
AcDbSymbolTableRecord
100
AcDbLayerTableRecord
  2
0
 70
     0
 62
     7
  6
CONTINUOUS
370
    -3
390
1C3
  0
LAYER
  5
2ED
330
1B6
100
AcDbSymbolTableRecord
100
AcDbLayerTableRecord
  2
Defpoints
 70
     0
 62
     7
  6
CONTINUOUS
290
     0
370
    -3
390
1C3
  0
ENDTAB
  0
TABLE
  2
STYLE
  5
1B7
330
0
100
AcDbSymbolTable
 70
     2
  0
STYLE
  5
1DA
330
1B7
100
AcDbSymbolTableRecord
100
AcDbTextStyleTableRecord
  2
STANDARD
 70
     0
 40
10.0
 41
1.0
 50
0.0
 71
     0
 42
10.0
  3
txt.shx
  4

  0
STYLE
  5
1F0
330
1B7
100
AcDbSymbolTableRecord
100
AcDbTextStyleTableRecord
  2

 70
     1
 40
0.0
 41
1.0
 50
0.0
 71
     0
 42
2.5
  3
ltypeshp.shx
  4

  0
ENDTAB
  0
TABLE
  2
VIEW
  5
1BA
330
0
100
AcDbSymbolTable
 70
     0
  0
ENDTAB
  0
TABLE
  2
UCS
  5
1BB
330
0
100
AcDbSymbolTable
 70
     0
  0
ENDTAB
  0
TABLE
  2
APPID
  5
1BD
330
0
100
AcDbSymbolTable
 70
     3
  0
APPID
  5
1DB
330
1BD
100
AcDbSymbolTableRecord
100
AcDbRegAppTableRecord
  2
ACAD
 70
     0
  0
APPID
  5
1F1
330
1BD
100
AcDbSymbolTableRecord
100
AcDbRegAppTableRecord
  2
ACAD_PSEXT
 70
     0
  0
APPID
  5
1F2
330
1BD
100
AcDbSymbolTableRecord
100
AcDbRegAppTableRecord
  2
ACAD_EXEMPT_FROM_CAD_STANDARDS
 70
     0
  0
ENDTAB
  0
TABLE
  2
DIMSTYLE
  5
1BE
330
0
100
AcDbSymbolTable
 70
     2
100
AcDbDimStyleTable
 71
     2
340
447
340
1F3
  0
DIMSTYLE
105
1F3
330
1BE
100
AcDbSymbolTableRecord
100
AcDbDimStyleTableRecord
  2
ISO-25
 70
     0
 41
2.5
 42
0.625
 43
3.75
 44
1.25
 73
     0
 74
     0
 77
     1
 78
     8
140
2.5
141
2.5
143
0.03937007874016
147
0.625
171
     3
172
     1
274
     3
279
     2
284
     8
285
     8
286
     8
340
1DA
  0
DIMSTYLE
105
447
102
{ACAD_REACTORS
330
877
330
884
330
891
330
89E
330
8AB
330
8B8
330
8C5
330
941
330
94E
330
95D
102
}
330
1BE
100
AcDbSymbolTableRecord
100
AcDbDimStyleTableRecord
  2
Copia di ISO-25
 70
     0
 41
2.5
 42
0.625
 43
3.75
 44
1.25
 45
1.0
 73
     0
 74
     0
 77
     1
 78
     8
140
1.0
141
2.5
143
0.03937007874016
147
10.0
171
     3
172
     1
271
     0
272
     0
274
     3
279
     2
284
     8
285
     8
286
     8
340
1DA
  0
ENDTAB
  0
TABLE
  2
BLOCK_RECORD
  5
1B5
330
0
100
AcDbSymbolTable
 70
    42
  0
BLOCK_RECORD
  5
1EA
102
{ACAD_XDICTIONARY
360
3EF
102
}
330
1B5
100
AcDbSymbolTableRecord
100
AcDbBlockTableRecord
  2
*Model_Space
340
1ED
  0
BLOCK_RECORD
  5
1E6
330
1B5
100
AcDbSymbolTableRecord
100
AcDbBlockTableRecord
  2
*Paper_Space
340
1E9
  0
BLOCK_RECORD
  5
1F6
330
1B5
100
AcDbSymbolTableRecord
100
AcDbBlockTableRecord
  2
$MODEL_SPACE
340
0
  0
BLOCK_RECORD
  5
1F8
330
1B5
100
AcDbSymbolTableRecord
100
AcDbBlockTableRecord
  2
$PAPER_SPACE
340
0
  0
BLOCK_RECORD
  5
2EE
330
1B5
100
AcDbSymbolTableRecord
100
AcDbBlockTableRecord
  2
*D2
340
0
  0
BLOCK_RECORD
  5
2FB
330
1B5
100
AcDbSymbolTableRecord
100
AcDbBlockTableRecord
  2
*D3
340
0
  0
BLOCK_RECORD
  5
308
330
1B5
100
AcDbSymbolTableRecord
100
AcDbBlockTableRecord
  2
*D4
340
0
  0
BLOCK_RECORD
  5
315
330
1B5
100
AcDbSymbolTableRecord
100
AcDbBlockTableRecord
  2
*D5
340
0
  0
BLOCK_RECORD
  5
322
330
1B5
100
AcDbSymbolTableRecord
100
AcDbBlockTableRecord
  2
*D6
340
0
  0
BLOCK_RECORD
  5
32F
330
1B5
100
AcDbSymbolTableRecord
100
AcDbBlockTableRecord
  2
*D7
340
0
  0
BLOCK_RECORD
  5
33C
330
1B5
100
AcDbSymbolTableRecord
100
AcDbBlockTableRecord
  2
*D8
340
0
  0
BLOCK_RECORD
  5
349
330
1B5
100
AcDbSymbolTableRecord
100
AcDbBlockTableRecord
  2
*D9
340
0
  0
BLOCK_RECORD
  5
356
330
1B5
100
AcDbSymbolTableRecord
100
AcDbBlockTableRecord
  2
*D10
340
0
  0
BLOCK_RECORD
  5
363
330
1B5
100
AcDbSymbolTableRecord
100
AcDbBlockTableRecord
  2
*D11
340
0
  0
BLOCK_RECORD
  5
370
330
1B5
100
AcDbSymbolTableRecord
100
AcDbBlockTableRecord
  2
*D12
340
0
  0
BLOCK_RECORD
  5
37D
330
1B5
100
AcDbSymbolTableRecord
100
AcDbBlockTableRecord
  2
*D13
340
0
  0
BLOCK_RECORD
  5
420
330
1B5
100
AcDbSymbolTableRecord
100
AcDbBlockTableRecord
  2
*D14
340
0
  0
BLOCK_RECORD
  5
42D
330
1B5
100
AcDbSymbolTableRecord
100
AcDbBlockTableRecord
  2
*D15
340
0
  0
BLOCK_RECORD
  5
456
330
1B5
100
AcDbSymbolTableRecord
100
AcDbBlockTableRecord
  2
*D16
340
0
  0
BLOCK_RECORD
  5
463
330
1B5
100
AcDbSymbolTableRecord
100
AcDbBlockTableRecord
  2
*D17
340
0
  0
BLOCK_RECORD
  5
470
330
1B5
100
AcDbSymbolTableRecord
100
AcDbBlockTableRecord
  2
*D18
340
0
  0
BLOCK_RECORD
  5
47D
330
1B5
100
AcDbSymbolTableRecord
100
AcDbBlockTableRecord
  2
*D19
340
0
  0
BLOCK_RECORD
  5
48A
330
1B5
100
AcDbSymbolTableRecord
100
AcDbBlockTableRecord
  2
*D20
340
0
  0
BLOCK_RECORD
  5
497
330
1B5
100
AcDbSymbolTableRecord
100
AcDbBlockTableRecord
  2
*D21
340
0
  0
BLOCK_RECORD
  5
4A4
330
1B5
100
AcDbSymbolTableRecord
100
AcDbBlockTableRecord
  2
*D22
340
0
  0
BLOCK_RECORD
  5
4F0
330
1B5
100
AcDbSymbolTableRecord
100
AcDbBlockTableRecord
  2
*D23
340
0
  0
BLOCK_RECORD
  5
4FD
330
1B5
100
AcDbSymbolTableRecord
100
AcDbBlockTableRecord
  2
*D24
340
0
  0
BLOCK_RECORD
  5
50A
330
1B5
100
AcDbSymbolTableRecord
100
AcDbBlockTableRecord
  2
*D25
340
0
  0
BLOCK_RECORD
  5
517
330
1B5
100
AcDbSymbolTableRecord
100
AcDbBlockTableRecord
  2
*D26
340
0
  0
BLOCK_RECORD
  5
524
330
1B5
100
AcDbSymbolTableRecord
100
AcDbBlockTableRecord
  2
*D27
340
0
  0
BLOCK_RECORD
  5
83E
330
1B5
100
AcDbSymbolTableRecord
100
AcDbBlockTableRecord
  2
*D28
340
0
  0
BLOCK_RECORD
  5
859
330
1B5
100
AcDbSymbolTableRecord
100
AcDbBlockTableRecord
  2
*D29
340
0
  0
BLOCK_RECORD
  5
86B
330
1B5
100
AcDbSymbolTableRecord
100
AcDbBlockTableRecord
  2
*D30
340
0
  0
BLOCK_RECORD
  5
878
330
1B5
100
AcDbSymbolTableRecord
100
AcDbBlockTableRecord
  2
*D31
340
0
  0
BLOCK_RECORD
  5
885
330
1B5
100
AcDbSymbolTableRecord
100
AcDbBlockTableRecord
  2
*D32
340
0
  0
BLOCK_RECORD
  5
892
330
1B5
100
AcDbSymbolTableRecord
100
AcDbBlockTableRecord
  2
*D33
340
0
  0
BLOCK_RECORD
  5
89F
330
1B5
100
AcDbSymbolTableRecord
100
AcDbBlockTableRecord
  2
*D34
340
0
  0
BLOCK_RECORD
  5
8AC
330
1B5
100
AcDbSymbolTableRecord
100
AcDbBlockTableRecord
  2
*D35
340
0
  0
BLOCK_RECORD
  5
8B9
330
1B5
100
AcDbSymbolTableRecord
100
AcDbBlockTableRecord
  2
*D36
340
0
  0
BLOCK_RECORD
  5
8C6
330
1B5
100
AcDbSymbolTableRecord
100
AcDbBlockTableRecord
  2
*D37
340
0
  0
BLOCK_RECORD
  5
8D3
330
1B5
100
AcDbSymbolTableRecord
100
AcDbBlockTableRecord
  2
*D38
340
0
  0
BLOCK_RECORD
  5
942
330
1B5
100
AcDbSymbolTableRecord
100
AcDbBlockTableRecord
  2
*D39
340
0
  0
BLOCK_RECORD
  5
94F
330
1B5
100
AcDbSymbolTableRecord
100
AcDbBlockTableRecord
  2
*D40
340
0
  0
BLOCK_RECORD
  5
95E
330
1B5
100
AcDbSymbolTableRecord
100
AcDbBlockTableRecord
  2
*D41
340
0
  0
ENDTAB
  0
ENDSEC
  0
SECTION
  2
BLOCKS
  0
BLOCK
  5
1EB
330
1EA
100
AcDbEntity
  8
0
100
AcDbBlockBegin
  2
*Model_Space
 70
     0
 10
0.0
 20
0.0
 30
0.0
  3
*Model_Space
  1

  0
ENDBLK
  5
1EC
330
1EA
100
AcDbEntity
  8
0
100
AcDbBlockEnd
  0
BLOCK
  5
1E7
330
1E6
100
AcDbEntity
 67
     1
  8
0
100
AcDbBlockBegin
  2
*Paper_Space
 70
     0
 10
0.0
 20
0.0
 30
0.0
  3
*Paper_Space
  1

  0
ENDBLK
  5
1E8
330
1E6
100
AcDbEntity
 67
     1
  8
0
100
AcDbBlockEnd
  0
BLOCK
  5
1F7
330
1F6
100
AcDbEntity
  8
0
100
AcDbBlockBegin
  2
$MODEL_SPACE
 70
     0
 10
0.0
 20
0.0
 30
0.0
  3
$MODEL_SPACE
  1

  0
ENDBLK
  5
21
330
1F6
100
AcDbEntity
  8
0
100
AcDbBlockEnd
  0
BLOCK
  5
1F9
330
1F8
100
AcDbEntity
  8
0
100
AcDbBlockBegin
  2
$PAPER_SPACE
 70
     0
 10
0.0
 20
0.0
 30
0.0
  3
$PAPER_SPACE
  1

  0
ENDBLK
  5
D5
330
1F8
100
AcDbEntity
  8
0
100
AcDbBlockEnd
  0
BLOCK
  5
2F8
330
2EE
100
AcDbEntity
  8
0
100
AcDbBlockBegin
  2
*D2
 70
     1
 10
0.0
 20
0.0
 30
0.0
  3
*D2
  1

  0
LINE
  5
2EF
330
2EE
100
AcDbEntity
  8
0
  6
Continuous
 62
     0
370
    -2
100
AcDbLine
 10
1172.737601600194
 20
548.0529543723933
 30
0.0
 11
1172.737601600194
 21
493.9815833968241
 31
0.0
  0
LINE
  5
2F0
330
2EE
100
AcDbEntity
  8
0
  6
Continuous
 62
     0
370
    -2
100
AcDbLine
 10
1850.496615938453
 20
548.0529543723933
 30
0.0
 11
1850.496615938453
 21
493.9815833968241
 31
0.0
  0
LINE
  5
2F1
330
2EE
100
AcDbEntity
  8
0
  6
Continuous
 62
     0
370
    -2
100
AcDbLine
 10
1175.237601600194
 20
495.2315833968241
 30
0.0
 11
1847.996615938453
 21
495.2315833968241
 31
0.0
  0
SOLID
  5
2F2
330
2EE
100
AcDbEntity
  8
0
  6
Continuous
 62
     0
100
AcDbTrace
 10
1175.237601600194
 20
495.6482500634908
 30
0.0
 11
1175.237601600194
 21
494.8149167301574
 31
0.0
 12
1172.737601600194
 22
495.2315833968241
 32
0.0
 13
1172.737601600194
 23
495.2315833968241
 33
0.0
  0
SOLID
  5
2F3
330
2EE
100
AcDbEntity
  8
0
  6
Continuous
 62
     0
100
AcDbTrace
 10
1847.996615938453
 20
495.6482500634908
 30
0.0
 11
1847.996615938453
 21
494.8149167301574
 31
0.0
 12
1850.496615938453
 22
495.2315833968241
 32
0.0
 13
1850.496615938453
 23
495.2315833968241
 33
0.0
  0
MTEXT
  5
2F4
330
2EE
100
AcDbEntity
  8
0
  6
Continuous
 62
     0
100
AcDbMText
 10
1511.617108769323
 20
498.3565833968241
 30
0.0
 40
5.0
 41
0.0
 71
     5
 72
     1
  1
\A1;677.759
 73
     1
 44
1.0
1001
ACAD
1000
MTEXTBEGIN
1070
    73
1070
     1
1070
    44
1040
1.0
1070
    74
1070
     0
1000
MTEXTEND
  0
POINT
  5
2F5
330
2EE
100
AcDbEntity
  8
Defpoints
  6
Continuous
 62
     0
100
AcDbPoint
 10
1172.737601600194
 20
548.6779543723931
 30
0.0
  0
POINT
  5
2F6
330
2EE
100
AcDbEntity
  8
Defpoints
  6
Continuous
 62
     0
100
AcDbPoint
 10
1850.496615938453
 20
548.6779543723931
 30
0.0
  0
POINT
  5
2F7
330
2EE
100
AcDbEntity
  8
Defpoints
  6
Continuous
 62
     0
100
AcDbPoint
 10
1850.496615938453
 20
495.2315833968241
 30
0.0
  0
ENDBLK
  5
2F9
330
2EE
100
AcDbEntity
  8
0
100
AcDbBlockEnd
  0
BLOCK
  5
305
330
2FB
100
AcDbEntity
  8
0
100
AcDbBlockBegin
  2
*D3
 70
     1
 10
0.0
 20
0.0
 30
0.0
  3
*D3
  1

  0
LINE
  5
2FC
330
2FB
100
AcDbEntity
  8
0
  6
Continuous
 62
     0
370
    -2
100
AcDbLine
 10
1172.737601600194
 20
548.0529543723933
 30
0.0
 11
1172.737601600194
 21
400.4504471229246
 31
0.0
  0
LINE
  5
2FD
330
2FB
100
AcDbEntity
  8
0
  6
Continuous
 62
     0
370
    -2
100
AcDbLine
 10
1872.791319296714
 20
548.0529543723933
 30
0.0
 11
1872.791319296714
 21
400.4504471229246
 31
0.0
  0
LINE
  5
2FE
330
2FB
100
AcDbEntity
  8
0
  6
Continuous
 62
     0
370
    -2
100
AcDbLine
 10
1175.237601600194
 20
401.7004471229246
 30
0.0
 11
1870.291319296713
 21
401.7004471229246
 31
0.0
  0
SOLID
  5
2FF
330
2FB
100
AcDbEntity
  8
0
  6
Continuous
 62
     0
100
AcDbTrace
 10
1175.237601600194
 20
402.1171137895914
 30
0.0
 11
1175.237601600194
 21
401.283780456258
 31
0.0
 12
1172.737601600194
 22
401.7004471229246
 32
0.0
 13
1172.737601600194
 23
401.7004471229246
 33
0.0
  0
SOLID
  5
300
330
2FB
100
AcDbEntity
  8
0
  6
Continuous
 62
     0
100
AcDbTrace
 10
1870.291319296713
 20
402.1171137895914
 30
0.0
 11
1870.291319296713
 21
401.283780456258
 31
0.0
 12
1872.791319296714
 22
401.7004471229246
 32
0.0
 13
1872.791319296714
 23
401.7004471229246
 33
0.0
  0
MTEXT
  5
301
330
2FB
100
AcDbEntity
  8
0
  6
Continuous
 62
     0
100
AcDbMText
 10
1522.764460448454
 20
427.3254471229246
 30
0.0
 40
50.0
 41
0.0
 71
     5
 72
     1
  1
\A1;700.0537
 73
     1
 44
1.0
1001
ACAD
1000
MTEXTBEGIN
1070
    73
1070
     1
1070
    44
1040
1.0
1070
    74
1070
     0
1000
MTEXTEND
  0
POINT
  5
302
330
2FB
100
AcDbEntity
  8
Defpoints
  6
Continuous
 62
     0
100
AcDbPoint
 10
1172.737601600194
 20
548.6779543723931
 30
0.0
  0
POINT
  5
303
330
2FB
100
AcDbEntity
  8
Defpoints
  6
Continuous
 62
     0
100
AcDbPoint
 10
1872.791319296714
 20
548.6779543723931
 30
0.0
  0
POINT
  5
304
330
2FB
100
AcDbEntity
  8
Defpoints
  6
Continuous
 62
     0
100
AcDbPoint
 10
1872.791319296714
 20
401.7004471229246
 30
0.0
  0
ENDBLK
  5
306
330
2FB
100
AcDbEntity
  8
0
100
AcDbBlockEnd
  0
BLOCK
  5
312
330
308
100
AcDbEntity
  8
0
100
AcDbBlockBegin
  2
*D4
 70
     1
 10
0.0
 20
0.0
 30
0.0
  3
*D4
  1

  0
LINE
  5
309
330
308
100
AcDbEntity
  8
0
  6
Continuous
 62
     0
370
    -2
100
AcDbLine
 10
1877.250259968368
 20
353.3329447064334
 30
0.0
 11
1877.250259968368
 21
353.9579447064334
 31
0.0
  0
LINE
  5
30A
330
308
100
AcDbEntity
  8
0
  6
Continuous
 62
     0
370
    -2
100
AcDbLine
 10
2577.303977664884
 20
353.3329447064334
 30
0.0
 11
2577.303977664884
 21
353.9579447064334
 31
0.0
  0
LINE
  5
30B
330
308
100
AcDbEntity
  8
0
  6
Continuous
 62
     0
370
    -2
100
AcDbLine
 10
1879.750259968368
 20
352.7079447064334
 30
0.0
 11
2574.803977664884
 21
352.7079447064334
 31
0.0
  0
SOLID
  5
30C
330
308
100
AcDbEntity
  8
0
  6
Continuous
 62
     0
100
AcDbTrace
 10
1879.750259968368
 20
353.1246113731001
 30
0.0
 11
1879.750259968368
 21
352.2912780397667
 31
0.0
 12
1877.250259968368
 22
352.7079447064334
 32
0.0
 13
1877.250259968368
 23
352.7079447064334
 33
0.0
  0
SOLID
  5
30D
330
308
100
AcDbEntity
  8
0
  6
Continuous
 62
     0
100
AcDbTrace
 10
2574.803977664884
 20
353.1246113731001
 30
0.0
 11
2574.803977664884
 21
352.2912780397667
 31
0.0
 12
2577.303977664884
 22
352.7079447064334
 32
0.0
 13
2577.303977664884
 23
352.7079447064334
 33
0.0
  0
MTEXT
  5
30E
330
308
100
AcDbEntity
  8
0
  6
Continuous
 62
     0
100
AcDbMText
 10
2227.277118816626
 20
378.3329447064334
 30
0.0
 40
50.0
 41
0.0
 71
     5
 72
     1
  1
\A1;700.0537
 73
     1
 44
1.0
1001
ACAD
1000
MTEXTBEGIN
1070
    73
1070
     1
1070
    44
1040
1.0
1070
    74
1070
     0
1000
MTEXTEND
  0
POINT
  5
30F
330
308
100
AcDbEntity
  8
Defpoints
  6
Continuous
 62
     0
100
AcDbPoint
 10
1877.250259968368
 20
352.7079447064334
 30
0.0
  0
POINT
  5
310
330
308
100
AcDbEntity
  8
Defpoints
  6
Continuous
 62
     0
100
AcDbPoint
 10
2577.303977664884
 20
352.7079447064334
 30
0.0
  0
POINT
  5
311
330
308
100
AcDbEntity
  8
Defpoints
  6
Continuous
 62
     0
100
AcDbPoint
 10
2577.303977664884
 20
352.7079447064334
 30
0.0
  0
ENDBLK
  5
313
330
308
100
AcDbEntity
  8
0
100
AcDbBlockEnd
  0
BLOCK
  5
31F
330
315
100
AcDbEntity
  8
0
100
AcDbBlockBegin
  2
*D5
 70
     1
 10
0.0
 20
0.0
 30
0.0
  3
*D5
  1

  0
LINE
  5
316
330
315
100
AcDbEntity
  8
0
  6
Continuous
 62
     0
370
    -2
100
AcDbLine
 10
1872.791319296714
 20
352.0829447064334
 30
0.0
 11
1872.791319296714
 21
257.926808432534
 31
0.0
  0
LINE
  5
317
330
315
100
AcDbEntity
  8
0
  6
Continuous
 62
     0
370
    -2
100
AcDbLine
 10
2572.845036993236
 20
352.0829447064334
 30
0.0
 11
2572.845036993236
 21
257.926808432534
 31
0.0
  0
LINE
  5
318
330
315
100
AcDbEntity
  8
0
  6
Continuous
 62
     0
370
    -2
100
AcDbLine
 10
1875.291319296713
 20
259.176808432534
 30
0.0
 11
2570.345036993237
 21
259.176808432534
 31
0.0
  0
SOLID
  5
319
330
315
100
AcDbEntity
  8
0
  6
Continuous
 62
     0
100
AcDbTrace
 10
1875.291319296713
 20
259.5934750992007
 30
0.0
 11
1875.291319296713
 21
258.7601417658673
 31
0.0
 12
1872.791319296714
 22
259.176808432534
 32
0.0
 13
1872.791319296714
 23
259.176808432534
 33
0.0
  0
SOLID
  5
31A
330
315
100
AcDbEntity
  8
0
  6
Continuous
 62
     0
100
AcDbTrace
 10
2570.345036993237
 20
259.5934750992007
 30
0.0
 11
2570.345036993237
 21
258.7601417658673
 31
0.0
 12
2572.845036993236
 22
259.176808432534
 32
0.0
 13
2572.845036993236
 23
259.176808432534
 33
0.0
  0
MTEXT
  5
31B
330
315
100
AcDbEntity
  8
0
  6
Continuous
 62
     0
100
AcDbMText
 10
2222.818178144975
 20
284.801808432534
 30
0.0
 40
50.0
 41
0.0
 71
     5
 72
     1
  1
\A1;700.0537
 73
     1
 44
1.0
1001
ACAD
1000
MTEXTBEGIN
1070
    73
1070
     1
1070
    44
1040
1.0
1070
    74
1070
     0
1000
MTEXTEND
  0
POINT
  5
31C
330
315
100
AcDbEntity
  8
Defpoints
  6
Continuous
 62
     0
100
AcDbPoint
 10
1872.791319296714
 20
352.7079447064334
 30
0.0
  0
POINT
  5
31D
330
315
100
AcDbEntity
  8
Defpoints
  6
Continuous
 62
     0
100
AcDbPoint
 10
2572.845036993236
 20
352.7079447064334
 30
0.0
  0
POINT
  5
31E
330
315
100
AcDbEntity
  8
Defpoints
  6
Continuous
 62
     0
100
AcDbPoint
 10
2572.845036993236
 20
259.176808432534
 30
0.0
  0
ENDBLK
  5
320
330
315
100
AcDbEntity
  8
0
100
AcDbBlockEnd
  0
BLOCK
  5
32C
330
322
100
AcDbEntity
  8
0
100
AcDbBlockBegin
  2
*D6
 70
     1
 10
0.0
 20
0.0
 30
0.0
  3
*D6
  1

  0
LINE
  5
323
330
322
100
AcDbEntity
  8
0
  6
Continuous
 62
     0
370
    -2
100
AcDbLine
 10
2572.845036993236
 20
178.382264902526
 30
0.0
 11
2572.845036993236
 21
88.67998425436054
 31
0.0
  0
LINE
  5
324
330
322
100
AcDbEntity
  8
0
  6
Continuous
 62
     0
370
    -2
100
AcDbLine
 10
4374.257165082101
 20
178.382264902526
 30
0.0
 11
4374.257165082101
 21
88.67998425436054
 31
0.0
  0
LINE
  5
325
330
322
100
AcDbEntity
  8
0
  6
Continuous
 62
     0
370
    -2
100
AcDbLine
 10
2575.345036993236
 20
89.92998425436054
 30
0.0
 11
4371.7571650821
 21
89.92998425436054
 31
0.0
  0
SOLID
  5
326
330
322
100
AcDbEntity
  8
0
  6
Continuous
 62
     0
100
AcDbTrace
 10
2575.345036993236
 20
90.3466509210272
 30
0.0
 11
2575.345036993236
 21
89.51331758769386
 31
0.0
 12
2572.845036993236
 22
89.92998425436054
 32
0.0
 13
2572.845036993236
 23
89.92998425436054
 33
0.0
  0
SOLID
  5
327
330
322
100
AcDbEntity
  8
0
  6
Continuous
 62
     0
100
AcDbTrace
 10
4371.7571650821
 20
90.3466509210272
 30
0.0
 11
4371.7571650821
 21
89.51331758769386
 31
0.0
 12
4374.257165082101
 22
89.92998425436054
 32
0.0
 13
4374.257165082101
 23
89.92998425436054
 33
0.0
  0
MTEXT
  5
328
330
322
100
AcDbEntity
  8
0
  6
Continuous
 62
     0
100
AcDbMText
 10
3473.551101037668
 20
115.5549842543605
 30
0.0
 40
50.0
 41
0.0
 71
     5
 72
     1
  1
\A1;1801.4121
 73
     1
 44
1.0
1001
ACAD
1000
MTEXTBEGIN
1070
    73
1070
     1
1070
    44
1040
1.0
1070
    74
1070
     0
1000
MTEXTEND
  0
POINT
  5
329
330
322
100
AcDbEntity
  8
Defpoints
  6
Continuous
 62
     0
100
AcDbPoint
 10
2572.845036993236
 20
179.007264902526
 30
0.0
  0
POINT
  5
32A
330
322
100
AcDbEntity
  8
Defpoints
  6
Continuous
 62
     0
100
AcDbPoint
 10
4374.257165082101
 20
179.007264902526
 30
0.0
  0
POINT
  5
32B
330
322
100
AcDbEntity
  8
Defpoints
  6
Continuous
 62
     0
100
AcDbPoint
 10
4374.257165082101
 20
89.92998425436054
 30
0.0
  0
ENDBLK
  5
32D
330
322
100
AcDbEntity
  8
0
100
AcDbBlockEnd
  0
BLOCK
  5
339
330
32F
100
AcDbEntity
  8
0
100
AcDbBlockBegin
  2
*D7
 70
     1
 10
0.0
 20
0.0
 30
0.0
  3
*D7
  1

  0
LINE
  5
330
330
32F
100
AcDbEntity
  8
0
  6
Continuous
 62
     0
370
    -2
100
AcDbLine
 10
4380.90978176711
 20
543.4209290016151
 30
0.0
 11
4380.90978176711
 21
404.7261588703038
 31
0.0
  0
LINE
  5
331
330
32F
100
AcDbEntity
  8
0
  6
Continuous
 62
     0
370
    -2
100
AcDbLine
 10
5566.988032673709
 20
543.4209290016151
 30
0.0
 11
5566.988032673709
 21
404.7261588703038
 31
0.0
  0
LINE
  5
332
330
32F
100
AcDbEntity
  8
0
  6
Continuous
 62
     0
370
    -2
100
AcDbLine
 10
4383.40978176711
 20
405.976158870304
 30
0.0
 11
5564.488032673708
 21
405.976158870304
 31
0.0
  0
SOLID
  5
333
330
32F
100
AcDbEntity
  8
0
  6
Continuous
 62
     0
100
AcDbTrace
 10
4383.40978176711
 20
406.3928255369707
 30
0.0
 11
4383.40978176711
 21
405.5594922036373
 31
0.0
 12
4380.90978176711
 22
405.976158870304
 32
0.0
 13
4380.90978176711
 23
405.976158870304
 33
0.0
  0
SOLID
  5
334
330
32F
100
AcDbEntity
  8
0
  6
Continuous
 62
     0
100
AcDbTrace
 10
5564.488032673708
 20
406.3928255369707
 30
0.0
 11
5564.488032673708
 21
405.5594922036373
 31
0.0
 12
5566.988032673709
 22
405.976158870304
 32
0.0
 13
5566.988032673709
 23
405.976158870304
 33
0.0
  0
MTEXT
  5
335
330
32F
100
AcDbEntity
  8
0
  6
Continuous
 62
     0
100
AcDbMText
 10
4973.948907220409
 20
431.601158870304
 30
0.0
 40
50.0
 41
0.0
 71
     5
 72
     1
  1
\A1;1186.0783
 73
     1
 44
1.0
1001
ACAD
1000
MTEXTBEGIN
1070
    73
1070
     1
1070
    44
1040
1.0
1070
    74
1070
     0
1000
MTEXTEND
  0
POINT
  5
336
330
32F
100
AcDbEntity
  8
Defpoints
  6
Continuous
 62
     0
100
AcDbPoint
 10
4380.90978176711
 20
544.0459290016151
 30
0.0
  0
POINT
  5
337
330
32F
100
AcDbEntity
  8
Defpoints
  6
Continuous
 62
     0
100
AcDbPoint
 10
5566.988032673709
 20
544.0459290016151
 30
0.0
  0
POINT
  5
338
330
32F
100
AcDbEntity
  8
Defpoints
  6
Continuous
 62
     0
100
AcDbPoint
 10
5566.988032673709
 20
405.976158870304
 30
0.0
  0
ENDBLK
  5
33A
330
32F
100
AcDbEntity
  8
0
100
AcDbBlockEnd
  0
BLOCK
  5
346
330
33C
100
AcDbEntity
  8
0
100
AcDbBlockBegin
  2
*D8
 70
     1
 10
0.0
 20
0.0
 30
0.0
  3
*D8
  1

  0
LINE
  5
33D
330
33C
100
AcDbEntity
  8
0
  6
Continuous
 62
     0
370
    -2
100
AcDbLine
 10
5566.988032673709
 20
542.7959290016151
 30
0.0
 11
5566.988032673709
 21
404.7261588703038
 31
0.0
  0
LINE
  5
33E
330
33C
100
AcDbEntity
  8
0
  6
Continuous
 62
     0
370
    -2
100
AcDbLine
 10
6623.757036349537
 20
542.7959290016151
 30
0.0
 11
6623.757036349537
 21
404.7261588703038
 31
0.0
  0
LINE
  5
33F
330
33C
100
AcDbEntity
  8
0
  6
Continuous
 62
     0
370
    -2
100
AcDbLine
 10
5569.488032673707
 20
405.976158870304
 30
0.0
 11
6621.257036349536
 21
405.976158870304
 31
0.0
  0
SOLID
  5
340
330
33C
100
AcDbEntity
  8
0
  6
Continuous
 62
     0
100
AcDbTrace
 10
5569.488032673707
 20
406.3928255369707
 30
0.0
 11
5569.488032673707
 21
405.5594922036373
 31
0.0
 12
5566.988032673709
 22
405.976158870304
 32
0.0
 13
5566.988032673709
 23
405.976158870304
 33
0.0
  0
SOLID
  5
341
330
33C
100
AcDbEntity
  8
0
  6
Continuous
 62
     0
100
AcDbTrace
 10
6621.257036349536
 20
406.3928255369707
 30
0.0
 11
6621.257036349536
 21
405.5594922036373
 31
0.0
 12
6623.757036349537
 22
405.976158870304
 32
0.0
 13
6623.757036349537
 23
405.976158870304
 33
0.0
  0
MTEXT
  5
342
330
33C
100
AcDbEntity
  8
0
  6
Continuous
 62
     0
100
AcDbMText
 10
6095.372534511621
 20
431.601158870304
 30
0.0
 40
50.0
 41
0.0
 71
     5
 72
     1
  1
\A1;1056.769
 73
     1
 44
1.0
1001
ACAD
1000
MTEXTBEGIN
1070
    73
1070
     1
1070
    44
1040
1.0
1070
    74
1070
     0
1000
MTEXTEND
  0
POINT
  5
343
330
33C
100
AcDbEntity
  8
Defpoints
  6
Continuous
 62
     0
100
AcDbPoint
 10
5566.988032673709
 20
543.4209290016151
 30
0.0
  0
POINT
  5
344
330
33C
100
AcDbEntity
  8
Defpoints
  6
Continuous
 62
     0
100
AcDbPoint
 10
6623.757036349537
 20
543.4209290016151
 30
0.0
  0
POINT
  5
345
330
33C
100
AcDbEntity
  8
Defpoints
  6
Continuous
 62
     0
100
AcDbPoint
 10
6623.757036349537
 20
405.976158870304
 30
0.0
  0
ENDBLK
  5
347
330
33C
100
AcDbEntity
  8
0
100
AcDbBlockEnd
  0
BLOCK
  5
353
330
349
100
AcDbEntity
  8
0
100
AcDbBlockBegin
  2
*D9
 70
     1
 10
0.0
 20
0.0
 30
0.0
  3
*D9
  1

  0
LINE
  5
34A
330
349
100
AcDbEntity
  8
0
  6
Continuous
 62
     0
370
    -2
100
AcDbLine
 10
6623.757036349537
 20
542.1709290016151
 30
0.0
 11
6623.757036349537
 21
404.7261588703038
 31
0.0
  0
LINE
  5
34B
330
349
100
AcDbEntity
  8
0
  6
Continuous
 62
     0
370
    -2
100
AcDbLine
 10
7881.17837024971
 20
542.1709290016151
 30
0.0
 11
7881.17837024971
 21
404.7261588703038
 31
0.0
  0
LINE
  5
34C
330
349
100
AcDbEntity
  8
0
  6
Continuous
 62
     0
370
    -2
100
AcDbLine
 10
6626.257036349535
 20
405.976158870304
 30
0.0
 11
7878.678370249708
 21
405.976158870304
 31
0.0
  0
SOLID
  5
34D
330
349
100
AcDbEntity
  8
0
  6
Continuous
 62
     0
100
AcDbTrace
 10
6626.257036349535
 20
406.3928255369707
 30
0.0
 11
6626.257036349535
 21
405.5594922036373
 31
0.0
 12
6623.757036349537
 22
405.976158870304
 32
0.0
 13
6623.757036349537
 23
405.976158870304
 33
0.0
  0
SOLID
  5
34E
330
349
100
AcDbEntity
  8
0
  6
Continuous
 62
     0
100
AcDbTrace
 10
7878.678370249708
 20
406.3928255369707
 30
0.0
 11
7878.678370249708
 21
405.5594922036373
 31
0.0
 12
7881.17837024971
 22
405.976158870304
 32
0.0
 13
7881.17837024971
 23
405.976158870304
 33
0.0
  0
MTEXT
  5
34F
330
349
100
AcDbEntity
  8
0
  6
Continuous
 62
     0
100
AcDbMText
 10
7252.467703299622
 20
431.601158870304
 30
0.0
 40
50.0
 41
0.0
 71
     5
 72
     1
  1
\A1;1257.4213
 73
     1
 44
1.0
1001
ACAD
1000
MTEXTBEGIN
1070
    73
1070
     1
1070
    44
1040
1.0
1070
    74
1070
     0
1000
MTEXTEND
  0
POINT
  5
350
330
349
100
AcDbEntity
  8
Defpoints
  6
Continuous
 62
     0
100
AcDbPoint
 10
6623.757036349537
 20
542.7959290016151
 30
0.0
  0
POINT
  5
351
330
349
100
AcDbEntity
  8
Defpoints
  6
Continuous
 62
     0
100
AcDbPoint
 10
7881.17837024971
 20
542.7959290016151
 30
0.0
  0
POINT
  5
352
330
349
100
AcDbEntity
  8
Defpoints
  6
Continuous
 62
     0
100
AcDbPoint
 10
7881.17837024971
 20
405.976158870304
 30
0.0
  0
ENDBLK
  5
354
330
349
100
AcDbEntity
  8
0
100
AcDbBlockEnd
  0
BLOCK
  5
360
330
356
100
AcDbEntity
  8
0
100
AcDbBlockBegin
  2
*D10
 70
     1
 10
0.0
 20
0.0
 30
0.0
  3
*D10
  1

  0
LINE
  5
357
330
356
100
AcDbEntity
  8
0
  6
Continuous
 62
     0
370
    -2
100
AcDbLine
 10
7881.17837024971
 20
541.5459290016151
 30
0.0
 11
7881.17837024971
 21
404.7261588703038
 31
0.0
  0
LINE
  5
358
330
356
100
AcDbEntity
  8
0
  6
Continuous
 62
     0
370
    -2
100
AcDbLine
 10
8871.063231603617
 20
541.5459290016151
 30
0.0
 11
8871.063231603617
 21
404.7261588703038
 31
0.0
  0
LINE
  5
359
330
356
100
AcDbEntity
  8
0
  6
Continuous
 62
     0
370
    -2
100
AcDbLine
 10
7883.678370249708
 20
405.976158870304
 30
0.0
 11
8868.563231603619
 21
405.976158870304
 31
0.0
  0
SOLID
  5
35A
330
356
100
AcDbEntity
  8
0
  6
Continuous
 62
     0
100
AcDbTrace
 10
7883.678370249708
 20
406.3928255369707
 30
0.0
 11
7883.678370249708
 21
405.5594922036373
 31
0.0
 12
7881.17837024971
 22
405.976158870304
 32
0.0
 13
7881.17837024971
 23
405.976158870304
 33
0.0
  0
SOLID
  5
35B
330
356
100
AcDbEntity
  8
0
  6
Continuous
 62
     0
100
AcDbTrace
 10
8868.563231603619
 20
406.3928255369707
 30
0.0
 11
8868.563231603619
 21
405.5594922036373
 31
0.0
 12
8871.063231603617
 22
405.976158870304
 32
0.0
 13
8871.063231603617
 23
405.976158870304
 33
0.0
  0
MTEXT
  5
35C
330
356
100
AcDbEntity
  8
0
  6
Continuous
 62
     0
100
AcDbMText
 10
8376.120800926662
 20
431.601158870304
 30
0.0
 40
50.0
 41
0.0
 71
     5
 72
     1
  1
\A1;989.8849
 73
     1
 44
1.0
1001
ACAD
1000
MTEXTBEGIN
1070
    73
1070
     1
1070
    44
1040
1.0
1070
    74
1070
     0
1000
MTEXTEND
  0
POINT
  5
35D
330
356
100
AcDbEntity
  8
Defpoints
  6
Continuous
 62
     0
100
AcDbPoint
 10
7881.17837024971
 20
542.1709290016151
 30
0.0
  0
POINT
  5
35E
330
356
100
AcDbEntity
  8
Defpoints
  6
Continuous
 62
     0
100
AcDbPoint
 10
8871.063231603617
 20
542.1709290016151
 30
0.0
  0
POINT
  5
35F
330
356
100
AcDbEntity
  8
Defpoints
  6
Continuous
 62
     0
100
AcDbPoint
 10
8871.063231603617
 20
405.976158870304
 30
0.0
  0
ENDBLK
  5
361
330
356
100
AcDbEntity
  8
0
100
AcDbBlockEnd
  0
BLOCK
  5
36D
330
363
100
AcDbEntity
  8
0
100
AcDbBlockBegin
  2
*D11
 70
     1
 10
0.0
 20
0.0
 30
0.0
  3
*D11
  1

  0
LINE
  5
364
330
363
100
AcDbEntity
  8
0
  6
Continuous
 62
     0
370
    -2
100
AcDbLine
 10
1182.957493361646
 20
1758.720438252016
 30
0.0
 11
1182.957493361646
 21
1908.873775978029
 31
0.0
  0
LINE
  5
365
330
363
100
AcDbEntity
  8
0
  6
Continuous
 62
     0
370
    -2
100
AcDbLine
 10
8884.960361179913
 20
1758.720438252016
 30
0.0
 11
8884.960361179913
 21
1908.873775978029
 31
0.0
  0
LINE
  5
366
330
363
100
AcDbEntity
  8
0
  6
Continuous
 62
     0
370
    -2
100
AcDbLine
 10
1185.457493361646
 20
1907.623775978029
 30
0.0
 11
8882.460361179914
 21
1907.623775978029
 31
0.0
  0
SOLID
  5
367
330
363
100
AcDbEntity
  8
0
  6
Continuous
 62
     0
100
AcDbTrace
 10
1185.457493361646
 20
1908.040442644695
 30
0.0
 11
1185.457493361646
 21
1907.207109311362
 31
0.0
 12
1182.957493361646
 22
1907.623775978029
 32
0.0
 13
1182.957493361646
 23
1907.623775978029
 33
0.0
  0
SOLID
  5
368
330
363
100
AcDbEntity
  8
0
  6
Continuous
 62
     0
100
AcDbTrace
 10
8882.460361179914
 20
1908.040442644695
 30
0.0
 11
8882.460361179914
 21
1907.207109311362
 31
0.0
 12
8884.960361179913
 22
1907.623775978029
 32
0.0
 13
8884.960361179913
 23
1907.623775978029
 33
0.0
  0
MTEXT
  5
369
330
363
100
AcDbEntity
  8
0
  6
Continuous
 62
     0
100
AcDbMText
 10
5033.958927270779
 20
1933.248775978029
 30
0.0
 40
50.0
 41
0.0
 71
     5
 72
     1
  1
\A1;7702.0029
 73
     1
 44
1.0
1001
ACAD
1000
MTEXTBEGIN
1070
    73
1070
     1
1070
    44
1040
1.0
1070
    74
1070
     0
1000
MTEXTEND
  0
POINT
  5
36A
330
363
100
AcDbEntity
  8
Defpoints
  6
Continuous
 62
     0
100
AcDbPoint
 10
1182.957493361646
 20
1758.095438252016
 30
0.0
  0
POINT
  5
36B
330
363
100
AcDbEntity
  8
Defpoints
  6
Continuous
 62
     0
100
AcDbPoint
 10
8884.960361179913
 20
1758.095438252016
 30
0.0
  0
POINT
  5
36C
330
363
100
AcDbEntity
  8
Defpoints
  6
Continuous
 62
     0
100
AcDbPoint
 10
8884.960361179913
 20
1907.623775978029
 30
0.0
  0
ENDBLK
  5
36E
330
363
100
AcDbEntity
  8
0
100
AcDbBlockEnd
  0
BLOCK
  5
37A
330
370
100
AcDbEntity
  8
0
100
AcDbBlockBegin
  2
*D12
 70
     1
 10
0.0
 20
0.0
 30
0.0
  3
*D12
  1

  0
LINE
  5
371
330
370
100
AcDbEntity
  8
0
  6
Continuous
 62
     0
370
    -2
100
AcDbLine
 10
972.7541877625153
 20
1391.75101082328
 30
0.0
 11
912.2496718770527
 21
1391.75101082328
 31
0.0
  0
LINE
  5
372
330
370
100
AcDbEntity
  8
0
  6
Continuous
 62
     0
370
    -2
100
AcDbLine
 10
972.7541877625153
 20
890.8310794411319
 30
0.0
 11
912.2496718770522
 21
890.8310794411319
 31
0.0
  0
LINE
  5
373
330
370
100
AcDbEntity
  8
0
  6
Continuous
 62
     0
370
    -2
100
AcDbLine
 10
913.4996718770526
 20
1389.25101082328
 30
0.0
 11
913.4996718770526
 21
893.3310794411317
 31
0.0
  0
SOLID
  5
374
330
370
100
AcDbEntity
  8
0
  6
Continuous
 62
     0
100
AcDbTrace
 10
913.083005210386
 20
1389.25101082328
 30
0.0
 11
913.9163385437191
 21
1389.25101082328
 31
0.0
 12
913.4996718770526
 22
1391.75101082328
 32
0.0
 13
913.4996718770526
 23
1391.75101082328
 33
0.0
  0
SOLID
  5
375
330
370
100
AcDbEntity
  8
0
  6
Continuous
 62
     0
100
AcDbTrace
 10
913.083005210386
 20
893.3310794411317
 30
0.0
 11
913.9163385437191
 21
893.3310794411317
 31
0.0
 12
913.4996718770526
 22
890.8310794411319
 32
0.0
 13
913.4996718770526
 23
890.8310794411319
 33
0.0
  0
MTEXT
  5
376
330
370
100
AcDbEntity
  8
0
  6
Continuous
 62
     0
100
AcDbMText
 10
887.8746718770525
 20
1141.291045132206
 30
0.0
 40
50.0
 41
0.0
 71
     5
 72
     1
  1
\A1;500.9199
 11
0.0000000000000001
 21
1.0
 31
0.0
 73
     1
 44
1.0
1001
ACAD
1000
MTEXTBEGIN
1070
    73
1070
     1
1070
    44
1040
1.0
1070
    74
1070
     0
1000
MTEXTEND
  0
POINT
  5
377
330
370
100
AcDbEntity
  8
Defpoints
  6
Continuous
 62
     0
100
AcDbPoint
 10
973.3791877625153
 20
1391.75101082328
 30
0.0
  0
POINT
  5
378
330
370
100
AcDbEntity
  8
Defpoints
  6
Continuous
 62
     0
100
AcDbPoint
 10
973.3791877625153
 20
890.8310794411319
 30
0.0
  0
POINT
  5
379
330
370
100
AcDbEntity
  8
Defpoints
  6
Continuous
 62
     0
100
AcDbPoint
 10
913.4996718770526
 20
890.8310794411319
 30
0.0
  0
ENDBLK
  5
37B
330
370
100
AcDbEntity
  8
0
100
AcDbBlockEnd
  0
BLOCK
  5
387
330
37D
100
AcDbEntity
  8
0
100
AcDbBlockBegin
  2
*D13
 70
     1
 10
0.0
 20
0.0
 30
0.0
  3
*D13
  1

  0
LINE
  5
37E
330
37D
100
AcDbEntity
  8
0
  6
Continuous
 62
     0
370
    -2
100
AcDbLine
 10
2582.406804202348
 20
1598.591346113355
 30
0.0
 11
2583.031804202348
 21
1598.591346113355
 31
0.0
  0
LINE
  5
37F
330
37D
100
AcDbEntity
  8
0
  6
Continuous
 62
     0
370
    -2
100
AcDbLine
 10
2581.156804202347
 20
658.2450604909884
 30
0.0
 11
2580.531804202347
 21
658.2450604909884
 31
0.0
  0
LINE
  5
380
330
37D
100
AcDbEntity
  8
0
  6
Continuous
 62
     0
370
    -2
100
AcDbLine
 10
2581.781804202349
 20
1596.091346113355
 30
0.0
 11
2581.781804202349
 21
660.7450604909884
 31
0.0
  0
SOLID
  5
381
330
37D
100
AcDbEntity
  8
0
  6
Continuous
 62
     0
100
AcDbTrace
 10
2581.365137535681
 20
1596.091346113355
 30
0.0
 11
2582.198470869014
 21
1596.091346113355
 31
0.0
 12
2581.781804202349
 22
1598.591346113355
 32
0.0
 13
2581.781804202349
 23
1598.591346113355
 33
0.0
  0
SOLID
  5
382
330
37D
100
AcDbEntity
  8
0
  6
Continuous
 62
     0
100
AcDbTrace
 10
2581.365137535681
 20
660.7450604909884
 30
0.0
 11
2582.198470869014
 21
660.7450604909884
 31
0.0
 12
2581.781804202349
 22
658.2450604909884
 32
0.0
 13
2581.781804202349
 23
658.2450604909884
 33
0.0
  0
MTEXT
  5
383
330
37D
100
AcDbEntity
  8
0
  6
Continuous
 62
     0
100
AcDbMText
 10
2556.156804202347
 20
1128.418203302172
 30
0.0
 40
50.0
 41
0.0
 71
     5
 72
     1
  1
\A1;940.3463
 11
0.0000000000000001
 21
1.0
 31
0.0
 73
     1
 44
1.0
1001
ACAD
1000
MTEXTBEGIN
1070
    73
1070
     1
1070
    44
1040
1.0
1070
    74
1070
     0
1000
MTEXTEND
  0
POINT
  5
384
330
37D
100
AcDbEntity
  8
Defpoints
  6
Continuous
 62
     0
100
AcDbPoint
 10
2581.781804202349
 20
1598.591346113355
 30
0.0
  0
POINT
  5
385
330
37D
100
AcDbEntity
  8
Defpoints
  6
Continuous
 62
     0
100
AcDbPoint
 10
2581.781804202349
 20
658.2450604909884
 30
0.0
  0
POINT
  5
386
330
37D
100
AcDbEntity
  8
Defpoints
  6
Continuous
 62
     0
100
AcDbPoint
 10
2581.781804202349
 20
658.2450604909884
 30
0.0
  0
ENDBLK
  5
388
330
37D
100
AcDbEntity
  8
0
100
AcDbBlockEnd
  0
BLOCK
  5
42A
330
420
100
AcDbEntity
  8
0
100
AcDbBlockBegin
  2
*D14
 70
     1
 10
0.0
 20
0.0
 30
0.0
  3
*D14
  1

  0
LINE
  5
421
330
420
100
AcDbEntity
  8
0
  6
Continuous
 62
     0
370
    -2
100
AcDbLine
 10
1102.557203160584
 20
-266.0188541783409
 30
0.0
 11
1006.482127688985
 21
-266.0188541783409
 31
0.0
  0
LINE
  5
422
330
420
100
AcDbEntity
  8
0
  6
Continuous
 62
     0
370
    -2
100
AcDbLine
 10
1102.557203160584
 20
-726.1447686181128
 30
0.0
 11
1006.482127688985
 21
-726.1447686181128
 31
0.0
  0
LINE
  5
423
330
420
100
AcDbEntity
  8
0
  6
Continuous
 62
     0
370
    -2
100
AcDbLine
 10
1007.732127688985
 20
-268.5188541783409
 30
0.0
 11
1007.732127688985
 21
-723.6447686181128
 31
0.0
  0
SOLID
  5
424
330
420
100
AcDbEntity
  8
0
  6
Continuous
 62
     0
100
AcDbTrace
 10
1007.315461022318
 20
-268.5188541783409
 30
0.0
 11
1008.148794355652
 21
-268.5188541783409
 31
0.0
 12
1007.732127688985
 22
-266.0188541783409
 32
0.0
 13
1007.732127688985
 23
-266.0188541783409
 33
0.0
  0
SOLID
  5
425
330
420
100
AcDbEntity
  8
0
  6
Continuous
 62
     0
100
AcDbTrace
 10
1007.315461022318
 20
-723.6447686181128
 30
0.0
 11
1008.148794355652
 21
-723.6447686181128
 31
0.0
 12
1007.732127688985
 22
-726.1447686181128
 32
0.0
 13
1007.732127688985
 23
-726.1447686181128
 33
0.0
  0
MTEXT
  5
426
330
420
100
AcDbEntity
  8
0
  6
Continuous
 62
     0
100
AcDbMText
 10
982.1071276889853
 20
-496.0818113982266
 30
0.0
 40
50.0
 41
0.0
 71
     5
 72
     1
  1
\A1;460.1259
 11
0.0000000000000001
 21
1.0
 31
0.0
 73
     1
 44
1.0
1001
ACAD
1000
MTEXTBEGIN
1070
    73
1070
     1
1070
    44
1040
1.0
1070
    74
1070
     0
1000
MTEXTEND
  0
POINT
  5
427
330
420
100
AcDbEntity
  8
Defpoints
  6
Continuous
 62
     0
100
AcDbPoint
 10
1103.182203160584
 20
-266.0188541783409
 30
0.0
  0
POINT
  5
428
330
420
100
AcDbEntity
  8
Defpoints
  6
Continuous
 62
     0
100
AcDbPoint
 10
1103.182203160584
 20
-726.1447686181128
 30
0.0
  0
POINT
  5
429
330
420
100
AcDbEntity
  8
Defpoints
  6
Continuous
 62
     0
100
AcDbPoint
 10
1007.732127688985
 20
-726.1447686181128
 30
0.0
  0
ENDBLK
  5
42B
330
420
100
AcDbEntity
  8
0
100
AcDbBlockEnd
  0
BLOCK
  5
438
330
42D
100
AcDbEntity
  8
0
100
AcDbBlockBegin
  2
*D15
 70
     1
 10
0.0
 20
0.0
 30
0.0
  3
*D15
  1

  0
LINE
  5
42E
330
42D
100
AcDbEntity
  8
0
  6
Continuous
 62
     0
370
    -2
100
AcDbLine
 10
8953.946873852958
 20
-394.230364017707
 30
0.0
 11
9025.121935244518
 21
-394.230364017707
 31
0.0
  0
LINE
  5
42F
330
42D
100
AcDbEntity
  8
0
  6
Continuous
 62
     0
370
    -2
100
AcDbLine
 10
8953.946873852958
 20
-597.3490079031287
 30
0.0
 11
9025.121935244518
 21
-597.3490079031287
 31
0.0
  0
LINE
  5
430
330
42D
100
AcDbEntity
  8
0
  6
Continuous
 62
     0
370
    -2
100
AcDbLine
 10
9023.871935244519
 20
-396.730364017707
 30
0.0
 11
9023.871935244519
 21
-594.8490079031286
 31
0.0
  0
LINE
  5
431
330
42D
100
AcDbEntity
  8
0
  6
Continuous
 62
     0
370
    -2
100
AcDbLine
 10
9023.871935244519
 20
-597.3490079031287
 30
0.0
 11
9023.871935244519
 21
-909.4323412364625
 31
0.0
  0
SOLID
  5
432
330
42D
100
AcDbEntity
  8
0
  6
Continuous
 62
     0
100
AcDbTrace
 10
9023.455268577846
 20
-396.730364017707
 30
0.0
 11
9024.288601911178
 21
-396.730364017707
 31
0.0
 12
9023.871935244519
 22
-394.230364017707
 32
0.0
 13
9023.871935244519
 23
-394.230364017707
 33
0.0
  0
SOLID
  5
433
330
42D
100
AcDbEntity
  8
0
  6
Continuous
 62
     0
100
AcDbTrace
 10
9023.455268577846
 20
-594.8490079031286
 30
0.0
 11
9024.288601911178
 21
-594.8490079031286
 31
0.0
 12
9023.871935244519
 22
-597.3490079031287
 32
0.0
 13
9023.871935244519
 23
-597.3490079031287
 33
0.0
  0
MTEXT
  5
434
330
42D
100
AcDbEntity
  8
0
  6
Continuous
 62
     0
100
AcDbMText
 10
8998.246935244514
 20
-754.6406745697943
 30
0.0
 40
50.0
 41
0.0
 71
     5
 72
     1
  1
\A1;203.1186
 11
0.0000000000000001
 21
1.0
 31
0.0
 73
     1
 44
1.0
1001
ACAD
1000
MTEXTBEGIN
1070
    73
1070
     1
1070
    44
1040
1.0
1070
    74
1070
     0
1000
MTEXTEND
  0
POINT
  5
435
330
42D
100
AcDbEntity
  8
Defpoints
  6
Continuous
 62
     0
100
AcDbPoint
 10
8953.321873852958
 20
-394.230364017707
 30
0.0
  0
POINT
  5
436
330
42D
100
AcDbEntity
  8
Defpoints
  6
Continuous
 62
     0
100
AcDbPoint
 10
8953.321873852958
 20
-597.3490079031287
 30
0.0
  0
POINT
  5
437
330
42D
100
AcDbEntity
  8
Defpoints
  6
Continuous
 62
     0
100
AcDbPoint
 10
9023.871935244519
 20
-597.3490079031287
 30
0.0
  0
ENDBLK
  5
439
330
42D
100
AcDbEntity
  8
0
100
AcDbBlockEnd
  0
BLOCK
  5
460
330
456
100
AcDbEntity
  8
0
100
AcDbBlockBegin
  2
*D16
 70
     1
 10
0.0
 20
0.0
 30
0.0
  3
*D16
  1

  0
LINE
  5
6FA
330
456
100
AcDbEntity
  8
0
  6
Continuous
 62
     0
370
    -2
100
AcDbLine
 10
4142.200768174716
 20
1946.427099744289
 30
0.0
 11
4142.200768174716
 21
1951.197378718822
 31
0.0
  0
LINE
  5
6FB
330
456
100
AcDbEntity
  8
0
  6
Continuous
 62
     0
370
    -2
100
AcDbLine
 10
5324.95188843681
 20
1946.427099744289
 30
0.0
 11
5324.95188843681
 21
1951.197378718822
 31
0.0
  0
LINE
  5
6FC
330
456
100
AcDbEntity
  8
0
  6
Continuous
 62
     0
370
    -2
100
AcDbLine
 10
4144.700768174716
 20
1949.947378718822
 30
0.0
 11
5322.451888436812
 21
1949.947378718822
 31
0.0
  0
SOLID
  5
6FD
330
456
100
AcDbEntity
  8
0
  6
Continuous
 62
     0
100
AcDbTrace
 10
4144.700768174716
 20
1950.364045385488
 30
0.0
 11
4144.700768174716
 21
1949.530712052155
 31
0.0
 12
4142.200768174716
 22
1949.947378718822
 32
0.0
 13
4142.200768174716
 23
1949.947378718822
 33
0.0
  0
SOLID
  5
6FE
330
456
100
AcDbEntity
  8
0
  6
Continuous
 62
     0
100
AcDbTrace
 10
5322.451888436812
 20
1950.364045385488
 30
0.0
 11
5322.451888436812
 21
1949.530712052155
 31
0.0
 12
5324.95188843681
 22
1949.947378718822
 32
0.0
 13
5324.95188843681
 23
1949.947378718822
 33
0.0
  0
MTEXT
  5
6FF
330
456
100
AcDbEntity
  8
0
  6
Continuous
 62
     0
100
AcDbMText
 10
4733.576328305764
 20
1980.572378718822
 30
0.0
 40
50.0
 41
0.0
 71
     5
 72
     1
  1
\A1;1183
 73
     1
 44
1.0
1001
ACAD
1000
MTEXTBEGIN
1070
    73
1070
     1
1070
    44
1040
1.0
1070
    74
1070
     0
1000
MTEXTEND
  0
POINT
  5
700
330
456
100
AcDbEntity
  8
Defpoints
  6
Continuous
 62
     0
100
AcDbPoint
 10
4142.200768174716
 20
1945.802099744289
 30
0.0
  0
POINT
  5
701
330
456
100
AcDbEntity
  8
Defpoints
  6
Continuous
 62
     0
100
AcDbPoint
 10
5324.95188843681
 20
1945.802099744289
 30
0.0
  0
POINT
  5
702
330
456
100
AcDbEntity
  8
Defpoints
  6
Continuous
 62
     0
100
AcDbPoint
 10
5324.95188843681
 20
1949.947378718822
 30
0.0
  0
ENDBLK
  5
461
330
456
100
AcDbEntity
  8
0
100
AcDbBlockEnd
  0
BLOCK
  5
46D
330
463
100
AcDbEntity
  8
0
100
AcDbBlockBegin
  2
*D17
 70
     1
 10
0.0
 20
0.0
 30
0.0
  3
*D17
  1

  0
LINE
  5
703
330
463
100
AcDbEntity
  8
0
  6
Continuous
 62
     0
370
    -2
100
AcDbLine
 10
5324.95188843681
 20
2069.535456046931
 30
0.0
 11
5324.95188843681
 21
1947.615150055398
 31
0.0
  0
LINE
  5
704
330
463
100
AcDbEntity
  8
0
  6
Continuous
 62
     0
370
    -2
100
AcDbLine
 10
6381.790191210832
 20
2069.535456046931
 30
0.0
 11
6381.790191210832
 21
1947.615150055398
 31
0.0
  0
LINE
  5
705
330
463
100
AcDbEntity
  8
0
  6
Continuous
 62
     0
370
    -2
100
AcDbLine
 10
5327.451888436812
 20
1948.865150055398
 30
0.0
 11
6379.290191210833
 21
1948.865150055398
 31
0.0
  0
SOLID
  5
706
330
463
100
AcDbEntity
  8
0
  6
Continuous
 62
     0
100
AcDbTrace
 10
5327.451888436812
 20
1949.281816722065
 30
0.0
 11
5327.451888436812
 21
1948.448483388732
 31
0.0
 12
5324.95188843681
 22
1948.865150055398
 32
0.0
 13
5324.95188843681
 23
1948.865150055398
 33
0.0
  0
SOLID
  5
707
330
463
100
AcDbEntity
  8
0
  6
Continuous
 62
     0
100
AcDbTrace
 10
6379.290191210833
 20
1949.281816722065
 30
0.0
 11
6379.290191210833
 21
1948.448483388732
 31
0.0
 12
6381.790191210832
 22
1948.865150055398
 32
0.0
 13
6381.790191210832
 23
1948.865150055398
 33
0.0
  0
MTEXT
  5
708
330
463
100
AcDbEntity
  8
0
  6
Continuous
 62
     0
100
AcDbMText
 10
5853.371039823822
 20
1979.490150055399
 30
0.0
 40
50.0
 41
0.0
 71
     5
 72
     1
  1
\A1;1057
 73
     1
 44
1.0
1001
ACAD
1000
MTEXTBEGIN
1070
    73
1070
     1
1070
    44
1040
1.0
1070
    74
1070
     0
1000
MTEXTEND
  0
POINT
  5
709
330
463
100
AcDbEntity
  8
Defpoints
  6
Continuous
 62
     0
100
AcDbPoint
 10
5324.95188843681
 20
2070.160456046931
 30
0.0
  0
POINT
  5
70A
330
463
100
AcDbEntity
  8
Defpoints
  6
Continuous
 62
     0
100
AcDbPoint
 10
6381.790191210832
 20
2070.160456046931
 30
0.0
  0
POINT
  5
70B
330
463
100
AcDbEntity
  8
Defpoints
  6
Continuous
 62
     0
100
AcDbPoint
 10
6381.790191210832
 20
1948.865150055398
 30
0.0
  0
ENDBLK
  5
46E
330
463
100
AcDbEntity
  8
0
100
AcDbBlockEnd
  0
BLOCK
  5
47A
330
470
100
AcDbEntity
  8
0
100
AcDbBlockBegin
  2
*D18
 70
     1
 10
0.0
 20
0.0
 30
0.0
  3
*D18
  1

  0
LINE
  5
70C
330
470
100
AcDbEntity
  8
0
  6
Continuous
 62
     0
370
    -2
100
AcDbLine
 10
6383.493646242005
 20
2068.910456046932
 30
0.0
 11
6383.493646242005
 21
1949.281816722065
 31
0.0
  0
LINE
  5
70D
330
470
100
AcDbEntity
  8
0
  6
Continuous
 62
     0
370
    -2
100
AcDbLine
 10
7639.211525111004
 20
2085.059920186711
 30
0.0
 11
7639.211525111004
 21
1949.281816722065
 31
0.0
  0
LINE
  5
70E
330
470
100
AcDbEntity
  8
0
  6
Continuous
 62
     0
370
    -2
100
AcDbLine
 10
6385.993646242003
 20
1950.531816722065
 30
0.0
 11
7636.711525111005
 21
1950.531816722065
 31
0.0
  0
SOLID
  5
70F
330
470
100
AcDbEntity
  8
0
  6
Continuous
 62
     0
100
AcDbTrace
 10
6385.993646242003
 20
1950.948483388732
 30
0.0
 11
6385.993646242003
 21
1950.115150055398
 31
0.0
 12
6383.493646242005
 22
1950.531816722065
 32
0.0
 13
6383.493646242005
 23
1950.531816722065
 33
0.0
  0
SOLID
  5
710
330
470
100
AcDbEntity
  8
0
  6
Continuous
 62
     0
100
AcDbTrace
 10
7636.711525111005
 20
1950.948483388732
 30
0.0
 11
7636.711525111005
 21
1950.115150055398
 31
0.0
 12
7639.211525111004
 22
1950.531816722065
 32
0.0
 13
7639.211525111004
 23
1950.531816722065
 33
0.0
  0
MTEXT
  5
711
330
470
100
AcDbEntity
  8
0
  6
Continuous
 62
     0
100
AcDbMText
 10
7011.352585676505
 20
1981.156816722065
 30
0.0
 40
50.0
 41
0.0
 71
     5
 72
     1
  1
\A1;1256
 73
     1
 44
1.0
1001
ACAD
1000
MTEXTBEGIN
1070
    73
1070
     1
1070
    44
1040
1.0
1070
    74
1070
     0
1000
MTEXTEND
  0
POINT
  5
712
330
470
100
AcDbEntity
  8
Defpoints
  6
Continuous
 62
     0
100
AcDbPoint
 10
6383.493646242005
 20
2069.535456046931
 30
0.0
  0
POINT
  5
713
330
470
100
AcDbEntity
  8
Defpoints
  6
Continuous
 62
     0
100
AcDbPoint
 10
7639.211525111004
 20
2085.68492018671
 30
0.0
  0
POINT
  5
714
330
470
100
AcDbEntity
  8
Defpoints
  6
Continuous
 62
     0
100
AcDbPoint
 10
7639.211525111004
 20
1950.531816722065
 30
0.0
  0
ENDBLK
  5
47B
330
470
100
AcDbEntity
  8
0
100
AcDbBlockEnd
  0
BLOCK
  5
487
330
47D
100
AcDbEntity
  8
0
100
AcDbBlockBegin
  2
*D19
 70
     1
 10
0.0
 20
0.0
 30
0.0
  3
*D19
  1

  0
LINE
  5
715
330
47D
100
AcDbEntity
  8
0
  6
Continuous
 62
     0
370
    -2
100
AcDbLine
 10
7639.211525111004
 20
2084.43492018671
 30
0.0
 11
7639.211525111004
 21
1948.697378718821
 31
0.0
  0
LINE
  5
716
330
47D
100
AcDbEntity
  8
0
  6
Continuous
 62
     0
370
    -2
100
AcDbLine
 10
8632.5049733784
 20
2084.43492018671
 30
0.0
 11
8632.5049733784
 21
1948.697378718821
 31
0.0
  0
LINE
  5
717
330
47D
100
AcDbEntity
  8
0
  6
Continuous
 62
     0
370
    -2
100
AcDbLine
 10
7641.711525111006
 20
1949.947378718822
 30
0.0
 11
8630.004973378403
 21
1949.947378718822
 31
0.0
  0
SOLID
  5
718
330
47D
100
AcDbEntity
  8
0
  6
Continuous
 62
     0
100
AcDbTrace
 10
7641.711525111006
 20
1950.364045385488
 30
0.0
 11
7641.711525111006
 21
1949.530712052155
 31
0.0
 12
7639.211525111004
 22
1949.947378718822
 32
0.0
 13
7639.211525111004
 23
1949.947378718822
 33
0.0
  0
SOLID
  5
719
330
47D
100
AcDbEntity
  8
0
  6
Continuous
 62
     0
100
AcDbTrace
 10
8630.004973378403
 20
1950.364045385488
 30
0.0
 11
8630.004973378403
 21
1949.530712052155
 31
0.0
 12
8632.5049733784
 22
1949.947378718822
 32
0.0
 13
8632.5049733784
 23
1949.947378718822
 33
0.0
  0
MTEXT
  5
71A
330
47D
100
AcDbEntity
  8
0
  6
Continuous
 62
     0
100
AcDbMText
 10
8135.858249244703
 20
1980.572378718822
 30
0.0
 40
50.0
 41
0.0
 71
     5
 72
     1
  1
\A1;993
 73
     1
 44
1.0
1001
ACAD
1000
MTEXTBEGIN
1070
    73
1070
     1
1070
    44
1040
1.0
1070
    74
1070
     0
1000
MTEXTEND
  0
POINT
  5
71B
330
47D
100
AcDbEntity
  8
Defpoints
  6
Continuous
 62
     0
100
AcDbPoint
 10
7639.211525111004
 20
2085.059920186711
 30
0.0
  0
POINT
  5
71C
330
47D
100
AcDbEntity
  8
Defpoints
  6
Continuous
 62
     0
100
AcDbPoint
 10
8632.5049733784
 20
2085.059920186711
 30
0.0
  0
POINT
  5
71D
330
47D
100
AcDbEntity
  8
Defpoints
  6
Continuous
 62
     0
100
AcDbPoint
 10
8632.5049733784
 20
1949.947378718822
 30
0.0
  0
ENDBLK
  5
488
330
47D
100
AcDbEntity
  8
0
100
AcDbBlockEnd
  0
BLOCK
  5
494
330
48A
100
AcDbEntity
  8
0
100
AcDbBlockBegin
  2
*D20
 70
     1
 10
0.0
 20
0.0
 30
0.0
  3
*D20
  1

  0
LINE
  5
71E
330
48A
100
AcDbEntity
  8
0
  6
Continuous
 62
     0
370
    -2
100
AcDbLine
 10
8757.630076025762
 20
1145.763348192855
 30
0.0
 11
8874.455184728828
 21
1145.763348192855
 31
0.0
  0
LINE
  5
71F
330
48A
100
AcDbEntity
  8
0
  6
Continuous
 62
     0
370
    -2
100
AcDbLine
 10
8757.630076025762
 20
946.7899832819659
 30
0.0
 11
8874.455184728828
 21
946.7899832819659
 31
0.0
  0
LINE
  5
720
330
48A
100
AcDbEntity
  8
0
  6
Continuous
 62
     0
370
    -2
100
AcDbLine
 10
8873.205184728828
 20
1143.263348192855
 30
0.0
 11
8873.205184728828
 21
949.2899832819659
 31
0.0
  0
SOLID
  5
721
330
48A
100
AcDbEntity
  8
0
  6
Continuous
 62
     0
100
AcDbTrace
 10
8872.788518062161
 20
1143.263348192855
 30
0.0
 11
8873.621851395494
 21
1143.263348192855
 31
0.0
 12
8873.205184728828
 22
1145.763348192855
 32
0.0
 13
8873.205184728828
 23
1145.763348192855
 33
0.0
  0
SOLID
  5
722
330
48A
100
AcDbEntity
  8
0
  6
Continuous
 62
     0
100
AcDbTrace
 10
8872.788518062161
 20
949.2899832819659
 30
0.0
 11
8873.621851395494
 21
949.2899832819659
 31
0.0
 12
8873.205184728828
 22
946.7899832819659
 32
0.0
 13
8873.205184728828
 23
946.7899832819659
 33
0.0
  0
MTEXT
  5
723
330
48A
100
AcDbEntity
  8
0
  6
Continuous
 62
     0
100
AcDbMText
 10
8842.580184728829
 20
1046.276665737412
 30
0.0
 40
50.0
 41
0.0
 71
     5
 72
     1
  1
\A1;199
 11
0.0000000000000001
 21
1.0
 31
0.0
 73
     1
 44
1.0
1001
ACAD
1000
MTEXTBEGIN
1070
    73
1070
     1
1070
    44
1040
1.0
1070
    74
1070
     0
1000
MTEXTEND
  0
POINT
  5
724
330
48A
100
AcDbEntity
  8
Defpoints
  6
Continuous
 62
     0
100
AcDbPoint
 10
8757.005076025761
 20
1145.763348192855
 30
0.0
  0
POINT
  5
725
330
48A
100
AcDbEntity
  8
Defpoints
  6
Continuous
 62
     0
100
AcDbPoint
 10
8757.005076025761
 20
946.7899832819659
 30
0.0
  0
POINT
  5
726
330
48A
100
AcDbEntity
  8
Defpoints
  6
Continuous
 62
     0
100
AcDbPoint
 10
8873.205184728828
 20
946.7899832819659
 30
0.0
  0
ENDBLK
  5
495
330
48A
100
AcDbEntity
  8
0
100
AcDbBlockEnd
  0
BLOCK
  5
4A1
330
497
100
AcDbEntity
  8
0
100
AcDbBlockBegin
  2
*D21
 70
     1
 10
0.0
 20
0.0
 30
0.0
  3
*D21
  1

  0
LINE
  5
727
330
497
100
AcDbEntity
  8
0
  6
Continuous
 62
     0
370
    -2
100
AcDbLine
 10
809.6077628404346
 20
1278.254346316009
 30
0.0
 11
696.9326672330898
 21
1278.254346316009
 31
0.0
  0
LINE
  5
728
330
497
100
AcDbEntity
  8
0
  6
Continuous
 62
     0
370
    -2
100
AcDbLine
 10
809.6077628404346
 20
818.1284448095812
 30
0.0
 11
696.9326672330898
 21
818.1284448095816
 31
0.0
  0
LINE
  5
729
330
497
100
AcDbEntity
  8
0
  6
Continuous
 62
     0
370
    -2
100
AcDbLine
 10
698.1826672330897
 20
1275.754346316009
 30
0.0
 11
698.1826672330897
 21
820.6284448095813
 31
0.0
  0
SOLID
  5
72A
330
497
100
AcDbEntity
  8
0
  6
Continuous
 62
     0
100
AcDbTrace
 10
697.7660005664231
 20
1275.754346316009
 30
0.0
 11
698.5993338997563
 21
1275.754346316009
 31
0.0
 12
698.1826672330897
 22
1278.254346316009
 32
0.0
 13
698.1826672330897
 23
1278.254346316009
 33
0.0
  0
SOLID
  5
72B
330
497
100
AcDbEntity
  8
0
  6
Continuous
 62
     0
100
AcDbTrace
 10
697.7660005664231
 20
820.6284448095813
 30
0.0
 11
698.5993338997563
 21
820.6284448095813
 31
0.0
 12
698.1826672330897
 22
818.1284448095816
 32
0.0
 13
698.1826672330897
 23
818.1284448095816
 33
0.0
  0
MTEXT
  5
72C
330
497
100
AcDbEntity
  8
0
  6
Continuous
 62
     0
100
AcDbMText
 10
667.5576672330898
 20
1048.191395562795
 30
0.0
 40
50.0
 41
0.0
 71
     5
 72
     1
  1
\A1;460
 11
0.0000000000000001
 21
1.0
 31
0.0
 73
     1
 44
1.0
1001
ACAD
1000
MTEXTBEGIN
1070
    73
1070
     1
1070
    44
1040
1.0
1070
    74
1070
     0
1000
MTEXTEND
  0
POINT
  5
72D
330
497
100
AcDbEntity
  8
Defpoints
  6
Continuous
 62
     0
100
AcDbPoint
 10
810.2327628404347
 20
1278.254346316009
 30
0.0
  0
POINT
  5
72E
330
497
100
AcDbEntity
  8
Defpoints
  6
Continuous
 62
     0
100
AcDbPoint
 10
810.2327628404347
 20
818.1284448095812
 30
0.0
  0
POINT
  5
72F
330
497
100
AcDbEntity
  8
Defpoints
  6
Continuous
 62
     0
100
AcDbPoint
 10
698.1826672330897
 20
818.1284448095816
 30
0.0
  0
ENDBLK
  5
4A2
330
497
100
AcDbEntity
  8
0
100
AcDbBlockEnd
  0
BLOCK
  5
4AE
330
4A4
100
AcDbEntity
  8
0
100
AcDbBlockBegin
  2
*D22
 70
     1
 10
0.0
 20
0.0
 30
0.0
  3
*D22
  1

  0
LINE
  5
4E6
330
4A4
100
AcDbEntity
  8
0
  6
Continuous
 62
     0
370
    -2
100
AcDbLine
 10
1176.699710626504
 20
442.3329821759686
 30
0.0
 11
1176.699710626504
 21
259.3157202298662
 31
0.0
  0
LINE
  5
4E7
330
4A4
100
AcDbEntity
  8
0
  6
Continuous
 62
     0
370
    -2
100
AcDbLine
 10
1878.050375940602
 20
442.3329821759686
 30
0.0
 11
1878.050375940602
 21
259.3157202298662
 31
0.0
  0
LINE
  5
4E8
330
4A4
100
AcDbEntity
  8
0
  6
Continuous
 62
     0
370
    -2
100
AcDbLine
 10
1179.199710626504
 20
260.5657202298662
 30
0.0
 11
1875.550375940602
 21
260.5657202298662
 31
0.0
  0
SOLID
  5
4E9
330
4A4
100
AcDbEntity
  8
0
  6
Continuous
 62
     0
100
AcDbTrace
 10
1179.199710626504
 20
260.9823868965329
 30
0.0
 11
1179.199710626504
 21
260.1490535631995
 31
0.0
 12
1176.699710626504
 22
260.5657202298662
 32
0.0
 13
1176.699710626504
 23
260.5657202298662
 33
0.0
  0
SOLID
  5
4EA
330
4A4
100
AcDbEntity
  8
0
  6
Continuous
 62
     0
100
AcDbTrace
 10
1875.550375940602
 20
260.9823868965329
 30
0.0
 11
1875.550375940602
 21
260.1490535631995
 31
0.0
 12
1878.050375940602
 22
260.5657202298662
 32
0.0
 13
1878.050375940602
 23
260.5657202298662
 33
0.0
  0
MTEXT
  5
4EB
330
4A4
100
AcDbEntity
  8
0
  6
Continuous
 62
     0
100
AcDbMText
 10
1527.375043283553
 20
291.1907202298662
 30
0.0
 40
50.0
 41
0.0
 71
     5
 72
     1
  1
\A1;700
 73
     1
 44
1.0
1001
ACAD
1000
MTEXTBEGIN
1070
    73
1070
     1
1070
    44
1040
1.0
1070
    74
1070
     0
1000
MTEXTEND
  0
POINT
  5
4EC
330
4A4
100
AcDbEntity
  8
Defpoints
  6
Continuous
 62
     0
100
AcDbPoint
 10
1176.699710626504
 20
442.9579821759689
 30
0.0
  0
POINT
  5
4ED
330
4A4
100
AcDbEntity
  8
Defpoints
  6
Continuous
 62
     0
100
AcDbPoint
 10
1878.050375940602
 20
442.9579821759689
 30
0.0
  0
POINT
  5
4EE
330
4A4
100
AcDbEntity
  8
Defpoints
  6
Continuous
 62
     0
100
AcDbPoint
 10
1878.050375940602
 20
260.5657202298662
 30
0.0
  0
ENDBLK
  5
4AF
330
4A4
100
AcDbEntity
  8
0
100
AcDbBlockEnd
  0
BLOCK
  5
4FA
330
4F0
100
AcDbEntity
  8
0
100
AcDbBlockBegin
  2
*D23
 70
     1
 10
0.0
 20
0.0
 30
0.0
  3
*D23
  1

  0
LINE
  5
730
330
4F0
100
AcDbEntity
  8
0
  6
Continuous
 62
     0
370
    -2
100
AcDbLine
 10
930.5828846392177
 20
1990.617239402252
 30
0.0
 11
930.5828846392177
 21
1803.454711414961
 31
0.0
  0
LINE
  5
731
330
4F0
100
AcDbEntity
  8
0
  6
Continuous
 62
     0
370
    -2
100
AcDbLine
 10
1631.93351770618
 20
1990.617239402252
 30
0.0
 11
1631.93351770618
 21
1803.454711414961
 31
0.0
  0
LINE
  5
732
330
4F0
100
AcDbEntity
  8
0
  6
Continuous
 62
     0
370
    -2
100
AcDbLine
 10
933.0828846392178
 20
1804.704711414961
 30
0.0
 11
1629.43351770618
 21
1804.704711414961
 31
0.0
  0
SOLID
  5
733
330
4F0
100
AcDbEntity
  8
0
  6
Continuous
 62
     0
100
AcDbTrace
 10
933.0828846392178
 20
1805.121378081627
 30
0.0
 11
933.0828846392178
 21
1804.288044748294
 31
0.0
 12
930.5828846392177
 22
1804.704711414961
 32
0.0
 13
930.5828846392177
 23
1804.704711414961
 33
0.0
  0
SOLID
  5
734
330
4F0
100
AcDbEntity
  8
0
  6
Continuous
 62
     0
100
AcDbTrace
 10
1629.43351770618
 20
1805.121378081627
 30
0.0
 11
1629.43351770618
 21
1804.288044748294
 31
0.0
 12
1631.93351770618
 22
1804.704711414961
 32
0.0
 13
1631.93351770618
 23
1804.704711414961
 33
0.0
  0
MTEXT
  5
735
330
4F0
100
AcDbEntity
  8
0
  6
Continuous
 62
     0
100
AcDbMText
 10
1281.258201172699
 20
1835.329711414961
 30
0.0
 40
50.0
 41
0.0
 71
     5
 72
     1
  1
\A1;701
 73
     1
 44
1.0
1001
ACAD
1000
MTEXTBEGIN
1070
    73
1070
     1
1070
    44
1040
1.0
1070
    74
1070
     0
1000
MTEXTEND
  0
POINT
  5
736
330
4F0
100
AcDbEntity
  8
Defpoints
  6
Continuous
 62
     0
100
AcDbPoint
 10
930.5828846392177
 20
1991.242239402252
 30
0.0
  0
POINT
  5
737
330
4F0
100
AcDbEntity
  8
Defpoints
  6
Continuous
 62
     0
100
AcDbPoint
 10
1631.93351770618
 20
1991.242239402252
 30
0.0
  0
POINT
  5
738
330
4F0
100
AcDbEntity
  8
Defpoints
  6
Continuous
 62
     0
100
AcDbPoint
 10
1631.93351770618
 20
1804.704711414961
 30
0.0
  0
ENDBLK
  5
4FB
330
4F0
100
AcDbEntity
  8
0
100
AcDbBlockEnd
  0
BLOCK
  5
507
330
4FD
100
AcDbEntity
  8
0
100
AcDbBlockBegin
  2
*D24
 70
     1
 10
0.0
 20
0.0
 30
0.0
  3
*D24
  1

  0
LINE
  5
739
330
4FD
100
AcDbEntity
  8
0
  6
Continuous
 62
     0
370
    -2
100
AcDbLine
 10
1631.93351770618
 20
1989.992239402252
 30
0.0
 11
1631.93351770618
 21
1803.454711414961
 31
0.0
  0
LINE
  5
73A
330
4FD
100
AcDbEntity
  8
0
  6
Continuous
 62
     0
370
    -2
100
AcDbLine
 10
2333.284183020278
 20
1989.992239402252
 30
0.0
 11
2333.284183020278
 21
1803.454711414961
 31
0.0
  0
LINE
  5
73B
330
4FD
100
AcDbEntity
  8
0
  6
Continuous
 62
     0
370
    -2
100
AcDbLine
 10
1634.433517706179
 20
1804.704711414961
 30
0.0
 11
2330.784183020278
 21
1804.704711414961
 31
0.0
  0
SOLID
  5
73C
330
4FD
100
AcDbEntity
  8
0
  6
Continuous
 62
     0
100
AcDbTrace
 10
1634.433517706179
 20
1805.121378081627
 30
0.0
 11
1634.433517706179
 21
1804.288044748294
 31
0.0
 12
1631.93351770618
 22
1804.704711414961
 32
0.0
 13
1631.93351770618
 23
1804.704711414961
 33
0.0
  0
SOLID
  5
73D
330
4FD
100
AcDbEntity
  8
0
  6
Continuous
 62
     0
100
AcDbTrace
 10
2330.784183020278
 20
1805.121378081627
 30
0.0
 11
2330.784183020278
 21
1804.288044748294
 31
0.0
 12
2333.284183020278
 22
1804.704711414961
 32
0.0
 13
2333.284183020278
 23
1804.704711414961
 33
0.0
  0
MTEXT
  5
73E
330
4FD
100
AcDbEntity
  8
0
  6
Continuous
 62
     0
100
AcDbMText
 10
1982.608850363229
 20
1835.329711414961
 30
0.0
 40
50.0
 41
0.0
 71
     5
 72
     1
  1
\A1;701
 73
     1
 44
1.0
1001
ACAD
1000
MTEXTBEGIN
1070
    73
1070
     1
1070
    44
1040
1.0
1070
    74
1070
     0
1000
MTEXTEND
  0
POINT
  5
73F
330
4FD
100
AcDbEntity
  8
Defpoints
  6
Continuous
 62
     0
100
AcDbPoint
 10
1631.93351770618
 20
1990.617239402252
 30
0.0
  0
POINT
  5
740
330
4FD
100
AcDbEntity
  8
Defpoints
  6
Continuous
 62
     0
100
AcDbPoint
 10
2333.284183020278
 20
1990.617239402252
 30
0.0
  0
POINT
  5
741
330
4FD
100
AcDbEntity
  8
Defpoints
  6
Continuous
 62
     0
100
AcDbPoint
 10
2333.284183020278
 20
1804.704711414961
 30
0.0
  0
ENDBLK
  5
508
330
4FD
100
AcDbEntity
  8
0
100
AcDbBlockEnd
  0
BLOCK
  5
514
330
50A
100
AcDbEntity
  8
0
100
AcDbBlockBegin
  2
*D25
 70
     1
 10
0.0
 20
0.0
 30
0.0
  3
*D25
  1

  0
LINE
  5
742
330
50A
100
AcDbEntity
  8
0
  6
Continuous
 62
     0
370
    -2
100
AcDbLine
 10
2330.784183020278
 20
1803.663044748294
 30
0.0
 11
2330.784183020278
 21
1691.532192035918
 31
0.0
  0
LINE
  5
743
330
50A
100
AcDbEntity
  8
0
  6
Continuous
 62
     0
370
    -2
100
AcDbLine
 10
4130.23585482204
 20
1802.829711414961
 30
0.0
 11
4130.23585482204
 21
1691.532192035918
 31
0.0
  0
LINE
  5
744
330
50A
100
AcDbEntity
  8
0
  6
Continuous
 62
     0
370
    -2
100
AcDbLine
 10
2333.284183020278
 20
1692.782192035918
 30
0.0
 11
4127.73585482204
 21
1692.782192035918
 31
0.0
  0
SOLID
  5
745
330
50A
100
AcDbEntity
  8
0
  6
Continuous
 62
     0
100
AcDbTrace
 10
2333.284183020278
 20
1693.198858702585
 30
0.0
 11
2333.284183020278
 21
1692.365525369251
 31
0.0
 12
2330.784183020278
 22
1692.782192035918
 32
0.0
 13
2330.784183020278
 23
1692.782192035918
 33
0.0
  0
SOLID
  5
746
330
50A
100
AcDbEntity
  8
0
  6
Continuous
 62
     0
100
AcDbTrace
 10
4127.73585482204
 20
1693.198858702585
 30
0.0
 11
4127.73585482204
 21
1692.365525369251
 31
0.0
 12
4130.23585482204
 22
1692.782192035918
 32
0.0
 13
4130.23585482204
 23
1692.782192035918
 33
0.0
  0
MTEXT
  5
747
330
50A
100
AcDbEntity
  8
0
  6
Continuous
 62
     0
100
AcDbMText
 10
3230.510018921159
 20
1723.407192035918
 30
0.0
 40
50.0
 41
0.0
 71
     5
 72
     1
  1
\A1;1799
 73
     1
 44
1.0
1001
ACAD
1000
MTEXTBEGIN
1070
    73
1070
     1
1070
    44
1040
1.0
1070
    74
1070
     0
1000
MTEXTEND
  0
POINT
  5
748
330
50A
100
AcDbEntity
  8
Defpoints
  6
Continuous
 62
     0
100
AcDbPoint
 10
2330.784183020278
 20
1804.288044748294
 30
0.0
  0
POINT
  5
749
330
50A
100
AcDbEntity
  8
Defpoints
  6
Continuous
 62
     0
100
AcDbPoint
 10
4130.23585482204
 20
1803.454711414961
 30
0.0
  0
POINT
  5
74A
330
50A
100
AcDbEntity
  8
Defpoints
  6
Continuous
 62
     0
100
AcDbPoint
 10
4130.23585482204
 20
1692.782192035918
 30
0.0
  0
ENDBLK
  5
515
330
50A
100
AcDbEntity
  8
0
100
AcDbBlockEnd
  0
BLOCK
  5
521
330
517
100
AcDbEntity
  8
0
100
AcDbBlockBegin
  2
*D26
 70
     1
 10
0.0
 20
0.0
 30
0.0
  3
*D26
  1

  0
LINE
  5
74B
330
517
100
AcDbEntity
  8
0
  6
Continuous
 62
     0
370
    -2
100
AcDbLine
 10
757.1747881618357
 20
2927.627987949212
 30
0.0
 11
653.5331798852422
 21
2927.627987949212
 31
0.0
  0
LINE
  5
74C
330
517
100
AcDbEntity
  8
0
  6
Continuous
 62
     0
370
    -2
100
AcDbLine
 10
757.1747881618355
 20
2440.210247692079
 30
0.0
 11
653.5331798852421
 21
2440.210247692079
 31
0.0
  0
LINE
  5
74D
330
517
100
AcDbEntity
  8
0
  6
Continuous
 62
     0
370
    -2
100
AcDbLine
 10
654.7831798852422
 20
2925.127987949212
 30
0.0
 11
654.7831798852421
 21
2442.710247692079
 31
0.0
  0
SOLID
  5
74E
330
517
100
AcDbEntity
  8
0
  6
Continuous
 62
     0
100
AcDbTrace
 10
654.3665132185756
 20
2925.127987949212
 30
0.0
 11
655.1998465519089
 21
2925.127987949212
 31
0.0
 12
654.7831798852422
 22
2927.627987949212
 32
0.0
 13
654.7831798852422
 23
2927.627987949212
 33
0.0
  0
SOLID
  5
74F
330
517
100
AcDbEntity
  8
0
  6
Continuous
 62
     0
100
AcDbTrace
 10
654.3665132185755
 20
2442.710247692079
 30
0.0
 11
655.1998465519087
 21
2442.710247692079
 31
0.0
 12
654.7831798852421
 22
2440.210247692079
 32
0.0
 13
654.7831798852421
 23
2440.210247692079
 33
0.0
  0
MTEXT
  5
750
330
517
100
AcDbEntity
  8
0
  6
Continuous
 62
     0
100
AcDbMText
 10
624.1581798852418
 20
2683.919117820646
 30
0.0
 40
50.0
 41
0.0
 71
     5
 72
     1
  1
\A1;487
 11
0.0000000000000001
 21
1.0
 31
0.0
 73
     1
 44
1.0
1001
ACAD
1000
MTEXTBEGIN
1070
    73
1070
     1
1070
    44
1040
1.0
1070
    74
1070
     0
1000
MTEXTEND
  0
POINT
  5
751
330
517
100
AcDbEntity
  8
Defpoints
  6
Continuous
 62
     0
100
AcDbPoint
 10
757.7997881618357
 20
2927.627987949212
 30
0.0
  0
POINT
  5
752
330
517
100
AcDbEntity
  8
Defpoints
  6
Continuous
 62
     0
100
AcDbPoint
 10
757.7997881618355
 20
2440.210247692079
 30
0.0
  0
POINT
  5
753
330
517
100
AcDbEntity
  8
Defpoints
  6
Continuous
 62
     0
100
AcDbPoint
 10
654.7831798852421
 20
2440.210247692079
 30
0.0
  0
ENDBLK
  5
522
330
517
100
AcDbEntity
  8
0
100
AcDbBlockEnd
  0
BLOCK
  5
52E
330
524
100
AcDbEntity
  8
0
100
AcDbBlockBegin
  2
*D27
 70
     1
 10
0.0
 20
0.0
 30
0.0
  3
*D27
  1

  0
LINE
  5
754
330
524
100
AcDbEntity
  8
0
  6
Continuous
 62
     0
370
    -2
100
AcDbLine
 10
945.6466189038769
 20
3540.023173970843
 30
0.0
 11
945.6466189038769
 21
3656.232653264299
 31
0.0
  0
LINE
  5
755
330
524
100
AcDbEntity
  8
0
  6
Continuous
 62
     0
370
    -2
100
AcDbLine
 10
8646.036549405556
 20
3540.023173970843
 30
0.0
 11
8646.036549405556
 21
3656.232653264299
 31
0.0
  0
LINE
  5
756
330
524
100
AcDbEntity
  8
0
  6
Continuous
 62
     0
370
    -2
100
AcDbLine
 10
948.1466189038767
 20
3654.982653264299
 30
0.0
 11
8643.536549405554
 21
3654.982653264299
 31
0.0
  0
SOLID
  5
757
330
524
100
AcDbEntity
  8
0
  6
Continuous
 62
     0
100
AcDbTrace
 10
948.1466189038767
 20
3655.399319930965
 30
0.0
 11
948.1466189038767
 21
3654.565986597635
 31
0.0
 12
945.6466189038769
 22
3654.982653264299
 32
0.0
 13
945.6466189038769
 23
3654.982653264299
 33
0.0
  0
SOLID
  5
758
330
524
100
AcDbEntity
  8
0
  6
Continuous
 62
     0
100
AcDbTrace
 10
8643.536549405554
 20
3655.399319930965
 30
0.0
 11
8643.536549405554
 21
3654.565986597635
 31
0.0
 12
8646.036549405556
 22
3654.982653264299
 32
0.0
 13
8646.036549405556
 23
3654.982653264299
 33
0.0
  0
MTEXT
  5
759
330
524
100
AcDbEntity
  8
0
  6
Continuous
 62
     0
100
AcDbMText
 10
4795.841584154715
 20
3685.607653264299
 30
0.0
 40
50.0
 41
0.0
 71
     5
 72
     1
  1
\A1;7700
 73
     1
 44
1.0
1001
ACAD
1000
MTEXTBEGIN
1070
    73
1070
     1
1070
    44
1040
1.0
1070
    74
1070
     0
1000
MTEXTEND
  0
POINT
  5
75A
330
524
100
AcDbEntity
  8
Defpoints
  6
Continuous
 62
     0
100
AcDbPoint
 10
945.6466189038769
 20
3539.398173970841
 30
0.0
  0
POINT
  5
75B
330
524
100
AcDbEntity
  8
Defpoints
  6
Continuous
 62
     0
100
AcDbPoint
 10
8646.036549405556
 20
3539.398173970841
 30
0.0
  0
POINT
  5
75C
330
524
100
AcDbEntity
  8
Defpoints
  6
Continuous
 62
     0
100
AcDbPoint
 10
8646.036549405556
 20
3654.982653264299
 30
0.0
  0
ENDBLK
  5
52F
330
524
100
AcDbEntity
  8
0
100
AcDbBlockEnd
  0
BLOCK
  5
848
330
83E
100
AcDbEntity
  8
0
100
AcDbBlockBegin
  2
*D28
 70
     1
 10
0.0
 20
0.0
 30
0.0
  3
*D28
  1

  0
LINE
  5
83F
330
83E
100
AcDbEntity
  8
0
  6
Continuous
 62
     0
370
    -2
100
AcDbLine
 10
3810.434779594383
 20
2751.489314725398
 30
0.0
 11
3810.434779594383
 21
2752.114314725398
 31
0.0
  0
LINE
  5
840
330
83E
100
AcDbEntity
  8
0
  6
Continuous
 62
     0
370
    -2
100
AcDbLine
 10
4580.080313158344
 20
2751.489314725398
 30
0.0
 11
4580.080313158344
 21
2752.114314725398
 31
0.0
  0
LINE
  5
841
330
83E
100
AcDbEntity
  8
0
  6
Continuous
 62
     0
370
    -2
100
AcDbLine
 10
3812.934779594383
 20
2750.864314725398
 30
0.0
 11
4577.580313158344
 21
2750.864314725398
 31
0.0
  0
SOLID
  5
842
330
83E
100
AcDbEntity
  8
0
  6
Continuous
 62
     0
100
AcDbTrace
 10
3812.934779594383
 20
2751.280981392064
 30
0.0
 11
3812.934779594383
 21
2750.447648058731
 31
0.0
 12
3810.434779594383
 22
2750.864314725398
 32
0.0
 13
3810.434779594383
 23
2750.864314725398
 33
0.0
  0
SOLID
  5
843
330
83E
100
AcDbEntity
  8
0
  6
Continuous
 62
     0
100
AcDbTrace
 10
4577.580313158344
 20
2751.280981392064
 30
0.0
 11
4577.580313158344
 21
2750.447648058731
 31
0.0
 12
4580.080313158344
 22
2750.864314725398
 32
0.0
 13
4580.080313158344
 23
2750.864314725398
 33
0.0
  0
MTEXT
  5
844
330
83E
100
AcDbEntity
  8
0
  6
Continuous
 62
     0
100
AcDbMText
 10
4195.257546376364
 20
2765.864314725398
 30
0.0
 40
10.0
 41
0.0
 71
     5
 72
     1
  1
\A1;770
 73
     1
 44
1.0
1001
ACAD
1000
MTEXTBEGIN
1070
    73
1070
     1
1070
    44
1040
1.0
1070
    74
1070
     0
1000
MTEXTEND
  0
POINT
  5
845
330
83E
100
AcDbEntity
  8
Defpoints
  6
Continuous
 62
     0
100
AcDbPoint
 10
3810.434779594383
 20
2750.864314725398
 30
0.0
  0
POINT
  5
846
330
83E
100
AcDbEntity
  8
Defpoints
  6
Continuous
 62
     0
100
AcDbPoint
 10
4580.080313158344
 20
2750.864314725398
 30
0.0
  0
POINT
  5
847
330
83E
100
AcDbEntity
  8
Defpoints
  6
Continuous
 62
     0
100
AcDbPoint
 10
4580.080313158344
 20
2750.864314725398
 30
0.0
  0
ENDBLK
  5
849
330
83E
100
AcDbEntity
  8
0
100
AcDbBlockEnd
  0
BLOCK
  5
863
330
859
100
AcDbEntity
  8
0
100
AcDbBlockBegin
  2
*D29
 70
     1
 10
0.0
 20
0.0
 30
0.0
  3
*D29
  1

  0
LINE
  5
85A
330
859
100
AcDbEntity
  8
0
  6
Continuous
 62
     0
370
    -2
100
AcDbLine
 10
3775.679150598822
 20
2703.988140075285
 30
0.0
 11
3775.054150598823
 21
2703.988140075285
 31
0.0
  0
LINE
  5
85B
330
859
100
AcDbEntity
  8
0
  6
Continuous
 62
     0
370
    -2
100
AcDbLine
 10
3775.679150598822
 20
2654.555087667575
 30
0.0
 11
3775.054150598823
 21
2654.555087667575
 31
0.0
  0
LINE
  5
85C
330
859
100
AcDbEntity
  8
0
  6
Continuous
 62
     0
370
    -2
100
AcDbLine
 10
3776.304150598822
 20
2701.488140075285
 30
0.0
 11
3776.304150598822
 21
2657.055087667574
 31
0.0
  0
SOLID
  5
85D
330
859
100
AcDbEntity
  8
0
  6
Continuous
 62
     0
100
AcDbTrace
 10
3775.887483932156
 20
2701.488140075285
 30
0.0
 11
3776.720817265489
 21
2701.488140075285
 31
0.0
 12
3776.304150598822
 22
2703.988140075285
 32
0.0
 13
3776.304150598822
 23
2703.988140075285
 33
0.0
  0
SOLID
  5
85E
330
859
100
AcDbEntity
  8
0
  6
Continuous
 62
     0
100
AcDbTrace
 10
3775.887483932156
 20
2657.055087667574
 30
0.0
 11
3776.720817265489
 21
2657.055087667574
 31
0.0
 12
3776.304150598822
 22
2654.555087667575
 32
0.0
 13
3776.304150598822
 23
2654.555087667575
 33
0.0
  0
MTEXT
  5
85F
330
859
100
AcDbEntity
  8
0
  6
Continuous
 62
     0
100
AcDbMText
 10
3761.304150598822
 20
2679.27161387143
 30
0.0
 40
10.0
 41
0.0
 71
     5
 72
     1
  1
\A1;50
 11
0.0000000000000001
 21
1.0
 31
0.0
 73
     1
 44
1.0
1001
ACAD
1000
MTEXTBEGIN
1070
    73
1070
     1
1070
    44
1040
1.0
1070
    74
1070
     0
1000
MTEXTEND
  0
POINT
  5
860
330
859
100
AcDbEntity
  8
Defpoints
  6
Continuous
 62
     0
100
AcDbPoint
 10
3776.304150598822
 20
2703.988140075285
 30
0.0
  0
POINT
  5
861
330
859
100
AcDbEntity
  8
Defpoints
  6
Continuous
 62
     0
100
AcDbPoint
 10
3776.304150598822
 20
2654.555087667575
 30
0.0
  0
POINT
  5
862
330
859
100
AcDbEntity
  8
Defpoints
  6
Continuous
 62
     0
100
AcDbPoint
 10
3776.304150598822
 20
2654.555087667575
 30
0.0
  0
ENDBLK
  5
864
330
859
100
AcDbEntity
  8
0
100
AcDbBlockEnd
  0
BLOCK
  5
875
330
86B
100
AcDbEntity
  8
0
100
AcDbBlockBegin
  2
*D30
 70
     1
 10
0.0
 20
0.0
 30
0.0
  3
*D30
  1

  0
LINE
  5
86C
330
86B
100
AcDbEntity
  8
0
  6
Continuous
 62
     0
370
    -2
100
AcDbLine
 10
3807.874928550358
 20
2750.637086619638
 30
0.0
 11
3807.874928550358
 21
2751.262086619638
 31
0.0
  0
LINE
  5
86D
330
86B
100
AcDbEntity
  8
0
  6
Continuous
 62
     0
370
    -2
100
AcDbLine
 10
4578.373931982612
 20
2750.637086619638
 30
0.0
 11
4578.373931982612
 21
2751.262086619638
 31
0.0
  0
LINE
  5
86E
330
86B
100
AcDbEntity
  8
0
  6
Continuous
 62
     0
370
    -2
100
AcDbLine
 10
3810.374928550358
 20
2750.012086619638
 30
0.0
 11
4575.873931982612
 21
2750.012086619638
 31
0.0
  0
SOLID
  5
86F
330
86B
100
AcDbEntity
  8
0
  6
Continuous
 62
     0
100
AcDbTrace
 10
3810.374928550358
 20
2750.428753286304
 30
0.0
 11
3810.374928550358
 21
2749.595419952971
 31
0.0
 12
3807.874928550358
 22
2750.012086619638
 32
0.0
 13
3807.874928550358
 23
2750.012086619638
 33
0.0
  0
SOLID
  5
870
330
86B
100
AcDbEntity
  8
0
  6
Continuous
 62
     0
100
AcDbTrace
 10
4575.873931982612
 20
2750.428753286304
 30
0.0
 11
4575.873931982612
 21
2749.595419952971
 31
0.0
 12
4578.373931982612
 22
2750.012086619638
 32
0.0
 13
4578.373931982612
 23
2750.012086619638
 33
0.0
  0
MTEXT
  5
871
330
86B
100
AcDbEntity
  8
0
  6
Continuous
 62
     0
100
AcDbMText
 10
4193.124430266485
 20
2765.012086619638
 30
0.0
 40
10.0
 41
0.0
 71
     5
 72
     1
  1
\A1;770
 73
     1
 44
1.0
1001
ACAD
1000
MTEXTBEGIN
1070
    73
1070
     1
1070
    44
1040
1.0
1070
    74
1070
     0
1000
MTEXTEND
  0
POINT
  5
872
330
86B
100
AcDbEntity
  8
Defpoints
  6
Continuous
 62
     0
100
AcDbPoint
 10
3807.874928550358
 20
2750.012086619638
 30
0.0
  0
POINT
  5
873
330
86B
100
AcDbEntity
  8
Defpoints
  6
Continuous
 62
     0
100
AcDbPoint
 10
4578.373931982612
 20
2750.012086619638
 30
0.0
  0
POINT
  5
874
330
86B
100
AcDbEntity
  8
Defpoints
  6
Continuous
 62
     0
100
AcDbPoint
 10
4578.373931982612
 20
2750.012086619638
 30
0.0
  0
ENDBLK
  5
876
330
86B
100
AcDbEntity
  8
0
100
AcDbBlockEnd
  0
BLOCK
  5
882
330
878
100
AcDbEntity
  8
0
100
AcDbBlockBegin
  2
*D31
 70
     1
 10
0.0
 20
0.0
 30
0.0
  3
*D31
  1

  0
LINE
  5
8EC
330
878
100
AcDbEntity
  8
0
  6
Continuous
 62
     0
370
    -2
100
AcDbLine
 10
3776.92920441684
 20
2703.988184645977
 30
0.0
 11
3787.793358189898
 21
2703.988184645977
 31
0.0
  0
LINE
  5
8ED
330
878
100
AcDbEntity
  8
0
  6
Continuous
 62
     0
370
    -2
100
AcDbLine
 10
3776.92920441684
 20
2653.70285010709
 30
0.0
 11
3787.793358189898
 21
2653.70285010709
 31
0.0
  0
LINE
  5
8EE
330
878
100
AcDbEntity
  8
0
  6
Continuous
 62
     0
370
    -2
100
AcDbLine
 10
3786.543358189898
 20
2701.488184645976
 30
0.0
 11
3786.543358189898
 21
2656.202850107089
 31
0.0
  0
SOLID
  5
8EF
330
878
100
AcDbEntity
  8
0
  6
Continuous
 62
     0
100
AcDbTrace
 10
3786.126691523231
 20
2701.488184645976
 30
0.0
 11
3786.960024856565
 21
2701.488184645976
 31
0.0
 12
3786.543358189898
 22
2703.988184645977
 32
0.0
 13
3786.543358189898
 23
2703.988184645977
 33
0.0
  0
SOLID
  5
8F0
330
878
100
AcDbEntity
  8
0
  6
Continuous
 62
     0
100
AcDbTrace
 10
3786.126691523231
 20
2656.202850107089
 30
0.0
 11
3786.960024856565
 21
2656.202850107089
 31
0.0
 12
3786.543358189898
 22
2653.70285010709
 32
0.0
 13
3786.543358189898
 23
2653.70285010709
 33
0.0
  0
MTEXT
  5
8F1
330
878
100
AcDbEntity
  8
0
  6
Continuous
 62
     0
100
AcDbMText
 10
3771.543358189898
 20
2678.845517376533
 30
0.0
 40
10.0
 41
0.0
 71
     5
 72
     1
  1
\A1;50
 11
0.0000000000000001
 21
1.0
 31
0.0
 73
     1
 44
1.0
1001
ACAD
1000
MTEXTBEGIN
1070
    73
1070
     1
1070
    44
1040
1.0
1070
    74
1070
     0
1000
MTEXTEND
  0
POINT
  5
8F2
330
878
100
AcDbEntity
  8
Defpoints
  6
Continuous
 62
     0
100
AcDbPoint
 10
3776.30420441684
 20
2703.988184645977
 30
0.0
  0
POINT
  5
8F3
330
878
100
AcDbEntity
  8
Defpoints
  6
Continuous
 62
     0
100
AcDbPoint
 10
3776.30420441684
 20
2653.70285010709
 30
0.0
  0
POINT
  5
8F4
330
878
100
AcDbEntity
  8
Defpoints
  6
Continuous
 62
     0
100
AcDbPoint
 10
3786.543358189898
 20
2653.70285010709
 30
0.0
  0
ENDBLK
  5
883
330
878
100
AcDbEntity
  8
0
100
AcDbBlockEnd
  0
BLOCK
  5
88F
330
885
100
AcDbEntity
  8
0
100
AcDbBlockBegin
  2
*D32
 70
     1
 10
0.0
 20
0.0
 30
0.0
  3
*D32
  1

  0
LINE
  5
8F5
330
885
100
AcDbEntity
  8
0
  6
Continuous
 62
     0
370
    -2
100
AcDbLine
 10
3807.874928550358
 20
2740.409510162266
 30
0.0
 11
3807.874928550358
 21
2751.262086619638
 31
0.0
  0
LINE
  5
8F6
330
885
100
AcDbEntity
  8
0
  6
Continuous
 62
     0
370
    -2
100
AcDbLine
 10
4577.520669168211
 20
2740.409510162266
 30
0.0
 11
4577.520669168211
 21
2751.262086619638
 31
0.0
  0
LINE
  5
8F7
330
885
100
AcDbEntity
  8
0
  6
Continuous
 62
     0
370
    -2
100
AcDbLine
 10
3810.374928550358
 20
2750.012086619638
 30
0.0
 11
4575.02066916821
 21
2750.012086619638
 31
0.0
  0
SOLID
  5
8F8
330
885
100
AcDbEntity
  8
0
  6
Continuous
 62
     0
100
AcDbTrace
 10
3810.374928550358
 20
2750.428753286304
 30
0.0
 11
3810.374928550358
 21
2749.595419952971
 31
0.0
 12
3807.874928550358
 22
2750.012086619638
 32
0.0
 13
3807.874928550358
 23
2750.012086619638
 33
0.0
  0
SOLID
  5
8F9
330
885
100
AcDbEntity
  8
0
  6
Continuous
 62
     0
100
AcDbTrace
 10
4575.02066916821
 20
2750.428753286304
 30
0.0
 11
4575.02066916821
 21
2749.595419952971
 31
0.0
 12
4577.520669168211
 22
2750.012086619638
 32
0.0
 13
4577.520669168211
 23
2750.012086619638
 33
0.0
  0
MTEXT
  5
8FA
330
885
100
AcDbEntity
  8
0
  6
Continuous
 62
     0
100
AcDbMText
 10
4192.697798859284
 20
2765.012086619638
 30
0.0
 40
10.0
 41
0.0
 71
     5
 72
     1
  1
\A1;770
 73
     1
 44
1.0
1001
ACAD
1000
MTEXTBEGIN
1070
    73
1070
     1
1070
    44
1040
1.0
1070
    74
1070
     0
1000
MTEXTEND
  0
POINT
  5
8FB
330
885
100
AcDbEntity
  8
Defpoints
  6
Continuous
 62
     0
100
AcDbPoint
 10
3807.874928550358
 20
2739.784510162266
 30
0.0
  0
POINT
  5
8FC
330
885
100
AcDbEntity
  8
Defpoints
  6
Continuous
 62
     0
100
AcDbPoint
 10
4577.520669168211
 20
2739.784510162266
 30
0.0
  0
POINT
  5
8FD
330
885
100
AcDbEntity
  8
Defpoints
  6
Continuous
 62
     0
100
AcDbPoint
 10
4577.520669168211
 20
2750.012086619638
 30
0.0
  0
ENDBLK
  5
890
330
885
100
AcDbEntity
  8
0
100
AcDbBlockEnd
  0
BLOCK
  5
89C
330
892
100
AcDbEntity
  8
0
100
AcDbBlockBegin
  2
*D33
 70
     1
 10
0.0
 20
0.0
 30
0.0
  3
*D33
  1

  0
LINE
  5
8FE
330
892
100
AcDbEntity
  8
0
  6
Continuous
 62
     0
370
    -2
100
AcDbLine
 10
4610.569656116132
 20
2699.726675246959
 30
0.0
 11
4633.379680863289
 21
2699.726675246959
 31
0.0
  0
LINE
  5
8FF
330
892
100
AcDbEntity
  8
0
  6
Continuous
 62
     0
370
    -2
100
AcDbLine
 10
4610.569656116132
 20
2659.668840331637
 30
0.0
 11
4633.379680863289
 21
2659.668840331637
 31
0.0
  0
LINE
  5
900
330
892
100
AcDbEntity
  8
0
  6
Continuous
 62
     0
370
    -2
100
AcDbLine
 10
4632.129680863291
 20
2697.226675246959
 30
0.0
 11
4632.129680863291
 21
2662.168840331637
 31
0.0
  0
SOLID
  5
901
330
892
100
AcDbEntity
  8
0
  6
Continuous
 62
     0
100
AcDbTrace
 10
4631.713014196622
 20
2697.226675246959
 30
0.0
 11
4632.546347529958
 21
2697.226675246959
 31
0.0
 12
4632.129680863291
 22
2699.726675246959
 32
0.0
 13
4632.129680863291
 23
2699.726675246959
 33
0.0
  0
SOLID
  5
902
330
892
100
AcDbEntity
  8
0
  6
Continuous
 62
     0
100
AcDbTrace
 10
4631.713014196622
 20
2662.168840331637
 30
0.0
 11
4632.546347529958
 21
2662.168840331637
 31
0.0
 12
4632.129680863291
 22
2659.668840331637
 32
0.0
 13
4632.129680863291
 23
2659.668840331637
 33
0.0
  0
MTEXT
  5
903
330
892
100
AcDbEntity
  8
0
  6
Continuous
 62
     0
100
AcDbMText
 10
4617.129680863288
 20
2679.697757789298
 30
0.0
 40
10.0
 41
0.0
 71
     5
 72
     1
  1
\A1;40
 11
0.0000000000000001
 21
1.0
 31
0.0
 73
     1
 44
1.0
1001
ACAD
1000
MTEXTBEGIN
1070
    73
1070
     1
1070
    44
1040
1.0
1070
    74
1070
     0
1000
MTEXTEND
  0
POINT
  5
904
330
892
100
AcDbEntity
  8
Defpoints
  6
Continuous
 62
     0
100
AcDbPoint
 10
4609.944656116131
 20
2699.726675246959
 30
0.0
  0
POINT
  5
905
330
892
100
AcDbEntity
  8
Defpoints
  6
Continuous
 62
     0
100
AcDbPoint
 10
4609.944656116131
 20
2659.668840331637
 30
0.0
  0
POINT
  5
906
330
892
100
AcDbEntity
  8
Defpoints
  6
Continuous
 62
     0
100
AcDbPoint
 10
4632.129680863291
 20
2659.668840331637
 30
0.0
  0
ENDBLK
  5
89D
330
892
100
AcDbEntity
  8
0
100
AcDbBlockEnd
  0
BLOCK
  5
8A9
330
89F
100
AcDbEntity
  8
0
100
AcDbBlockBegin
  2
*D34
 70
     1
 10
0.0
 20
0.0
 30
0.0
  3
*D34
  1

  0
LINE
  5
907
330
89F
100
AcDbEntity
  8
0
  6
Continuous
 62
     0
370
    -2
100
AcDbLine
 10
3808.490641771205
 20
2609.31124808715
 30
0.0
 11
3808.490641771205
 21
2597.747959060536
 31
0.0
  0
LINE
  5
908
330
89F
100
AcDbEntity
  8
0
  6
Continuous
 62
     0
370
    -2
100
AcDbLine
 10
3878.575626344625
 20
2609.31124808715
 30
0.0
 11
3878.575626344625
 21
2597.747959060536
 31
0.0
  0
LINE
  5
909
330
89F
100
AcDbEntity
  8
0
  6
Continuous
 62
     0
370
    -2
100
AcDbLine
 10
3810.990641771205
 20
2598.997959060536
 30
0.0
 11
3876.075626344624
 21
2598.997959060536
 31
0.0
  0
SOLID
  5
90A
330
89F
100
AcDbEntity
  8
0
  6
Continuous
 62
     0
100
AcDbTrace
 10
3810.990641771205
 20
2599.414625727203
 30
0.0
 11
3810.990641771205
 21
2598.58129239387
 31
0.0
 12
3808.490641771205
 22
2598.997959060536
 32
0.0
 13
3808.490641771205
 23
2598.997959060536
 33
0.0
  0
SOLID
  5
90B
330
89F
100
AcDbEntity
  8
0
  6
Continuous
 62
     0
100
AcDbTrace
 10
3876.075626344624
 20
2599.414625727203
 30
0.0
 11
3876.075626344624
 21
2598.58129239387
 31
0.0
 12
3878.575626344625
 22
2598.997959060536
 32
0.0
 13
3878.575626344625
 23
2598.997959060536
 33
0.0
  0
MTEXT
  5
90C
330
89F
100
AcDbEntity
  8
0
  6
Continuous
 62
     0
100
AcDbMText
 10
3843.533134057914
 20
2613.997959060537
 30
0.0
 40
10.0
 41
0.0
 71
     5
 72
     1
  1
\A1;70
 73
     1
 44
1.0
1001
ACAD
1000
MTEXTBEGIN
1070
    73
1070
     1
1070
    44
1040
1.0
1070
    74
1070
     0
1000
MTEXTEND
  0
POINT
  5
90D
330
89F
100
AcDbEntity
  8
Defpoints
  6
Continuous
 62
     0
100
AcDbPoint
 10
3808.490641771205
 20
2609.93624808715
 30
0.0
  0
POINT
  5
90E
330
89F
100
AcDbEntity
  8
Defpoints
  6
Continuous
 62
     0
100
AcDbPoint
 10
3878.575626344625
 20
2609.93624808715
 30
0.0
  0
POINT
  5
90F
330
89F
100
AcDbEntity
  8
Defpoints
  6
Continuous
 62
     0
100
AcDbPoint
 10
3878.575626344625
 20
2598.997959060536
 30
0.0
  0
ENDBLK
  5
8AA
330
89F
100
AcDbEntity
  8
0
100
AcDbBlockEnd
  0
BLOCK
  5
8B6
330
8AC
100
AcDbEntity
  8
0
100
AcDbBlockBegin
  2
*D35
 70
     1
 10
0.0
 20
0.0
 30
0.0
  3
*D35
  1

  0
LINE
  5
910
330
8AC
100
AcDbEntity
  8
0
  6
Continuous
 62
     0
370
    -2
100
AcDbLine
 10
3878.575626344625
 20
2598.372959060537
 30
0.0
 11
3878.575626344625
 21
2597.018729547592
 31
0.0
  0
LINE
  5
911
330
8AC
100
AcDbEntity
  8
0
  6
Continuous
 62
     0
370
    -2
100
AcDbLine
 10
3948.660802490282
 20
2598.372959060537
 30
0.0
 11
3948.660802490282
 21
2597.018729547592
 31
0.0
  0
LINE
  5
912
330
8AC
100
AcDbEntity
  8
0
  6
Continuous
 62
     0
370
    -2
100
AcDbLine
 10
3881.075626344625
 20
2598.268729547592
 30
0.0
 11
3946.160802490283
 21
2598.268729547592
 31
0.0
  0
SOLID
  5
913
330
8AC
100
AcDbEntity
  8
0
  6
Continuous
 62
     0
100
AcDbTrace
 10
3881.075626344625
 20
2598.685396214258
 30
0.0
 11
3881.075626344625
 21
2597.852062880925
 31
0.0
 12
3878.575626344625
 22
2598.268729547592
 32
0.0
 13
3878.575626344625
 23
2598.268729547592
 33
0.0
  0
SOLID
  5
914
330
8AC
100
AcDbEntity
  8
0
  6
Continuous
 62
     0
100
AcDbTrace
 10
3946.160802490283
 20
2598.685396214258
 30
0.0
 11
3946.160802490283
 21
2597.852062880925
 31
0.0
 12
3948.660802490282
 22
2598.268729547592
 32
0.0
 13
3948.660802490282
 23
2598.268729547592
 33
0.0
  0
MTEXT
  5
915
330
8AC
100
AcDbEntity
  8
0
  6
Continuous
 62
     0
100
AcDbMText
 10
3913.618214417454
 20
2613.268729547592
 30
0.0
 40
10.0
 41
0.0
 71
     5
 72
     1
  1
\A1;70
 73
     1
 44
1.0
1001
ACAD
1000
MTEXTBEGIN
1070
    73
1070
     1
1070
    44
1040
1.0
1070
    74
1070
     0
1000
MTEXTEND
  0
POINT
  5
916
330
8AC
100
AcDbEntity
  8
Defpoints
  6
Continuous
 62
     0
100
AcDbPoint
 10
3878.575626344625
 20
2598.997959060536
 30
0.0
  0
POINT
  5
917
330
8AC
100
AcDbEntity
  8
Defpoints
  6
Continuous
 62
     0
100
AcDbPoint
 10
3948.660802490282
 20
2598.997959060536
 30
0.0
  0
POINT
  5
918
330
8AC
100
AcDbEntity
  8
Defpoints
  6
Continuous
 62
     0
100
AcDbPoint
 10
3948.660802490282
 20
2598.268729547592
 30
0.0
  0
ENDBLK
  5
8B7
330
8AC
100
AcDbEntity
  8
0
100
AcDbBlockEnd
  0
BLOCK
  5
8C3
330
8B9
100
AcDbEntity
  8
0
100
AcDbBlockBegin
  2
*D36
 70
     1
 10
0.0
 20
0.0
 30
0.0
  3
*D36
  1

  0
LINE
  5
919
330
8B9
100
AcDbEntity
  8
0
  6
Continuous
 62
     0
370
    -2
100
AcDbLine
 10
3949.390692773828
 20
2607.852789061261
 30
0.0
 11
3949.390692773828
 21
2597.018729547592
 31
0.0
  0
LINE
  5
91A
330
8B9
100
AcDbEntity
  8
0
  6
Continuous
 62
     0
370
    -2
100
AcDbLine
 10
4129.713631411898
 20
2607.852789061261
 30
0.0
 11
4129.713631411898
 21
2597.018729547592
 31
0.0
  0
LINE
  5
91B
330
8B9
100
AcDbEntity
  8
0
  6
Continuous
 62
     0
370
    -2
100
AcDbLine
 10
3951.890692773828
 20
2598.268729547592
 30
0.0
 11
4127.213631411898
 21
2598.268729547592
 31
0.0
  0
SOLID
  5
91C
330
8B9
100
AcDbEntity
  8
0
  6
Continuous
 62
     0
100
AcDbTrace
 10
3951.890692773828
 20
2598.685396214258
 30
0.0
 11
3951.890692773828
 21
2597.852062880925
 31
0.0
 12
3949.390692773828
 22
2598.268729547592
 32
0.0
 13
3949.390692773828
 23
2598.268729547592
 33
0.0
  0
SOLID
  5
91D
330
8B9
100
AcDbEntity
  8
0
  6
Continuous
 62
     0
100
AcDbTrace
 10
4127.213631411898
 20
2598.685396214258
 30
0.0
 11
4127.213631411898
 21
2597.852062880925
 31
0.0
 12
4129.713631411898
 22
2598.268729547592
 32
0.0
 13
4129.713631411898
 23
2598.268729547592
 33
0.0
  0
MTEXT
  5
91E
330
8B9
100
AcDbEntity
  8
0
  6
Continuous
 62
     0
100
AcDbMText
 10
4039.552162092863
 20
2613.268729547592
 30
0.0
 40
10.0
 41
0.0
 71
     5
 72
     1
  1
\A1;180
 73
     1
 44
1.0
1001
ACAD
1000
MTEXTBEGIN
1070
    73
1070
     1
1070
    44
1040
1.0
1070
    74
1070
     0
1000
MTEXTEND
  0
POINT
  5
91F
330
8B9
100
AcDbEntity
  8
Defpoints
  6
Continuous
 62
     0
100
AcDbPoint
 10
3949.390692773828
 20
2608.47778906126
 30
0.0
  0
POINT
  5
920
330
8B9
100
AcDbEntity
  8
Defpoints
  6
Continuous
 62
     0
100
AcDbPoint
 10
4129.713631411898
 20
2608.47778906126
 30
0.0
  0
POINT
  5
921
330
8B9
100
AcDbEntity
  8
Defpoints
  6
Continuous
 62
     0
100
AcDbPoint
 10
4129.713631411898
 20
2598.268729547592
 30
0.0
  0
ENDBLK
  5
8C4
330
8B9
100
AcDbEntity
  8
0
100
AcDbBlockEnd
  0
BLOCK
  5
8D0
330
8C6
100
AcDbEntity
  8
0
100
AcDbBlockBegin
  2
*D37
 70
     1
 10
0.0
 20
0.0
 30
0.0
  3
*D37
  1

  0
LINE
  5
922
330
8C6
100
AcDbEntity
  8
0
  6
Continuous
 62
     0
370
    -2
100
AcDbLine
 10
4129.713631411898
 20
2609.31124808715
 30
0.0
 11
4129.713631411898
 21
2597.018729547592
 31
0.0
  0
LINE
  5
923
330
8C6
100
AcDbEntity
  8
0
  6
Continuous
 62
     0
370
    -2
100
AcDbLine
 10
4480.138937423471
 20
2609.31124808715
 30
0.0
 11
4480.138937423471
 21
2597.018729547592
 31
0.0
  0
LINE
  5
924
330
8C6
100
AcDbEntity
  8
0
  6
Continuous
 62
     0
370
    -2
100
AcDbLine
 10
4132.213631411898
 20
2598.268729547592
 30
0.0
 11
4477.638937423471
 21
2598.268729547592
 31
0.0
  0
SOLID
  5
925
330
8C6
100
AcDbEntity
  8
0
  6
Continuous
 62
     0
100
AcDbTrace
 10
4132.213631411898
 20
2598.685396214258
 30
0.0
 11
4132.213631411898
 21
2597.852062880925
 31
0.0
 12
4129.713631411898
 22
2598.268729547592
 32
0.0
 13
4129.713631411898
 23
2598.268729547592
 33
0.0
  0
SOLID
  5
926
330
8C6
100
AcDbEntity
  8
0
  6
Continuous
 62
     0
100
AcDbTrace
 10
4477.638937423471
 20
2598.685396214258
 30
0.0
 11
4477.638937423471
 21
2597.852062880925
 31
0.0
 12
4480.138937423471
 22
2598.268729547592
 32
0.0
 13
4480.138937423471
 23
2598.268729547592
 33
0.0
  0
MTEXT
  5
927
330
8C6
100
AcDbEntity
  8
0
  6
Continuous
 62
     0
100
AcDbMText
 10
4304.926284417684
 20
2613.268729547592
 30
0.0
 40
10.0
 41
0.0
 71
     5
 72
     1
  1
\A1;350
 73
     1
 44
1.0
1001
ACAD
1000
MTEXTBEGIN
1070
    73
1070
     1
1070
    44
1040
1.0
1070
    74
1070
     0
1000
MTEXTEND
  0
POINT
  5
928
330
8C6
100
AcDbEntity
  8
Defpoints
  6
Continuous
 62
     0
100
AcDbPoint
 10
4129.713631411898
 20
2609.93624808715
 30
0.0
  0
POINT
  5
929
330
8C6
100
AcDbEntity
  8
Defpoints
  6
Continuous
 62
     0
100
AcDbPoint
 10
4480.138937423471
 20
2609.93624808715
 30
0.0
  0
POINT
  5
92A
330
8C6
100
AcDbEntity
  8
Defpoints
  6
Continuous
 62
     0
100
AcDbPoint
 10
4480.138937423471
 20
2598.268729547592
 30
0.0
  0
ENDBLK
  5
8D1
330
8C6
100
AcDbEntity
  8
0
100
AcDbBlockEnd
  0
BLOCK
  5
8DD
330
8D3
100
AcDbEntity
  8
0
100
AcDbBlockBegin
  2
*D38
 70
     1
 10
0.0
 20
0.0
 30
0.0
  3
*D38
  1

  0
LINE
  5
92B
330
8D3
100
AcDbEntity
  8
0
  6
Continuous
 62
     0
370
    -2
100
AcDbLine
 10
4480.138937423471
 20
2599.622959060536
 30
0.0
 11
4480.138937423471
 21
2600.247959060536
 31
0.0
  0
LINE
  5
92C
330
8D3
100
AcDbEntity
  8
0
  6
Continuous
 62
     0
370
    -2
100
AcDbLine
 10
4579.42604679556
 20
2599.622959060536
 30
0.0
 11
4579.42604679556
 21
2600.247959060536
 31
0.0
  0
LINE
  5
92D
330
8D3
100
AcDbEntity
  8
0
  6
Continuous
 62
     0
370
    -2
100
AcDbLine
 10
4482.638937423471
 20
2598.997959060536
 30
0.0
 11
4576.926046795561
 21
2598.997959060536
 31
0.0
  0
SOLID
  5
92E
330
8D3
100
AcDbEntity
  8
0
  6
Continuous
 62
     0
100
AcDbTrace
 10
4482.638937423471
 20
2599.414625727203
 30
0.0
 11
4482.638937423471
 21
2598.58129239387
 31
0.0
 12
4480.138937423471
 22
2598.997959060536
 32
0.0
 13
4480.138937423471
 23
2598.997959060536
 33
0.0
  0
SOLID
  5
92F
330
8D3
100
AcDbEntity
  8
0
  6
Continuous
 62
     0
100
AcDbTrace
 10
4576.926046795561
 20
2599.414625727203
 30
0.0
 11
4576.926046795561
 21
2598.58129239387
 31
0.0
 12
4579.42604679556
 22
2598.997959060536
 32
0.0
 13
4579.42604679556
 23
2598.997959060536
 33
0.0
  0
MTEXT
  5
930
330
8D3
100
AcDbEntity
  8
0
  6
Continuous
 62
     0
100
AcDbMText
 10
4529.782492109516
 20
2613.997959060537
 30
0.0
 40
10.0
 41
0.0
 71
     5
 72
     1
  1
\A1;99
 73
     1
 44
1.0
1001
ACAD
1000
MTEXTBEGIN
1070
    73
1070
     1
1070
    44
1040
1.0
1070
    74
1070
     0
1000
MTEXTEND
  0
POINT
  5
931
330
8D3
100
AcDbEntity
  8
Defpoints
  6
Continuous
 62
     0
100
AcDbPoint
 10
4480.138937423471
 20
2598.997959060536
 30
0.0
  0
POINT
  5
932
330
8D3
100
AcDbEntity
  8
Defpoints
  6
Continuous
 62
     0
100
AcDbPoint
 10
4579.42604679556
 20
2598.997959060536
 30
0.0
  0
POINT
  5
933
330
8D3
100
AcDbEntity
  8
Defpoints
  6
Continuous
 62
     0
100
AcDbPoint
 10
4579.42604679556
 20
2598.997959060536
 30
0.0
  0
ENDBLK
  5
8DE
330
8D3
100
AcDbEntity
  8
0
100
AcDbBlockEnd
  0
BLOCK
  5
94C
330
942
100
AcDbEntity
  8
0
100
AcDbBlockBegin
  2
*D39
 70
     1
 10
0.0
 20
0.0
 30
0.0
  3
*D39
  1

  0
LINE
  5
943
330
942
100
AcDbEntity
  8
0
  6
Continuous
 62
     0
370
    -2
100
AcDbLine
 10
3779.19053224026
 20
2538.397764877402
 30
0.0
 11
3769.365083222452
 21
2538.397764877402
 31
0.0
  0
LINE
  5
944
330
942
100
AcDbEntity
  8
0
  6
Continuous
 62
     0
370
    -2
100
AcDbLine
 10
3779.19053224026
 20
2491.93667863142
 30
0.0
 11
3769.365083222452
 21
2491.93667863142
 31
0.0
  0
LINE
  5
945
330
942
100
AcDbEntity
  8
0
  6
Continuous
 62
     0
370
    -2
100
AcDbLine
 10
3770.615083222452
 20
2535.897764877403
 30
0.0
 11
3770.615083222452
 21
2494.436678631421
 31
0.0
  0
SOLID
  5
946
330
942
100
AcDbEntity
  8
0
  6
Continuous
 62
     0
100
AcDbTrace
 10
3770.198416555786
 20
2535.897764877403
 30
0.0
 11
3771.031749889119
 21
2535.897764877403
 31
0.0
 12
3770.615083222452
 22
2538.397764877402
 32
0.0
 13
3770.615083222452
 23
2538.397764877402
 33
0.0
  0
SOLID
  5
947
330
942
100
AcDbEntity
  8
0
  6
Continuous
 62
     0
100
AcDbTrace
 10
3770.198416555786
 20
2494.436678631421
 30
0.0
 11
3771.031749889119
 21
2494.436678631421
 31
0.0
 12
3770.615083222452
 22
2491.93667863142
 32
0.0
 13
3770.615083222452
 23
2491.93667863142
 33
0.0
  0
MTEXT
  5
948
330
942
100
AcDbEntity
  8
0
  6
Continuous
 62
     0
100
AcDbMText
 10
3755.615083222452
 20
2515.167221754412
 30
0.0
 40
10.0
 41
0.0
 71
     5
 72
     1
  1
\A1;46
 11
0.0000000000000001
 21
1.0
 31
0.0
 73
     1
 44
1.0
1001
ACAD
1000
MTEXTBEGIN
1070
    73
1070
     1
1070
    44
1040
1.0
1070
    74
1070
     0
1000
MTEXTEND
  0
POINT
  5
949
330
942
100
AcDbEntity
  8
Defpoints
  6
Continuous
 62
     0
100
AcDbPoint
 10
3779.81553224026
 20
2538.397764877402
 30
0.0
  0
POINT
  5
94A
330
942
100
AcDbEntity
  8
Defpoints
  6
Continuous
 62
     0
100
AcDbPoint
 10
3779.81553224026
 20
2491.93667863142
 30
0.0
  0
POINT
  5
94B
330
942
100
AcDbEntity
  8
Defpoints
  6
Continuous
 62
     0
100
AcDbPoint
 10
3770.615083222452
 20
2491.93667863142
 30
0.0
  0
ENDBLK
  5
94D
330
942
100
AcDbEntity
  8
0
100
AcDbBlockEnd
  0
BLOCK
  5
95B
330
94F
100
AcDbEntity
  8
0
100
AcDbBlockBegin
  2
*D40
 70
     1
 10
0.0
 20
0.0
 30
0.0
  3
*D40
  1

  0
LINE
  5
950
330
94F
100
AcDbEntity
  8
0
  6
Continuous
 62
     0
370
    -2
100
AcDbLine
 10
4590.380431099706
 20
2526.131634270059
 30
0.0
 11
4603.272951886436
 21
2526.131634270059
 31
0.0
  0
LINE
  5
951
330
94F
100
AcDbEntity
  8
0
  6
Continuous
 62
     0
370
    -2
100
AcDbLine
 10
4590.380431099706
 20
2505.709212550414
 30
0.0
 11
4603.272951886436
 21
2505.709212550414
 31
0.0
  0
LINE
  5
952
330
94F
100
AcDbEntity
  8
0
  6
Continuous
 62
     0
370
    -2
100
AcDbLine
 10
4602.022951886436
 20
2528.631634270059
 30
0.0
 11
4602.022951886436
 21
2531.131634270059
 31
0.0
  0
LINE
  5
953
330
94F
100
AcDbEntity
  8
0
  6
Continuous
 62
     0
370
    -2
100
AcDbLine
 10
4602.022951886436
 20
2503.209212550413
 30
0.0
 11
4602.022951886436
 21
2500.709212550413
 31
0.0
  0
MTEXT
  5
954
330
94F
100
AcDbEntity
  8
0
  6
Continuous
 62
     0
100
AcDbMText
 10
4633.272951886435
 20
2515.920423410237
 30
0.0
 40
10.0
 41
0.0
 71
     5
 72
     1
  1
\A1;20
 11
0.0000000000000001
 21
1.0
 31
0.0
 73
     1
 44
1.0
1001
ACAD
1000
MTEXTBEGIN
1070
    73
1070
     1
1070
    44
1040
1.0
1070
    74
1070
     0
1000
MTEXTEND
  0
LINE
  5
955
330
94F
100
AcDbEntity
  8
0
  6
Continuous
 62
     0
370
    -2
100
AcDbLine
 10
4602.022951886436
 20
2526.131634270059
 30
0.0
 11
4602.022951886436
 21
2505.709212550414
 31
0.0
  0
SOLID
  5
956
330
94F
100
AcDbEntity
  8
0
  6
Continuous
 62
     0
100
AcDbTrace
 10
4601.606285219768
 20
2528.631634270059
 30
0.0
 11
4602.439618553103
 21
2528.631634270059
 31
0.0
 12
4602.022951886436
 22
2526.131634270059
 32
0.0
 13
4602.022951886436
 23
2526.131634270059
 33
0.0
  0
SOLID
  5
957
330
94F
100
AcDbEntity
  8
0
  6
Continuous
 62
     0
100
AcDbTrace
 10
4601.606285219768
 20
2503.209212550413
 30
0.0
 11
4602.439618553103
 21
2503.209212550413
 31
0.0
 12
4602.022951886436
 22
2505.709212550414
 32
0.0
 13
4602.022951886436
 23
2505.709212550414
 33
0.0
  0
POINT
  5
958
330
94F
100
AcDbEntity
  8
Defpoints
  6
Continuous
 62
     0
100
AcDbPoint
 10
4589.755431099706
 20
2526.131634270059
 30
0.0
  0
POINT
  5
959
330
94F
100
AcDbEntity
  8
Defpoints
  6
Continuous
 62
     0
100
AcDbPoint
 10
4589.755431099706
 20
2505.709212550414
 30
0.0
  0
POINT
  5
95A
330
94F
100
AcDbEntity
  8
Defpoints
  6
Continuous
 62
     0
100
AcDbPoint
 10
4602.022951886436
 20
2505.709212550414
 30
0.0
  0
ENDBLK
  5
95C
330
94F
100
AcDbEntity
  8
0
100
AcDbBlockEnd
  0
BLOCK
  5
968
330
95E
100
AcDbEntity
  8
0
100
AcDbBlockBegin
  2
*D41
 70
     1
 10
0.0
 20
0.0
 30
0.0
  3
*D41
  1

  0
LINE
  5
95F
330
95E
100
AcDbEntity
  8
0
  6
Continuous
 62
     0
370
    -2
100
AcDbLine
 10
4479.69583080252
 20
2600.09280664433
 30
0.0
 11
4479.69583080252
 21
2588.929898504037
 31
0.0
  0
LINE
  5
960
330
95E
100
AcDbEntity
  8
0
  6
Continuous
 62
     0
370
    -2
100
AcDbLine
 10
4579.51378688737
 20
2600.09280664433
 30
0.0
 11
4579.51378688737
 21
2588.929898504037
 31
0.0
  0
LINE
  5
961
330
95E
100
AcDbEntity
  8
0
  6
Continuous
 62
     0
370
    -2
100
AcDbLine
 10
4482.19583080252
 20
2590.179898504037
 30
0.0
 11
4577.013786887372
 21
2590.179898504037
 31
0.0
  0
SOLID
  5
962
330
95E
100
AcDbEntity
  8
0
  6
Continuous
 62
     0
100
AcDbTrace
 10
4482.19583080252
 20
2590.596565170705
 30
0.0
 11
4482.19583080252
 21
2589.76323183737
 31
0.0
 12
4479.69583080252
 22
2590.179898504037
 32
0.0
 13
4479.69583080252
 23
2590.179898504037
 33
0.0
  0
SOLID
  5
963
330
95E
100
AcDbEntity
  8
0
  6
Continuous
 62
     0
100
AcDbTrace
 10
4577.013786887372
 20
2590.596565170705
 30
0.0
 11
4577.013786887372
 21
2589.76323183737
 31
0.0
 12
4579.51378688737
 22
2590.179898504037
 32
0.0
 13
4579.51378688737
 23
2590.179898504037
 33
0.0
  0
MTEXT
  5
964
330
95E
100
AcDbEntity
  8
0
  6
Continuous
 62
     0
100
AcDbMText
 10
4529.604808844946
 20
2605.179898504037
 30
0.0
 40
10.0
 41
0.0
 71
     5
 72
     1
  1
\A1;100
 73
     1
 44
1.0
1001
ACAD
1000
MTEXTBEGIN
1070
    73
1070
     1
1070
    44
1040
1.0
1070
    74
1070
     0
1000
MTEXTEND
  0
POINT
  5
965
330
95E
100
AcDbEntity
  8
Defpoints
  6
Continuous
 62
     0
100
AcDbPoint
 10
4479.69583080252
 20
2600.71780664433
 30
0.0
  0
POINT
  5
966
330
95E
100
AcDbEntity
  8
Defpoints
  6
Continuous
 62
     0
100
AcDbPoint
 10
4579.51378688737
 20
2600.71780664433
 30
0.0
  0
POINT
  5
967
330
95E
100
AcDbEntity
  8
Defpoints
  6
Continuous
 62
     0
100
AcDbPoint
 10
4579.51378688737
 20
2590.179898504037
 30
0.0
  0
ENDBLK
  5
969
330
95E
100
AcDbEntity
  8
0
100
AcDbBlockEnd
  0
ENDSEC
  0
SECTION
  2
ENTITIES
  0
LINE
  5
134
330
1EA
100
AcDbEntity
  8
0
100
AcDbLine
 10
4009.793224306826
 20
2626.54760651997
 30
0.0
 11
4009.793224306826
 21
2626.54760651997
 31
0.0
  0
LINE
  5
138
330
1EA
100
AcDbEntity
  8
0
100
AcDbLine
 10
3894.623233794634
 20
2660.341708515721
 30
0.0
 11
3894.623233794634
 21
2660.341708515721
 31
0.0
  0
LINE
  5
13A
330
1EA
100
AcDbEntity
  8
0
100
AcDbLine
 10
3869.359264082176
 20
2660.341708515721
 30
0.0
 11
3869.359264082176
 21
2660.341708515721
 31
0.0
  0
LINE
  5
145
330
1EA
100
AcDbEntity
  8
0
100
AcDbLine
 10
3949.497665106406
 20
2725.466364930044
 30
0.0
 11
3949.497665106406
 21
2631.309207584279
 31
0.0
  0
LINE
  5
146
330
1EA
100
AcDbEntity
  8
0
100
AcDbLine
 10
3949.497665106406
 20
2631.309207584279
 30
0.0
 11
3949.497665106406
 21
2669.840378347692
 31
0.0
  0
LINE
  5
147
330
1EA
100
AcDbEntity
  8
0
100
AcDbLine
 10
3949.497665106406
 20
2669.840378347692
 30
0.0
 11
3833.500724849454
 21
2669.840378347692
 31
0.0
  0
LINE
  5
150
330
1EA
100
AcDbEntity
  8
0
  6
ACAD_ISO02W100
100
AcDbLine
 10
3808.508410243646
 20
2679.608844238295
 30
0.0
 11
4149.436183988963
 21
2679.608844238295
 31
0.0
  0
LINE
  5
153
330
1EA
100
AcDbEntity
  8
0
  6
Continuous
100
AcDbLine
 10
3833.500724849454
 20
2669.840378347692
 30
0.0
 11
3833.500724849454
 21
2669.840378347692
 31
0.0
  0
LINE
  5
155
330
1EA
100
AcDbEntity
  8
0
  6
Continuous
100
AcDbLine
 10
3808.508410243646
 20
2679.608844238295
 30
0.0
 11
3808.508410243646
 21
2704.572701559648
 31
0.0
  0
LINE
  5
156
330
1EA
100
AcDbEntity
  8
0
  6
Continuous
100
AcDbLine
 10
3808.508410243646
 20
2704.572701559648
 30
0.0
 11
3808.508410243646
 21
2679.608844238295
 31
0.0
  0
LINE
  5
157
330
1EA
100
AcDbEntity
  8
0
  6
Continuous
100
AcDbLine
 10
3808.508410243646
 20
2679.608844238295
 30
0.0
 11
3808.508410243646
 21
2654.644986916943
 31
0.0
  0
LINE
  5
158
330
1EA
100
AcDbEntity
  8
0
  6
Continuous
100
AcDbLine
 10
3833.500724849454
 20
2707.607230318709
 30
0.0
 11
3833.500724849454
 21
2651.60723031871
 31
0.0
  0
LINE
  5
159
330
1EA
100
AcDbEntity
  8
0
  6
Continuous
100
AcDbLine
 10
3808.508410243646
 20
2704.572701559648
 30
0.0
 11
3949.497665106406
 21
2725.466364930044
 31
0.0
  0
LINE
  5
15A
330
1EA
100
AcDbEntity
  8
0
  6
Continuous
100
AcDbLine
 10
3949.497665106406
 20
2631.309207584279
 30
0.0
 11
3879.682176459697
 21
2638.635556696001
 31
0.0
  0
LINE
  5
15B
330
1EA
100
AcDbEntity
  8
0
  6
Continuous
100
AcDbLine
 10
3879.682176459697
 20
2638.635556696001
 30
0.0
 11
3808.508410243646
 21
2654.644986916943
 31
0.0
  0
LINE
  5
15C
330
1EA
100
AcDbEntity
  8
0
  6
Continuous
100
AcDbLine
 10
3833.500724849454
 20
2651.60723031871
 30
0.0
 11
3833.500724849454
 21
2651.60723031871
 31
0.0
  0
LINE
  5
15D
330
1EA
100
AcDbEntity
  8
0
  6
Continuous
100
AcDbLine
 10
3833.500724849454
 20
2651.60723031871
 30
0.0
 11
3833.500724849454
 21
2649.0233549869
 31
0.0
  0
LINE
  5
15E
330
1EA
100
AcDbEntity
  8
0
  6
Continuous
100
AcDbLine
 10
3833.500724849454
 20
2649.0233549869
 30
0.0
 11
3833.500724849454
 21
2649.0233549869
 31
0.0
  0
LINE
  5
15F
330
1EA
100
AcDbEntity
  8
0
  6
ACAD_ISO02W100
100
AcDbLine
 10
3808.508410243646
 20
2679.608844238295
 30
0.0
 11
3780.052627409976
 21
2679.608844238295
 31
0.0
  0
LINE
  5
160
330
1EA
100
AcDbEntity
  8
0
  6
Continuous
100
AcDbLine
 10
3949.497665106406
 20
2725.466364930044
 30
0.0
 11
4129.424010753485
 21
2725.466364930044
 31
0.0
  0
LINE
  5
161
330
1EA
100
AcDbEntity
  8
0
  6
Continuous
100
AcDbLine
 10
4129.424010753485
 20
2725.466364930044
 30
0.0
 11
4129.424010753485
 21
2631.431736367808
 31
0.0
  0
LINE
  5
162
330
1EA
100
AcDbEntity
  8
0
  6
Continuous
100
AcDbLine
 10
4129.424010753485
 20
2631.431736367808
 30
0.0
 11
3949.497665106406
 21
2631.431736367808
 31
0.0
  0
LINE
  5
163
330
1EA
100
AcDbEntity
  8
0
  6
Continuous
100
AcDbLine
 10
3949.497665106406
 20
2631.431736367808
 30
0.0
 11
3949.497665106406
 21
2631.431736367808
 31
0.0
  0
LINE
  5
164
330
1EA
100
AcDbEntity
  8
0
  6
Continuous
100
AcDbLine
 10
3949.497665106406
 20
2669.840378347692
 30
0.0
 11
4129.424010753485
 21
2669.840378347692
 31
0.0
  0
LINE
  5
165
330
1EA
100
AcDbEntity
  8
0
  6
ACAD_ISO02W100
100
AcDbLine
 10
4149.436183988963
 20
2679.608844238295
 30
0.0
 11
4561.297271920497
 21
2679.608844238295
 31
0.0
  0
LINE
  5
166
330
1EA
100
AcDbEntity
  8
0
  6
ACAD_ISO02W100
100
AcDbLine
 10
4561.297271920497
 20
2679.608844238295
 30
0.0
 11
4561.297271920497
 21
2679.608844238295
 31
0.0
  0
LINE
  5
167
330
1EA
100
AcDbEntity
  8
0
  6
ACAD_ISO02W100
100
AcDbLine
 10
4129.424010753485
 20
2679.608844238295
 30
0.0
 11
4479.437530002932
 21
2679.608844238295
 31
0.0
  0
LINE
  5
168
330
1EA
100
AcDbEntity
  8
0
  6
ACAD_ISO02W100
100
AcDbLine
 10
4479.437530002932
 20
2679.608844238295
 30
0.0
 11
4479.437530002932
 21
2679.608844238295
 31
0.0
  0
LINE
  5
169
330
1EA
100
AcDbEntity
  8
0
  6
ACAD_ISO02W100
100
AcDbLine
 10
4479.437530002932
 20
2679.608844238295
 30
0.0
 11
4479.437530002932
 21
2689.981452690942
 31
0.0
  0
LINE
  5
16A
330
1EA
100
AcDbEntity
  8
0
  6
ACAD_ISO02W100
100
AcDbLine
 10
4479.437530002932
 20
2689.981452690942
 30
0.0
 11
4479.437530002932
 21
2689.981452690942
 31
0.0
  0
LINE
  5
16B
330
1EA
100
AcDbEntity
  8
0
  6
Continuous
100
AcDbLine
 10
4479.437530002932
 20
2679.608844238295
 30
0.0
 11
4479.437530002932
 21
2704.809580333467
 31
0.0
  0
LINE
  5
16C
330
1EA
100
AcDbEntity
  8
0
  6
Continuous
100
AcDbLine
 10
4479.437530002932
 20
2704.809580333467
 30
0.0
 11
4479.437530002932
 21
2704.809580333467
 31
0.0
  0
LINE
  5
16D
330
1EA
100
AcDbEntity
  8
0
  6
Continuous
100
AcDbLine
 10
4479.437530002932
 20
2704.809580333467
 30
0.0
 11
4479.437530002932
 21
2679.608844238295
 31
0.0
  0
LINE
  5
16E
330
1EA
100
AcDbEntity
  8
0
  6
Continuous
100
AcDbLine
 10
4479.437530002932
 20
2679.608844238295
 30
0.0
 11
4479.437530002932
 21
2654.393946430543
 31
0.0
  0
LINE
  5
16F
330
1EA
100
AcDbEntity
  8
0
  6
Continuous
100
AcDbLine
 10
4129.424010753485
 20
2725.466364930044
 30
0.0
 11
4479.437530002932
 21
2704.809580333467
 31
0.0
  0
LINE
  5
170
330
1EA
100
AcDbEntity
  8
0
  6
Continuous
100
AcDbLine
 10
4129.424010753485
 20
2631.431736367808
 30
0.0
 11
4479.437530002932
 21
2654.393946430543
 31
0.0
  0
LINE
  5
171
330
1EA
100
AcDbEntity
  8
0
  6
Continuous
100
AcDbLine
 10
4149.436183988963
 20
2679.608844238295
 30
0.0
 11
4235.777061360463
 21
2679.608844238295
 31
0.0
  0
LINE
  5
172
330
1EA
100
AcDbEntity
  8
0
  6
Continuous
100
AcDbLine
 10
4129.424010753485
 20
2725.466364930044
 30
0.0
 11
4129.424010753485
 21
2725.466364930044
 31
0.0
  0
LINE
  5
173
330
1EA
100
AcDbEntity
  8
0
  6
Continuous
100
AcDbLine
 10
4129.424010753485
 20
2725.466364930044
 30
0.0
 11
4129.424010753485
 21
2725.466364930044
 31
0.0
  0
LINE
  5
177
330
1EA
100
AcDbEntity
  8
0
  6
Continuous
100
AcDbLine
 10
4129.424010753485
 20
2725.466364930044
 30
0.0
 11
4129.424010753485
 21
2725.466364930044
 31
0.0
  0
LINE
  5
178
330
1EA
100
AcDbEntity
  8
0
  6
Continuous
100
AcDbLine
 10
4129.424010753485
 20
2725.466364930044
 30
0.0
 11
4129.424010753485
 21
2725.466364930044
 31
0.0
  0
LINE
  5
179
330
1EA
100
AcDbEntity
  8
0
  6
Continuous
100
AcDbLine
 10
4129.424010753485
 20
2725.466364930044
 30
0.0
 11
4129.424010753485
 21
2725.466364930044
 31
0.0
  0
LINE
  5
17A
330
1EA
100
AcDbEntity
  8
0
  6
Continuous
100
AcDbLine
 10
4129.424010753485
 20
2725.466364930044
 30
0.0
 11
4129.424010753485
 21
2725.466364930044
 31
0.0
  0
LINE
  5
17B
330
1EA
100
AcDbEntity
  8
0
  6
Continuous
100
AcDbLine
 10
4129.424010753485
 20
2725.466364930044
 30
0.0
 11
4129.424010753485
 21
2725.466364930044
 31
0.0
  0
LINE
  5
17C
330
1EA
100
AcDbEntity
  8
0
  6
Continuous
100
AcDbLine
 10
4129.424010753485
 20
2725.466364930044
 30
0.0
 11
4129.424010753485
 21
2725.466364930044
 31
0.0
  0
LINE
  5
17D
330
1EA
100
AcDbEntity
  8
0
  6
Continuous
100
AcDbLine
 10
4129.424010753485
 20
2725.466364930044
 30
0.0
 11
4129.424010753485
 21
2725.466364930044
 31
0.0
  0
LINE
  5
17E
330
1EA
100
AcDbEntity
  8
0
  6
Continuous
100
AcDbLine
 10
4129.424010753485
 20
2725.466364930044
 30
0.0
 11
4129.424010753485
 21
2725.466364930044
 31
0.0
  0
LINE
  5
17F
330
1EA
100
AcDbEntity
  8
0
  6
Continuous
100
AcDbLine
 10
4129.424010753485
 20
2725.466364930044
 30
0.0
 11
4129.424010753485
 21
2725.466364930044
 31
0.0
  0
LINE
  5
180
330
1EA
100
AcDbEntity
  8
0
  6
Continuous
100
AcDbLine
 10
4129.424010753485
 20
2725.466364930044
 30
0.0
 11
4129.424010753485
 21
2725.466364930044
 31
0.0
  0
LINE
  5
184
330
1EA
100
AcDbEntity
  8
0
  6
Continuous
100
AcDbLine
 10
4235.777061360463
 20
2679.608844238295
 30
0.0
 11
4221.078111396399
 21
2679.608844238295
 31
0.0
  0
LINE
  5
203
330
1EA
100
AcDbEntity
  8
0
  6
Continuous
100
AcDbLine
 10
4247.779017419026
 20
2718.201298241787
 30
0.0
 11
4247.779017419026
 21
2639.708172156494
 31
0.0
  0
LINE
  5
204
330
1EA
100
AcDbEntity
  8
0
  6
Continuous
100
AcDbLine
 10
4353.865533824239
 20
2709.399450206229
 30
0.0
 11
4353.865533824239
 21
2645.296729449017
 31
0.0
  0
LINE
  5
205
330
1EA
100
AcDbEntity
  8
0
  6
Continuous
100
AcDbLine
 10
4353.865533824239
 20
2709.399450206229
 30
0.0
 11
4353.865533824239
 21
2712.220476009691
 31
0.0
  0
LINE
  5
20D
330
1EA
100
AcDbEntity
  8
0
  6
Continuous
100
AcDbLine
 10
4138.966427987318
 20
2710.733334098882
 30
0.0
 11
4138.966427987318
 21
2642.522131023758
 31
0.0
  0
LINE
  5
20E
330
1EA
100
AcDbEntity
  8
0
  6
Continuous
100
AcDbLine
 10
4138.966427987318
 20
2642.522131023758
 30
0.0
 11
4232.156337073035
 21
2648.551849932351
 31
0.0
  0
LINE
  5
20F
330
1EA
100
AcDbEntity
  8
0
  6
Continuous
100
AcDbLine
 10
4148.775894307987
 20
2714.501908740086
 30
0.0
 11
4237.815641961153
 21
2709.225905018401
 31
0.0
  0
LINE
  5
210
330
1EA
100
AcDbEntity
  8
0
  6
Continuous
100
AcDbLine
 10
4237.815641961153
 20
2709.225905018401
 30
0.0
 11
4237.815641961153
 21
2656.842714401666
 31
0.0
  0
LINE
  5
211
330
1EA
100
AcDbEntity
  8
0
  6
Continuous
100
AcDbLine
 10
4237.815641961153
 20
2656.842714401666
 30
0.0
 11
4148.775894307987
 21
2714.501908740086
 31
0.0
  0
LINE
  5
212
330
1EA
100
AcDbEntity
  8
0
  6
Continuous
100
AcDbLine
 10
4232.156337073035
 20
2648.551849932351
 30
0.0
 11
4138.966427987318
 21
2710.733334098882
 31
0.0
  0
LINE
  5
219
330
1EA
100
AcDbEntity
  8
0
  6
Continuous
100
AcDbLine
 10
4336.287570877277
 20
2702.442469629567
 30
0.0
 11
4259.321006340484
 21
2708.472189831494
 31
0.0
  0
LINE
  5
21A
330
1EA
100
AcDbEntity
  8
0
  6
Continuous
100
AcDbLine
 10
4259.321006340484
 20
2708.472189831494
 30
0.0
 11
4259.321006340484
 21
2708.472189831494
 31
0.0
  0
LINE
  5
21B
330
1EA
100
AcDbEntity
  8
0
  6
Continuous
100
AcDbLine
 10
4259.321006340484
 20
2708.472189831494
 30
0.0
 11
4259.321006340484
 21
2650.812995493073
 31
0.0
  0
LINE
  5
21C
330
1EA
100
AcDbEntity
  8
0
  6
Continuous
100
AcDbLine
 10
4259.321006340484
 20
2650.812995493073
 30
0.0
 11
4336.287570877277
 21
2702.442469629567
 31
0.0
  0
LINE
  5
21E
330
1EA
100
AcDbEntity
  8
0
  6
Continuous
100
AcDbLine
 10
4343.456025670387
 20
2695.659035534067
 30
0.0
 11
4343.456025670387
 21
2654.204711894156
 31
0.0
  0
LINE
  5
21F
330
1EA
100
AcDbEntity
  8
0
  6
Continuous
100
AcDbLine
 10
4343.456025670387
 20
2654.204711894156
 30
0.0
 11
4269.885046001292
 21
2648.551849932351
 31
0.0
  0
LINE
  5
220
330
1EA
100
AcDbEntity
  8
0
  6
Continuous
100
AcDbLine
 10
4269.885046001292
 20
2648.551849932351
 30
0.0
 11
4343.456025670387
 21
2695.659035534067
 31
0.0
  0
LINE
  5
221
330
1EA
100
AcDbEntity
  8
0
  6
Continuous
100
AcDbLine
 10
4364.293567958511
 20
2702.445340831904
 30
0.0
 11
4468.047513480324
 21
2696.415620629978
 31
0.0
  0
LINE
  5
222
330
1EA
100
AcDbEntity
  8
0
  6
Continuous
100
AcDbLine
 10
4468.047513480324
 20
2696.415620629978
 30
0.0
 11
4468.047513480324
 21
2663.629019699503
 31
0.0
  0
LINE
  5
223
330
1EA
100
AcDbEntity
  8
0
  6
Continuous
100
AcDbLine
 10
4468.047513480324
 20
2663.629019699503
 30
0.0
 11
4364.293567958511
 21
2702.445340831904
 31
0.0
  0
LINE
  5
224
330
1EA
100
AcDbEntity
  8
0
  6
Continuous
100
AcDbLine
 10
4363.161706335944
 20
2693.400761175682
 30
0.0
 11
4363.161706335944
 21
2654.584440043282
 31
0.0
  0
LINE
  5
225
330
1EA
100
AcDbEntity
  8
0
  6
Continuous
100
AcDbLine
 10
4363.161706335944
 20
2654.584440043282
 30
0.0
 11
4451.824168931397
 21
2660.991017191995
 31
0.0
  0
LINE
  5
226
330
1EA
100
AcDbEntity
  8
0
  6
Continuous
100
AcDbLine
 10
4451.824168931397
 20
2660.991017191995
 30
0.0
 11
4363.161706335944
 21
2693.400761175682
 31
0.0
  0
LINE
  5
228
330
1EA
100
AcDbEntity
  8
0
  6
Continuous
100
AcDbLine
 10
4578.901898133124
 20
2682.704576694943
 30
0.0
 11
4578.901898133124
 21
2682.704576694943
 31
0.0
  0
LINE
  5
22E
330
1EA
100
AcDbEntity
  8
0
  6
Continuous
100
AcDbLine
 10
4481.331431492539
 20
2677.048679277332
 30
0.0
 11
4577.966031386732
 21
2677.048679277332
 31
0.0
  0
LINE
  5
232
330
1EA
100
AcDbEntity
  8
0
  6
Continuous
100
AcDbLine
 10
4481.331431492539
 20
2682.28036301627
 30
0.0
 11
4578.901898133124
 21
2682.28036301627
 31
0.0
  0
LINE
  5
233
330
1EA
100
AcDbEntity
  8
0
  6
Continuous
100
AcDbLine
 10
4578.901898133124
 20
2682.28036301627
 30
0.0
 11
4578.901898133124
 21
2682.28036301627
 31
0.0
  0
LINE
  5
234
330
1EA
100
AcDbEntity
  8
0
  6
Continuous
100
AcDbLine
 10
4578.901898133124
 20
2682.28036301627
 30
0.0
 11
4578.901898133124
 21
2677.048679277332
 31
0.0
  0
LINE
  5
235
330
1EA
100
AcDbEntity
  8
0
  6
Continuous
100
AcDbLine
 10
4577.966031386732
 20
2677.048679277332
 30
0.0
 11
4578.901898133124
 21
2677.048679277332
 31
0.0
  0
LINE
  5
236
330
1EA
100
AcDbEntity
  8
0
  6
Continuous
100
AcDbLine
 10
4481.331431492539
 20
2682.28036301627
 30
0.0
 11
4479.437530002932
 21
2682.28036301627
 31
0.0
  0
LINE
  5
237
330
1EA
100
AcDbEntity
  8
0
  6
Continuous
100
AcDbLine
 10
4481.331431492539
 20
2677.048679277332
 30
0.0
 11
4479.437530002932
 21
2677.048679277332
 31
0.0
  0
LINE
  5
238
330
1EA
100
AcDbEntity
  8
0
  6
ACAD_ISO02W100
100
AcDbLine
 10
4561.297271920497
 20
2679.608844238295
 30
0.0
 11
4599.440386918775
 21
2679.608844238295
 31
0.0
  0
LINE
  5
23B
330
1EA
100
AcDbEntity
  8
0
  6
Continuous
100
AcDbLine
 10
4578.901898133124
 20
2679.608844238295
 30
0.0
 11
4578.901898133124
 21
2699.675710510574
 31
0.0
  0
LINE
  5
23C
330
1EA
100
AcDbEntity
  8
0
  6
Continuous
100
AcDbLine
 10
4578.901898133124
 20
2699.675710510574
 30
0.0
 11
4578.901898133124
 21
2699.675710510574
 31
0.0
  0
LINE
  5
23D
330
1EA
100
AcDbEntity
  8
0
  6
Continuous
100
AcDbLine
 10
4578.901898133124
 20
2699.675710510574
 30
0.0
 11
4479.437530002932
 21
2704.809580333467
 31
0.0
  0
LINE
  5
23E
330
1EA
100
AcDbEntity
  8
0
  6
Continuous
100
AcDbLine
 10
4578.901898133124
 20
2679.608844238295
 30
0.0
 11
4578.901898133124
 21
2659.522538169887
 31
0.0
  0
LINE
  5
23F
330
1EA
100
AcDbEntity
  8
0
  6
Continuous
100
AcDbLine
 10
4578.901898133124
 20
2659.522538169887
 30
0.0
 11
4479.437530002932
 21
2654.393946430543
 31
0.0
  0
LINE
  5
392
330
1EA
100
AcDbEntity
  8
0
  6
Continuous
100
AcDbLine
 10
3808.550939826684
 20
2539.132698244549
 30
0.0
 11
3808.550939826684
 21
2492.805729544647
 31
0.0
  0
LINE
  5
393
330
1EA
100
AcDbEntity
  8
0
  6
Continuous
100
AcDbLine
 10
3808.550939826684
 20
2492.805729544647
 30
0.0
 11
4129.448865978766
 21
2492.805729544647
 31
0.0
  0
LINE
  5
394
330
1EA
100
AcDbEntity
  8
0
  6
Continuous
100
AcDbLine
 10
4129.448865978766
 20
2492.805729544647
 30
0.0
 11
4129.448865978766
 21
2539.132698244549
 31
0.0
  0
LINE
  5
395
330
1EA
100
AcDbEntity
  8
0
  6
Continuous
100
AcDbLine
 10
4129.448865978766
 20
2539.132698244549
 30
0.0
 11
3808.550939826684
 21
2539.132698244549
 31
0.0
  0
LINE
  5
397
330
1EA
100
AcDbEntity
  8
0
  6
Continuous
100
AcDbLine
 10
4578.204563461802
 20
2505.952573167053
 30
0.0
 11
4578.204563461802
 21
2525.985855915478
 31
0.0
  0
LINE
  5
398
330
1EA
100
AcDbEntity
  8
0
  6
Continuous
100
AcDbLine
 10
4578.204563461802
 20
2525.985855915478
 30
0.0
 11
4129.448865978766
 21
2539.132698244549
 31
0.0
  0
LINE
  5
399
330
1EA
100
AcDbEntity
  8
0
  6
Continuous
100
AcDbLine
 10
4578.204563461802
 20
2505.952573167053
 30
0.0
 11
4129.448865978766
 21
2492.805729544647
 31
0.0
  0
LINE
  5
39A
330
1EA
100
AcDbEntity
  8
0
  6
Continuous
100
AcDbLine
 10
3808.550939826684
 20
2492.805729544647
 30
0.0
 11
3833.621089803454
 21
2492.805729544647
 31
0.0
  0
LINE
  5
39B
330
1EA
100
AcDbEntity
  8
0
  6
Continuous
100
AcDbLine
 10
3833.621089803454
 20
2492.805729544647
 30
0.0
 11
3833.621089803454
 21
2539.132698244549
 31
0.0
  0
LINE
  5
39C
330
1EA
100
AcDbEntity
  8
0
  6
Continuous
100
AcDbLine
 10
3808.550939826684
 20
2492.805729544647
 30
0.0
 11
3948.94378292131
 21
2492.805729544647
 31
0.0
  0
LINE
  5
39D
330
1EA
100
AcDbEntity
  8
0
  6
Continuous
100
AcDbLine
 10
3948.94378292131
 20
2492.805729544647
 30
0.0
 11
3948.94378292131
 21
2539.132698244549
 31
0.0
  0
LINE
  5
3A2
330
1EA
100
AcDbEntity
  8
0
  6
Continuous
100
AcDbLine
 10
4248.532081593137
 20
2535.644011040126
 30
0.0
 11
4248.532081593137
 21
2535.644011040126
 31
0.0
  0
LINE
  5
3A3
330
1EA
100
AcDbEntity
  8
0
  6
Continuous
100
AcDbLine
 10
4248.532081593137
 20
2535.644011040126
 30
0.0
 11
4248.532081593137
 21
2496.294417092274
 31
0.0
  0
LINE
  5
3A4
330
1EA
100
AcDbEntity
  8
0
  6
Continuous
100
AcDbLine
 10
4352.634225254763
 20
2524.184697662549
 30
0.0
 11
4352.634225254763
 21
2532.594212504946
 31
0.0
  0
LINE
  5
3A5
330
1EA
100
AcDbEntity
  8
0
  6
Continuous
100
AcDbLine
 10
4352.634225254763
 20
2532.594212504946
 30
0.0
 11
4352.634225254763
 21
2499.344215927481
 31
0.0
  0
LINE
  5
3A6
330
1EA
100
AcDbEntity
  8
0
  6
Continuous
100
AcDbLine
 10
4478.41864109129
 20
2518.165957869561
 30
0.0
 11
4478.41864109129
 21
2528.909205513989
 31
0.0
  0
LINE
  5
3A7
330
1EA
100
AcDbEntity
  8
0
  6
Continuous
100
AcDbLine
 10
4478.41864109129
 20
2528.909205513989
 30
0.0
 11
4478.41864109129
 21
2503.029223280955
 31
0.0
  0
LINE
  5
3A8
330
1EA
100
AcDbEntity
  8
0
  6
Continuous
100
AcDbLine
 10
3948.94378292131
 20
2492.805729544647
 30
0.0
 11
3948.94378292131
 21
2492.805729544647
 31
0.0
  0
LINE
  5
3A9
330
1EA
100
AcDbEntity
  8
0
  6
Continuous
100
AcDbLine
 10
3948.94378292131
 20
2492.805729544647
 30
0.0
 11
3948.94378292131
 21
2492.805729544647
 31
0.0
  0
LINE
  5
3B5
330
1EA
100
AcDbEntity
  8
0
  6
Continuous
100
AcDbLine
 10
3808.550939826684
 20
2495.654625743839
 30
0.0
 11
4129.448865978766
 21
2495.654625743839
 31
0.0
  0
LINE
  5
3B6
330
1EA
100
AcDbEntity
  8
0
  6
Continuous
100
AcDbLine
 10
3808.550939826684
 20
2536.351118806825
 30
0.0
 11
4129.448865978766
 21
2536.351118806825
 31
0.0
  0
LINE
  5
3B7
330
1EA
100
AcDbEntity
  8
0
  6
Continuous
100
AcDbLine
 10
3948.94378292131
 20
2492.805729544647
 30
0.0
 11
3948.94378292131
 21
2500.643227284893
 31
0.0
  0
LINE
  5
3B8
330
1EA
100
AcDbEntity
  8
0
  6
Continuous
100
AcDbLine
 10
3948.94378292131
 20
2500.643227284893
 30
0.0
 11
4129.448865978766
 21
2500.643227284893
 31
0.0
  0
LINE
  5
3B9
330
1EA
100
AcDbEntity
  8
0
  6
Continuous
100
AcDbLine
 10
3948.94378292131
 20
2539.132698244549
 30
0.0
 11
3948.94378292131
 21
2531.625074492844
 31
0.0
  0
LINE
  5
3BA
330
1EA
100
AcDbEntity
  8
0
  6
Continuous
100
AcDbLine
 10
3948.94378292131
 20
2531.625074492844
 30
0.0
 11
4129.448865978766
 21
2531.625074492844
 31
0.0
  0
LINE
  5
3BB
330
1EA
100
AcDbEntity
  8
0
  6
Continuous
100
AcDbLine
 10
4129.448865978766
 20
2536.351118806825
 30
0.0
 11
4433.635754775308
 21
2527.122078627105
 31
0.0
  0
LINE
  5
3BE
330
1EA
100
AcDbEntity
  8
0
  6
Continuous
100
AcDbLine
 10
4129.448865978766
 20
2495.654625743839
 30
0.0
 11
4381.14290683677
 21
2503.029223280955
 31
0.0
  0
LINE
  5
3BF
330
1EA
100
AcDbEntity
  8
0
  6
Continuous
100
AcDbLine
 10
4381.14290683677
 20
2503.029223280955
 30
0.0
 11
4478.41864109129
 21
2505.879387662318
 31
0.0
  0
LINE
  5
3C1
330
1EA
100
AcDbEntity
  8
0
  6
Continuous
100
AcDbLine
 10
4433.635754775308
 20
2527.122078627105
 30
0.0
 11
4578.204563461802
 21
2522.735856231458
 31
0.0
  0
LINE
  5
3C2
330
1EA
100
AcDbEntity
  8
0
  6
Continuous
100
AcDbLine
 10
4478.41864109129
 20
2505.879387662318
 30
0.0
 11
4578.204563461802
 21
2508.803100177894
 31
0.0
  0
LINE
  5
3C3
330
1EA
100
AcDbEntity
  8
0
  6
Continuous
100
AcDbLine
 10
4129.448865978766
 20
2500.643227284893
 30
0.0
 11
4578.204563461802
 21
2512.601380206291
 31
0.0
  0
LINE
  5
3C4
330
1EA
100
AcDbEntity
  8
0
  6
Continuous
100
AcDbLine
 10
4129.448865978766
 20
2531.625074492844
 30
0.0
 11
4578.204563461802
 21
2518.182337949562
 31
0.0
  0
LINE
  5
3C5
330
1EA
100
AcDbEntity
  8
0
  6
Continuous
100
AcDbLine
 10
3948.94378292131
 20
2531.625074492844
 30
0.0
 11
3833.621089803454
 21
2531.625074492844
 31
0.0
  0
LINE
  5
3C6
330
1EA
100
AcDbEntity
  8
0
  6
Continuous
100
AcDbLine
 10
3948.94378292131
 20
2500.643227284893
 30
0.0
 11
3833.621089803454
 21
2500.643227284893
 31
0.0
  0
DIMENSION
  5
877
330
1EA
100
AcDbEntity
  8
0
  6
Continuous
100
AcDbDimension
  2
*D31
 10
3786.543358189898
 20
2653.70285010709
 30
0.0
 11
3771.543358189898
 21
2678.845517376533
 31
0.0
 70
    32
 71
     5
 42
50.28533453888667
  3
Copia di ISO-25
100
AcDbAlignedDimension
 13
3776.30420441684
 23
2703.988184645977
 33
0.0
 14
3776.30420441684
 24
2653.70285010709
 34
0.0
 50
90.0
100
AcDbRotatedDimension
  0
DIMENSION
  5
884
330
1EA
100
AcDbEntity
  8
0
  6
Continuous
100
AcDbDimension
  2
*D32
 10
4577.520669168211
 20
2750.012086619638
 30
0.0
 11
4192.697798859284
 21
2765.012086619638
 31
0.0
 70
    32
 71
     5
 42
769.6457406178523
  3
Copia di ISO-25
100
AcDbAlignedDimension
 13
3807.874928550358
 23
2739.784510162266
 33
0.0
 14
4577.520669168211
 24
2739.784510162266
 34
0.0
100
AcDbRotatedDimension
  0
DIMENSION
  5
891
330
1EA
100
AcDbEntity
  8
0
  6
Continuous
100
AcDbDimension
  2
*D33
 10
4632.129680863291
 20
2659.668840331637
 30
0.0
 11
4617.129680863288
 21
2679.697757789298
 31
0.0
 70
    32
 71
     5
 42
40.05783491532201
  3
Copia di ISO-25
100
AcDbAlignedDimension
 13
4609.944656116131
 23
2699.726675246959
 33
0.0
 14
4609.944656116131
 24
2659.668840331637
 34
0.0
 50
90.0
100
AcDbRotatedDimension
  0
DIMENSION
  5
89E
330
1EA
100
AcDbEntity
  8
0
  6
Continuous
100
AcDbDimension
  2
*D34
 10
3878.575626344625
 20
2598.997959060536
 30
0.0
 11
3843.533134057914
 21
2613.997959060537
 31
0.0
 70
    32
 71
     5
 42
70.08498457341921
  3
Copia di ISO-25
100
AcDbAlignedDimension
 13
3808.490641771205
 23
2609.93624808715
 33
0.0
 14
3878.575626344625
 24
2609.93624808715
 34
0.0
100
AcDbRotatedDimension
  0
DIMENSION
  5
8AB
330
1EA
100
AcDbEntity
  8
0
  6
Continuous
100
AcDbDimension
  2
*D35
 10
3948.660802490282
 20
2598.268729547592
 30
0.0
 11
3913.618214417454
 21
2613.268729547592
 31
0.0
 70
    32
 71
     5
 42
70.08517614565789
  3
Copia di ISO-25
100
AcDbAlignedDimension
 13
3878.575626344625
 23
2598.997959060536
 33
0.0
 14
3948.660802490282
 24
2598.997959060536
 34
0.0
100
AcDbRotatedDimension
  0
DIMENSION
  5
8B8
330
1EA
100
AcDbEntity
  8
0
  6
Continuous
100
AcDbDimension
  2
*D36
 10
4129.713631411898
 20
2598.268729547592
 30
0.0
 11
4039.552162092863
 21
2613.268729547592
 31
0.0
 70
    32
 71
     5
 42
180.3229386380699
  3
Copia di ISO-25
100
AcDbAlignedDimension
 13
3949.390692773828
 23
2608.47778906126
 33
0.0
 14
4129.713631411898
 24
2608.47778906126
 34
0.0
100
AcDbRotatedDimension
  0
DIMENSION
  5
8C5
330
1EA
100
AcDbEntity
  8
0
  6
Continuous
100
AcDbDimension
  2
*D37
 10
4480.138937423471
 20
2598.268729547592
 30
0.0
 11
4304.926284417684
 21
2613.268729547592
 31
0.0
 70
    32
 71
     5
 42
350.4253060115734
  3
Copia di ISO-25
100
AcDbAlignedDimension
 13
4129.713631411898
 23
2609.93624808715
 33
0.0
 14
4480.138937423471
 24
2609.93624808715
 34
0.0
100
AcDbRotatedDimension
  0
DIMENSION
  5
941
330
1EA
100
AcDbEntity
  8
0
  6
Continuous
100
AcDbDimension
  2
*D39
 10
3770.615083222452
 20
2491.93667863142
 30
0.0
 11
3755.615083222452
 21
2515.167221754412
 31
0.0
 70
    32
 71
     5
 42
46.46108624598126
  3
Copia di ISO-25
100
AcDbAlignedDimension
 13
3779.81553224026
 23
2538.397764877402
 33
0.0
 14
3779.81553224026
 24
2491.93667863142
 34
0.0
 50
90.0
100
AcDbRotatedDimension
  0
DIMENSION
  5
94E
330
1EA
100
AcDbEntity
  8
0
  6
Continuous
100
AcDbDimension
  2
*D40
 10
4602.022951886436
 20
2505.709212550414
 30
0.0
 11
4633.272951886435
 21
2515.920423410237
 31
0.0
 70
    32
 71
     5
 42
20.42242171964608
  3
Copia di ISO-25
100
AcDbAlignedDimension
 13
4589.755431099706
 23
2526.131634270059
 33
0.0
 14
4589.755431099706
 24
2505.709212550414
 34
0.0
 50
90.0
100
AcDbRotatedDimension
  0
DIMENSION
  5
95D
330
1EA
100
AcDbEntity
  8
0
  6
Continuous
100
AcDbDimension
  2
*D41
 10
4579.51378688737
 20
2590.179898504037
 30
0.0
 11
4529.604808844946
 21
2605.179898504037
 31
0.0
 70
    32
 71
     5
 42
99.8179560848512
  3
Copia di ISO-25
100
AcDbAlignedDimension
 13
4479.69583080252
 23
2600.71780664433
 33
0.0
 14
4579.51378688737
 24
2600.71780664433
 34
0.0
100
AcDbRotatedDimension
  0
TEXT
  5
96A
330
1EA
100
AcDbEntity
  8
0
  6
Continuous
100
AcDbText
 10
3679.393931986532
 20
2617.731266712901
 30
0.0
 40
10.0
  1
Balsa 
100
AcDbText
  0
TEXT
  5
96B
330
1EA
100
AcDbEntity
  8
0
  6
Continuous
100
AcDbText
 10
3679.393931986532
 20
2601.064600046234
 30
0.0
 40
10.0
  1
3 mm
100
AcDbText
  0
LEADER
  5
96C
330
1EA
100
AcDbEntity
  8
0
  6
Continuous
100
AcDbLeader
  3
Copia di ISO-25
 73
     0
 74
     0
 75
     1
 40
43.33333333333334
 41
48.33333333333334
 76
     3
 10
4092.506276881264
 20
2531.884794892802
 30
0.0
 10
4123.499428572657
 20
2461.039198812723
 30
0.0
 10
4125.999428572657
 20
2461.039198812723
 30
0.0
340
96D
213
0.0
223
-5.0
233
0.0
1001
ACAD
1000
DSTYLE
1002
{
1070
   147
1040
10.0
1070
    77
1070
     0
1002
}
  0
MTEXT
  5
96D
102
{ACAD_REACTORS
330
96C
102
}
330
1EA
100
AcDbEntity
  8
0
  6
Continuous
100
AcDbMText
 10
4135.999428572657
 20
2466.039198812723
 30
0.0
 40
10.0
 41
5.0
 71
     1
 72
     1
  1
\A1;listelli 5x5 mm
 73
     1
 44
1.0
1001
ACAD
1000
MTEXTBEGIN
1070
    73
1070
     1
1070
    44
1040
1.0
1070
    74
1070
     0
1000
MTEXTEND
  0
LEADER
  5
96E
330
1EA
100
AcDbEntity
  8
0
  6
Continuous
100
AcDbLeader
  3
Copia di ISO-25
 73
     0
 74
     0
 75
     1
 40
16.66666666666667
 76
     3
 10
4042.595191544068
 20
2501.053853137346
 30
0.0
 10
4122.185817634512
 20
2459.727261826789
 30
0.0
 10
4124.685817634511
 20
2459.727261826789
 30
0.0
340
96F
213
0.0
223
-5.0
233
0.0
1001
ACAD
1000
DSTYLE
1002
{
1070
   147
1040
10.0
1070
    77
1070
     0
1002
}
  0
MTEXT
  5
96F
102
{ACAD_REACTORS
330
96E
102
}
330
1EA
100
AcDbEntity
  8
0
  6
Continuous
100
AcDbMText
 10
4134.685817634511
 20
2464.727261826789
 30
0.0
 40
10.0
 41
0.0
 71
     1
 72
     1
  1
\A1;
 73
     1
 44
1.0
1001
ACAD
1000
MTEXTBEGIN
1070
    73
1070
     1
1070
    44
1040
1.0
1070
    74
1070
     0
1000
MTEXTEND
  0
TEXT
  5
970
330
1EA
100
AcDbEntity
  8
0
  6
Continuous
100
AcDbText
 10
3833.75653148949
 20
2730.645975862368
 30
0.0
 40
10.0
  1
1
100
AcDbText
  0
TEXT
  5
971
330
1EA
100
AcDbEntity
  8
0
  6
Continuous
100
AcDbText
 10
3949.997018954251
 20
2730.645975862368
 30
0.0
 40
10.0
  1
2
100
AcDbText
  0
TEXT
  5
972
330
1EA
100
AcDbEntity
  8
0
  6
Continuous
100
AcDbText
 10
4129.939686670318
 20
2729.990045786297
 30
0.0
 40
10.0
  1
3
100
AcDbText
  0
TEXT
  5
973
330
1EA
100
AcDbEntity
  8
0
  6
Continuous
100
AcDbText
 10
4247.493593500956
 20
2729.990045786297
 30
0.0
 40
10.0
  1
4
100
AcDbText
  0
TEXT
  5
974
330
1EA
100
AcDbEntity
  8
0
  6
Continuous
100
AcDbText
 10
4352.569633211184
 20
2729.990045786297
 30
0.0
 40
10.0
  1
5
100
AcDbText
  0
TEXT
  5
975
330
1EA
100
AcDbEntity
  8
0
  6
Continuous
100
AcDbText
 10
4479.97437685824
 20
2729.990045786297
 30
0.0
 40
10.0
  1
6
100
AcDbText
  0
TEXT
  5
976
330
1EA
100
AcDbEntity
  8
0
  6
Continuous
100
AcDbText
 10
4578.601519819058
 20
2719.493090056742
 30
0.0
 40
10.0
  1
7
100
AcDbText
  0
ENDSEC
  0
SECTION
  2
OBJECTS
  0
DICTIONARY
  5
1C0
330
0
100
AcDbDictionary
281
     1
  3
ACAD_COLOR
350
1E3
  3
ACAD_GROUP
350
1C1
  3
ACAD_LAYOUT
350
1E2
  3
ACAD_MATERIAL
350
1C4
  3
ACAD_MLINESTYLE
350
1DF
  3
ACAD_PLOTSETTINGS
350
1E1
  3
ACAD_PLOTSTYLENAME
350
1C2
  3
ACAD_TABLESTYLE
350
1E4
  3
ACAD_VISUALSTYLE
350
1C8
  3
AcDbVariableDictionary
350
207
  3
DWGPROPS
350
981
  0
DICTIONARY
  5
3EF
330
1EA
100
AcDbDictionary
280
     1
281
     1
  3
ACAD_SORTENTS
360
3F0
  0
DICTIONARY
  5
1E3
102
{ACAD_REACTORS
330
1C0
102
}
330
1C0
100
AcDbDictionary
281
     1
  0
DICTIONARY
  5
1C1
102
{ACAD_REACTORS
330
1C0
102
}
330
1C0
100
AcDbDictionary
281
     1
  0
DICTIONARY
  5
1E2
102
{ACAD_REACTORS
330
1C0
102
}
330
1C0
100
AcDbDictionary
281
     1
  3
Layout1
350
1E9
  3
Model
350
1ED
  0
DICTIONARY
  5
1C4
102
{ACAD_REACTORS
330
1C0
102
}
330
1C0
100
AcDbDictionary
281
     1
  3
ByBlock
350
1C6
  3
ByLayer
350
1C5
  3
Global
350
1C7
  0
DICTIONARY
  5
1DF
102
{ACAD_REACTORS
330
1C0
102
}
330
1C0
100
AcDbDictionary
281
     1
  3
Standard
350
1E0
  0
DICTIONARY
  5
1E1
102
{ACAD_REACTORS
330
1C0
102
}
330
1C0
100
AcDbDictionary
281
     1
  0
ACDBDICTIONARYWDFLT
  5
1C2
102
{ACAD_REACTORS
330
1C0
102
}
330
1C0
100
AcDbDictionary
281
     1
  3
Normal
350
1C3
100
AcDbDictionaryWithDefault
340
1C3
  0
DICTIONARY
  5
1E4
102
{ACAD_REACTORS
330
1C0
102
}
330
1C0
100
AcDbDictionary
281
     1
  3
Standard
350
1E5
  0
DICTIONARY
  5
1C8
102
{ACAD_REACTORS
330
1C0
102
}
330
1C0
100
AcDbDictionary
281
     1
  3
2dWireframe
350
1CE
  3
3D Hidden
350
1D0
  3
3dWireframe
350
1CF
  3
Basic
350
1CD
  3
Brighten
350
1D4
  3
ColorChange
350
1D8
  3
Conceptual
350
1D1
  3
Dim
350
1D3
  3
Facepattern
350
1D7
  3
Flat
350
1C9
  3
FlatWithEdges
350
1CA
  3
Gouraud
350
1CB
  3
GouraudWithEdges
350
1CC
  3
Linepattern
350
1D6
  3
Realistic
350
1D2
  3
Thicken
350
1D5
  0
DICTIONARY
  5
207
102
{ACAD_REACTORS
330
1C0
102
}
330
1C0
100
AcDbDictionary
281
     1
  3
CTABLESTYLE
350
208
  3
DIMASSOC
350
97E
  3
INDEXCTL
350
97D
  3
LOFTANG1
350
97F
  3
LOFTANG2
350
980
  3
SORTENTS
350
97C
  0
XRECORD
  5
981
102
{ACAD_REACTORS
330
1C0
102
}
330
1C0
100
AcDbXrecord
280
     1
  1
DWGPROPS COOKIE
  2

  3

  4

  6

  7

  8
Paolo
  9

300
=
301
=
302
=
303
=
304
=
305
=
306
=
307
=
308
=
309
=
 40
0.2328726041666667
 41
2455316.660349607
 42
2455319.984718784
  1

 90
        0
  0
SORTENTSTABLE
  5
3F0
102
{ACAD_REACTORS
330
3EF
102
}
330
3EF
100
AcDbSortentsTable
330
1EA
331
21B
  5
21C
331
167
  5
168
331
158
  5
159
331
159
  5
15A
331
3BE
  5
3C5
331
232
  5
233
331
20D
  5
20E
331
177
  5
178
331
168
  5
169
331
21C
  5
21E
331
178
  5
179
331
15A
  5
15B
331
3BF
  5
3C6
331
233
  5
234
331
392
  5
393
331
20E
  5
20F
331
169
  5
16A
331
134
  5
138
331
179
  5
17A
331
15B
  5
15C
331
3A2
  5
3A8
331
21E
  5
21F
331
16A
  5
16B
331
20F
  5
210
331
393
  5
394
331
234
  5
235
331
210
  5
211
331
17A
  5
17B
331
3C1
  5
3C7
331
3A3
  5
3A9
331
235
  5
236
331
21F
  5
220
331
16B
  5
16C
331
15C
  5
15D
331
394
  5
395
331
145
  5
146
331
211
  5
212
331
17B
  5
17C
331
15D
  5
15E
331
3C2
  5
3C8
331
3A4
  5
3B5
331
220
  5
221
331
16C
  5
16D
331
146
  5
147
331
395
  5
397
331
236
  5
237
331
228
  5
22E
331
212
  5
219
331
17C
  5
17D
331
138
  5
13A
331
3C3
  5
3C9
331
3A5
  5
3B6
331
237
  5
238
331
221
  5
222
331
203
  5
204
331
16D
  5
16E
331
15E
  5
15F
331
147
  5
150
331
17D
  5
17E
331
15F
  5
160
331
3C4
  5
3CA
331
238
  5
23B
331
222
  5
223
331
204
  5
205
331
16E
  5
16F
331
150
  5
153
331
3B5
  5
3BB
331
3A6
  5
3B7
331
397
  5
398
331
398
  5
399
331
17E
  5
17F
331
13A
  5
145
331
3C5
  5
3CB
331
3A7
  5
3B8
331
223
  5
224
331
205
  5
20D
331
3B6
  5
3BE
331
16F
  5
170
331
160
  5
161
331
399
  5
39A
331
17F
  5
180
331
161
  5
162
331
3C6
  5
3E9
331
224
  5
225
331
170
  5
171
331
3B7
  5
3BF
331
3A8
  5
3B9
331
3B8
  5
3C1
331
39A
  5
3A2
331
162
  5
163
331
3A9
  5
3BA
331
23B
  5
23C
331
225
  5
226
331
180
  5
184
331
153
  5
155
331
171
  5
172
331
39B
  5
3A5
331
23C
  5
23D
331
226
  5
228
331
172
  5
173
331
163
  5
164
331
3B9
  5
3C2
331
3BA
  5
3C3
331
39C
  5
3A6
331
164
  5
165
331
173
  5
177
331
155
  5
156
331
23D
  5
23E
331
22E
  5
232
331
3BB
  5
3C4
331
39D
  5
3A7
331
219
  5
21A
331
23E
  5
23F
331
165
  5
166
331
156
  5
157
331
184
  5
203
331
166
  5
167
331
157
  5
158
331
23F
  5
2FA
331
21A
  5
21B
  0
LAYOUT
  5
1E9
102
{ACAD_XDICTIONARY
360
98A
102
}
102
{ACAD_REACTORS
330
1E2
102
}
330
1E2
100
AcDbPlotSettings
  1

  2
\\PC-PAOLO\HP DeskJet 970Cxi
  4

  6

 40
0.0
 41
0.0
 42
0.0
 43
0.0
 44
0.0
 45
0.0
 46
0.0
 47
0.0
 48
0.0
 49
0.0
140
0.0
141
0.0
142
1.0
143
1.0
 70
   688
 72
     0
 73
     0
 74
     5
  7

 75
    16
147
1.0
148
0.0
149
0.0
100
AcDbLayout
  1
Layout1
 70
     1
 71
     1
 10
0.0
 20
0.0
 11
12.0
 21
9.0
 12
0.0
 22
0.0
 32
0.0
 14
0.0
 24
0.0
 34
0.0
 15
0.0
 25
0.0
 35
0.0
146
0.0
 13
0.0
 23
0.0
 33
0.0
 16
1.0
 26
0.0
 36
0.0
 17
0.0
 27
1.0
 37
0.0
 76
     0
330
1E6
  0
LAYOUT
  5
1ED
102
{ACAD_XDICTIONARY
360
98C
102
}
102
{ACAD_REACTORS
330
1E2
102
}
330
1E2
100
AcDbPlotSettings
  1

  2
\\PC-PAOLO\HP DeskJet 970Cxi
  4

  6

 40
0.0
 41
0.0
 42
0.0
 43
0.0
 44
0.0
 45
0.0
 46
0.0
 47
0.0
 48
0.0
 49
0.0
140
0.0
141
0.0
142
1.0
143
1.0
 70
  1712
 72
     0
 73
     0
 74
     0
  7

 75
     0
147
1.0
148
0.0
149
0.0
100
AcDbLayout
  1
Model
 70
     1
 71
     0
 10
0.0
 20
0.0
 11
12.0
 21
9.0
 12
0.0
 22
0.0
 32
0.0
 14
0.0
 24
0.0
 34
0.0
 15
0.0
 25
0.0
 35
0.0
146
0.0
 13
0.0
 23
0.0
 33
0.0
 16
1.0
 26
0.0
 36
0.0
 17
0.0
 27
1.0
 37
0.0
 76
     0
330
1EA
331
1EE
  0
MATERIAL
  5
1C6
102
{ACAD_XDICTIONARY
360
984
102
}
102
{ACAD_REACTORS
330
1C4
102
}
330
1C4
100
AcDbMaterial
  1
ByBlock
  0
MATERIAL
  5
1C5
102
{ACAD_XDICTIONARY
360
982
102
}
102
{ACAD_REACTORS
330
1C4
102
}
330
1C4
100
AcDbMaterial
  1
ByLayer
  0
MATERIAL
  5
1C7
102
{ACAD_XDICTIONARY
360
986
102
}
102
{ACAD_REACTORS
330
1C4
102
}
330
1C4
100
AcDbMaterial
  1
Global
  0
MLINESTYLE
  5
1E0
102
{ACAD_REACTORS
330
1DF
102
}
330
1DF
100
AcDbMlineStyle
  2
STANDARD
 70
     0
  3

 62
   256
 51
90.0
 52
90.0
 71
     2
 49
0.5
 62
   256
  6
BYLAYER
 49
-0.5
 62
   256
  6
BYLAYER
  0
ACDBPLACEHOLDER
  5
1C3
102
{ACAD_REACTORS
330
1C2
102
}
330
1C2
  0
TABLESTYLE
  5
1E5
102
{ACAD_XDICTIONARY
360
988
102
}
102
{ACAD_REACTORS
330
1E4
102
}
330
1E4
100
AcDbTableStyle
  3
Standard
 70
     0
 71
     0
 40
0.06
 41
0.06
280
     0
281
     0
  7
STANDARD
140
0.18
170
     2
 62
     0
 63
     7
283
     0
274
    -2
284
     1
 64
     0
275
    -2
285
     1
 65
     0
276
    -2
286
     1
 66
     0
277
    -2
287
     1
 67
     0
278
    -2
288
     1
 68
     0
279
    -2
289
     1
 69
     0
  7
STANDARD
140
0.25
170
     5
 62
     0
 63
     7
283
     0
274
    -2
284
     1
 64
     0
275
    -2
285
     1
 65
     0
276
    -2
286
     1
 66
     0
277
    -2
287
     1
 67
     0
278
    -2
288
     1
 68
     0
279
    -2
289
     1
 69
     0
  7
STANDARD
140
0.18
170
     5
 62
     0
 63
     7
283
     0
274
    -2
284
     1
 64
     0
275
    -2
285
     1
 65
     0
276
    -2
286
     1
 66
     0
277
    -2
287
     1
 67
     0
278
    -2
288
     1
 68
     0
279
    -2
289
     1
 69
     0
  0
VISUALSTYLE
  5
1CE
102
{ACAD_REACTORS
330
1C8
102
}
330
1C8
100
AcDbVisualStyle
  2
2dWireframe
 70
     4
 71
     0
 72
     2
 73
     0
 90
        0
 40
-0.6
 41
-30.0
 62
     5
 63
     7
 74
     1
 91
        4
 64
     7
 65
   257
 75
     1
175
     1
 42
1.0
 92
        0
 66
   257
 43
1.0
 76
     1
 77
     6
 78
     2
 67
     7
 79
     5
170
     0
171
     0
290
     0
174
     0
 93
        1
 44
0.0
173
     0
291
     0
 45
0.0
1001
ACAD
1000
AcDbSavedByObjectVersion
1070
     0
  0
VISUALSTYLE
  5
1D0
102
{ACAD_REACTORS
330
1C8
102
}
330
1C8
100
AcDbVisualStyle
  2
3D Hidden
 70
     6
 71
     1
 72
     2
 73
     2
 90
        0
 40
-0.6
 41
-30.0
 62
     5
 63
     7
 74
     2
 91
        2
 64
     7
 65
   257
 75
     2
175
     1
 42
40.0
 92
        0
 66
   257
 43
1.0
 76
     1
 77
     6
 78
     2
 67
     7
 79
     3
170
     0
171
     0
290
     0
174
     0
 93
        1
 44
0.0
173
     0
291
     0
 45
0.0
1001
ACAD
1000
AcDbSavedByObjectVersion
1070
     0
  0
VISUALSTYLE
  5
1CF
102
{ACAD_REACTORS
330
1C8
102
}
330
1C8
100
AcDbVisualStyle
  2
3dWireframe
 70
     5
 71
     0
 72
     2
 73
     0
 90
        0
 40
-0.6
 41
-30.0
 62
     5
 63
     7
 74
     1
 91
        4
 64
     7
 65
   257
 75
     1
175
     1
 42
1.0
 92
        0
 66
   257
 43
1.0
 76
     1
 77
     6
 78
     2
 67
     7
 79
     5
170
     0
171
     0
290
     0
174
     0
 93
        1
 44
0.0
173
     0
291
     0
 45
0.0
1001
ACAD
1000
AcDbSavedByObjectVersion
1070
     0
  0
VISUALSTYLE
  5
1CD
102
{ACAD_REACTORS
330
1C8
102
}
330
1C8
100
AcDbVisualStyle
  2
Basic
 70
     7
 71
     1
 72
     0
 73
     1
 90
        0
 40
-0.6
 41
-30.0
 62
     5
 63
     7
 74
     0
 91
        4
 64
     7
 65
   257
 75
     1
175
     1
 42
1.0
 92
        8
 66
     7
 43
1.0
 76
     1
 77
     6
 78
     2
 67
     7
 79
     5
170
     0
171
     0
290
     0
174
     0
 93
        1
 44
0.0
173
     0
291
     1
 45
0.0
1001
ACAD
1000
AcDbSavedByObjectVersion
1070
     0
  0
VISUALSTYLE
  5
1D4
102
{ACAD_REACTORS
330
1C8
102
}
330
1C8
100
AcDbVisualStyle
  2
Brighten
 70
    12
 71
     2
 72
     2
 73
     0
 90
        0
 40
-0.6
 41
-30.0
 62
     5
 63
     7
 74
     1
 91
        4
 64
     7
 65
   257
 75
     1
175
     1
 42
1.0
 92
        8
 66
     7
 43
1.0
 76
     1
 77
     6
 78
     2
 67
     7
 79
     5
170
     0
171
     0
290
     0
174
     0
 93
        1
 44
50.0
173
     0
291
     1
 45
0.0
1001
ACAD
1000
AcDbSavedByObjectVersion
1070
     0
  0
VISUALSTYLE
  5
1D8
102
{ACAD_REACTORS
330
1C8
102
}
330
1C8
100
AcDbVisualStyle
  2
ColorChange
 70
    16
 71
     2
 72
     2
 73
     3
 90
        0
 40
-0.6
 41
-30.0
 62
     5
 63
     8
 74
     1
 91
        4
 64
     7
 65
   257
 75
     1
175
     1
 42
1.0
 92
        8
 66
     8
 43
1.0
 76
     1
 77
     6
 78
     2
 67
     7
 79
     5
170
     0
171
     0
290
     0
174
     0
 93
        1
 44
0.0
173
     0
291
     1
 45
0.0
1001
ACAD
1000
AcDbSavedByObjectVersion
1070
     0
  0
VISUALSTYLE
  5
1D1
102
{ACAD_REACTORS
330
1C8
102
}
330
1C8
100
AcDbVisualStyle
  2
Conceptual
 70
     9
 71
     3
 72
     2
 73
     0
 90
        0
 40
-0.6
 41
-30.0
 62
     5
 63
     7
 74
     2
 91
        2
 64
     7
 65
   257
 75
     1
175
     1
 42
40.0
 92
        8
 66
     7
 43
1.0
 76
     1
 77
     6
 78
     2
 67
     7
 79
     3
170
     0
171
     0
290
     0
174
     0
 93
        1
 44
0.0
173
     0
291
     0
 45
0.0
1001
ACAD
1000
AcDbSavedByObjectVersion
1070
     0
  0
VISUALSTYLE
  5
1D3
102
{ACAD_REACTORS
330
1C8
102
}
330
1C8
100
AcDbVisualStyle
  2
Dim
 70
    11
 71
     2
 72
     2
 73
     0
 90
        0
 40
-0.6
 41
-30.0
 62
     5
 63
     7
 74
     1
 91
        4
 64
     7
 65
   257
 75
     1
175
     1
 42
1.0
 92
        8
 66
     7
 43
1.0
 76
     1
 77
     6
 78
     2
 67
     7
 79
     5
170
     0
171
     0
290
     0
174
     0
 93
        1
 44
-50.0
173
     0
291
     1
 45
0.0
1001
ACAD
1000
AcDbSavedByObjectVersion
1070
     0
  0
VISUALSTYLE
  5
1D7
102
{ACAD_REACTORS
330
1C8
102
}
330
1C8
100
AcDbVisualStyle
  2
Facepattern
 70
    15
 71
     2
 72
     2
 73
     0
 90
        0
 40
-0.6
 41
-30.0
 62
     5
 63
     7
 74
     1
 91
        4
 64
     7
 65
   257
 75
     1
175
     1
 42
1.0
 92
        8
 66
     7
 43
1.0
 76
     1
 77
     6
 78
     2
 67
     7
 79
     5
170
     0
171
     0
290
     0
174
     0
 93
        1
 44
0.0
173
     0
291
     1
 45
0.0
1001
ACAD
1000
AcDbSavedByObjectVersion
1070
     0
  0
VISUALSTYLE
  5
1C9
102
{ACAD_REACTORS
330
1C8
102
}
330
1C8
100
AcDbVisualStyle
  2
Flat
 70
     0
 71
     2
 72
     1
 73
     1
 90
        2
 40
-0.6
 41
30.0
 62
     5
 63
     7
 74
     0
 91
        4
 64
     7
 65
   257
 75
     1
175
     1
 42
1.0
 92
        8
 66
     7
 43
1.0
 76
     1
 77
     6
 78
     2
 67
     7
 79
     5
170
     0
171
     0
290
     0
174
     0
 93
       13
 44
0.0
173
     0
291
     1
 45
0.0
1001
ACAD
1000
AcDbSavedByObjectVersion
1070
     0
  0
VISUALSTYLE
  5
1CA
102
{ACAD_REACTORS
330
1C8
102
}
330
1C8
100
AcDbVisualStyle
  2
FlatWithEdges
 70
     1
 71
     2
 72
     1
 73
     1
 90
        2
 40
-0.6
 41
30.0
 62
     5
 63
     7
 74
     1
 91
        4
 64
     7
 65
   257
 75
     1
175
     1
 42
1.0
 92
        0
 66
   257
 43
1.0
 76
     1
 77
     6
 78
     2
 67
     7
 79
     5
170
     0
171
     0
290
     0
174
     0
 93
       13
 44
0.0
173
     0
291
     1
 45
0.0
1001
ACAD
1000
AcDbSavedByObjectVersion
1070
     0
  0
VISUALSTYLE
  5
1CB
102
{ACAD_REACTORS
330
1C8
102
}
330
1C8
100
AcDbVisualStyle
  2
Gouraud
 70
     2
 71
     2
 72
     2
 73
     1
 90
        2
 40
-0.6
 41
30.0
 62
     5
 63
     7
 74
     0
 91
        4
 64
     7
 65
   257
 75
     1
175
     1
 42
1.0
 92
        0
 66
     7
 43
1.0
 76
     1
 77
     6
 78
     2
 67
     7
 79
     5
170
     0
171
     0
290
     0
174
     0
 93
       13
 44
0.0
173
     0
291
     1
 45
0.0
1001
ACAD
1000
AcDbSavedByObjectVersion
1070
     0
  0
VISUALSTYLE
  5
1CC
102
{ACAD_REACTORS
330
1C8
102
}
330
1C8
100
AcDbVisualStyle
  2
GouraudWithEdges
 70
     3
 71
     2
 72
     2
 73
     1
 90
        2
 40
-0.6
 41
30.0
 62
     5
 63
     7
 74
     1
 91
        4
 64
     7
 65
   257
 75
     1
175
     1
 42
1.0
 92
        0
 66
   257
 43
1.0
 76
     1
 77
     6
 78
     2
 67
     7
 79
     5
170
     0
171
     0
290
     0
174
     0
 93
       13
 44
0.0
173
     0
291
     1
 45
0.0
1001
ACAD
1000
AcDbSavedByObjectVersion
1070
     0
  0
VISUALSTYLE
  5
1D6
102
{ACAD_REACTORS
330
1C8
102
}
330
1C8
100
AcDbVisualStyle
  2
Linepattern
 70
    14
 71
     2
 72
     2
 73
     0
 90
        0
 40
-0.6
 41
-30.0
 62
     5
 63
     7
 74
     1
 91
        4
 64
     7
 65
   257
 75
     7
175
     7
 42
1.0
 92
        8
 66
     7
 43
1.0
 76
     1
 77
     6
 78
     2
 67
     7
 79
     5
170
     0
171
     0
290
     0
174
     0
 93
        1
 44
0.0
173
     0
291
     1
 45
0.0
1001
ACAD
1000
AcDbSavedByObjectVersion
1070
     0
  0
VISUALSTYLE
  5
1D2
102
{ACAD_REACTORS
330
1C8
102
}
330
1C8
100
AcDbVisualStyle
  2
Realistic
 70
     8
 71
     2
 72
     2
 73
     0
 90
        0
 40
-0.6
 41
-30.0
 62
     5
 63
     7
 74
     1
 91
        0
 64
     7
 65
   257
 75
     1
175
     1
 42
1.0
 92
        8
 66
     8
 43
1.0
 76
     1
 77
     6
 78
     2
 67
     7
 79
     5
170
     0
171
     0
290
     0
174
     0
 93
       13
 44
0.0
173
     0
291
     0
 45
0.0
1001
ACAD
1000
AcDbSavedByObjectVersion
1070
     0
  0
VISUALSTYLE
  5
1D5
102
{ACAD_REACTORS
330
1C8
102
}
330
1C8
100
AcDbVisualStyle
  2
Thicken
 70
    13
 71
     2
 72
     2
 73
     0
 90
        0
 40
-0.6
 41
-30.0
 62
     5
 63
     7
 74
     1
 91
        4
 64
     7
 65
   257
 75
     1
175
     1
 42
1.0
 92
       12
 66
     7
 43
1.0
 76
     1
 77
     6
 78
     2
 67
     7
 79
     5
170
     0
171
     0
290
     0
174
     0
 93
        1
 44
0.0
173
     0
291
     1
 45
0.0
1001
ACAD
1000
AcDbSavedByObjectVersion
1070
     0
  0
DICTIONARYVAR
  5
208
102
{ACAD_REACTORS
330
207
102
}
330
207
100
DictionaryVariables
280
     0
  1
STANDARD
  0
DICTIONARYVAR
  5
97E
102
{ACAD_REACTORS
330
207
102
}
330
207
100
DictionaryVariables
280
     0
  1
1
  0
DICTIONARYVAR
  5
97D
102
{ACAD_REACTORS
330
207
102
}
330
207
100
DictionaryVariables
280
     0
  1
0
  0
DICTIONARYVAR
  5
97F
102
{ACAD_REACTORS
330
207
102
}
330
207
100
DictionaryVariables
280
     0
  1
1.570796
  0
DICTIONARYVAR
  5
980
102
{ACAD_REACTORS
330
207
102
}
330
207
100
DictionaryVariables
280
     0
  1
1.570796
  0
DICTIONARYVAR
  5
97C
102
{ACAD_REACTORS
330
207
102
}
330
207
100
DictionaryVariables
280
     0
  1
127
  0
DICTIONARY
  5
98A
330
1E9
100
AcDbDictionary
280
     1
281
     1
  3
ACAD_XREC_ROUNDTRIP
360
98B
  0
DICTIONARY
  5
98C
330
1ED
100
AcDbDictionary
280
     1
281
     1
  3
ACAD_XREC_ROUNDTRIP
360
98D
  0
DICTIONARY
  5
984
330
1C6
100
AcDbDictionary
280
     1
281
     1
  3
ACAD_XREC_ROUNDTRIP
360
985
  0
DICTIONARY
  5
982
330
1C5
100
AcDbDictionary
280
     1
281
     1
  3
ACAD_XREC_ROUNDTRIP
360
983
  0
DICTIONARY
  5
986
330
1C7
100
AcDbDictionary
280
     1
281
     1
  3
ACAD_XREC_ROUNDTRIP
360
987
  0
DICTIONARY
  5
988
330
1E5
100
AcDbDictionary
280
     1
281
     1
  3
ACAD_XREC_ROUNDTRIP
360
989
  0
XRECORD
  5
98B
102
{ACAD_REACTORS
330
98A
102
}
330
98A
100
AcDbXrecord
280
     1
102
SHADEPLOT
 70
     0
102
SHADEPLOTRESLEVEL
 70
     2
102
SHADEPLOTCUSTOMDPI
 70
   300
  0
XRECORD
  5
98D
102
{ACAD_REACTORS
330
98C
102
}
330
98C
100
AcDbXrecord
280
     1
102
SHADEPLOT
 70
     0
102
SHADEPLOTRESLEVEL
 70
     2
102
SHADEPLOTCUSTOMDPI
 70
   300
  0
XRECORD
  5
985
102
{ACAD_REACTORS
330
984
102
}
330
984
100
AcDbXrecord
280
     1
102
MATERIAL
148
0.0
149
0.0
149
0.0
 93
        0
 94
       63
282
     0
 72
     1
 77
     1
171
     1
175
     1
179
     1
273
     0
  0
XRECORD
  5
983
102
{ACAD_REACTORS
330
982
102
}
330
982
100
AcDbXrecord
280
     1
102
MATERIAL
148
0.0
149
0.0
149
0.0
 93
        0
 94
       63
282
     0
 72
     1
 77
     1
171
     1
175
     1
179
     1
273
     0
  0
XRECORD
  5
987
102
{ACAD_REACTORS
330
986
102
}
330
986
100
AcDbXrecord
280
     1
102
MATERIAL
148
0.0
149
0.0
149
0.0
 93
        0
 94
       63
282
     0
 72
     1
 77
     1
171
     1
175
     1
179
     1
273
     0
  0
XRECORD
  5
989
102
{ACAD_REACTORS
330
988
102
}
330
988
100
AcDbXrecord
280
     1
102
ACAD_ROUNDTRIP_PRE2007_TABLESTYLE
 90
      512
 91
        0
  1

 92
      512
 93
        0
  2

 94
      512
 95
        0
  3

  0
ENDSEC
  0
EOF
