  0
SECTION
  2
HEADER
  9
$ACADVER
  1
AC1015
  9
$ACADMAINTVER
 70
    20
  9
$DWGCODEPAGE
  3
ANSI_1252
  9
$INSBASE
 10
0.0
 20
0.0
 30
0.0
  9
$EXTMIN
 10
-50.737480189253
 20
-40.57288137423364
 30
0.0
  9
$EXTMAX
 10
542.8272213280729
 20
269.3679964278981
 30
0.0
  9
$LIMMIN
 10
-9.184627
 20
4.296982999999999
  9
$LIMMAX
 10
44.815373
 20
28.296983
  9
$ORTHOMODE
 70
     0
  9
$REGENMODE
 70
     1
  9
$FILLMODE
 70
     1
  9
$QTEXTMODE
 70
     0
  9
$MIRRTEXT
 70
     0
  9
$LTSCALE
 40
0.4400000000000001
  9
$ATTMODE
 70
     1
  9
$TEXTSIZE
 40
0.0
  9
$TRACEWID
 40
0.05
  9
$TEXTSTYLE
  7
STANDARD
  9
$CLAYER
  8
LAYER01
  9
$CELTYPE
  6
CONTINUOUS
  9
$CECOLOR
 62
     7
  9
$CELTSCALE
 40
1.0
  9
$DISPSILH
 70
     0
  9
$DIMSCALE
 40
1.0
  9
$DIMASZ
 40
0.18
  9
$DIMEXO
 40
0.0625
  9
$DIMDLI
 40
0.38
  9
$DIMRND
 40
1.0
  9
$DIMDLE
 40
0.0
  9
$DIMEXE
 40
0.18
  9
$DIMTP
 40
0.0
  9
$DIMTM
 40
0.0
  9
$DIMTXT
 40
0.25
  9
$DIMCEN
 40
0.09
  9
$DIMTSZ
 40
0.0
  9
$DIMTOL
 70
     0
  9
$DIMLIM
 70
     0
  9
$DIMTIH
 70
     1
  9
$DIMTOH
 70
     1
  9
$DIMSE1
 70
     0
  9
$DIMSE2
 70
     0
  9
$DIMTAD
 70
     0
  9
$DIMZIN
 70
     0
  9
$DIMBLK
  1

  9
$DIMASO
 70
     1
  9
$DIMSHO
 70
     1
  9
$DIMPOST
  1

  9
$DIMAPOST
  1

  9
$DIMALT
 70
     0
  9
$DIMALTD
 70
     2
  9
$DIMALTF
 40
25.4
  9
$DIMLFAC
 40
1.0
  9
$DIMTOFL
 70
     0
  9
$DIMTVP
 40
0.0
  9
$DIMTIX
 70
     0
  9
$DIMSOXD
 70
     0
  9
$DIMSAH
 70
     0
  9
$DIMBLK1
  1

  9
$DIMBLK2
  1

  9
$DIMSTYLE
  2
Copia di Standard
  9
$DIMCLRD
 70
     0
  9
$DIMCLRE
 70
     0
  9
$DIMCLRT
 70
     0
  9
$DIMTFAC
 40
1.0
  9
$DIMGAP
 40
5.0
  9
$DIMJUST
 70
     0
  9
$DIMSD1
 70
     0
  9
$DIMSD2
 70
     0
  9
$DIMTOLJ
 70
     1
  9
$DIMTZIN
 70
     0
  9
$DIMALTZ
 70
     0
  9
$DIMALTTZ
 70
     0
  9
$DIMUPT
 70
     0
  9
$DIMDEC
 70
     0
  9
$DIMTDEC
 70
     0
  9
$DIMALTU
 70
     2
  9
$DIMALTTD
 70
     2
  9
$DIMTXSTY
  7
STANDARD
  9
$DIMAUNIT
 70
     0
  9
$DIMADEC
 70
     0
  9
$DIMALTRND
 40
0.0
  9
$DIMAZIN
 70
     0
  9
$DIMDSEP
 70
    46
  9
$DIMATFIT
 70
     3
  9
$DIMFRAC
 70
     0
  9
$DIMLDRBLK
  1

  9
$DIMLUNIT
 70
     2
  9
$DIMLWD
 70
    -2
  9
$DIMLWE
 70
    -2
  9
$DIMTMOVE
 70
     0
  9
$LUNITS
 70
     2
  9
$LUPREC
 70
     4
  9
$SKETCHINC
 40
0.1
  9
$FILLETRAD
 40
0.125
  9
$AUNITS
 70
     0
  9
$AUPREC
 70
     0
  9
$MENU
  1
acad
  9
$ELEVATION
 40
0.0
  9
$PELEVATION
 40
0.0
  9
$THICKNESS
 40
0.0
  9
$LIMCHECK
 70
     0
  9
$CHAMFERA
 40
0.5
  9
$CHAMFERB
 40
0.5
  9
$CHAMFERC
 40
0.0
  9
$CHAMFERD
 40
0.0
  9
$SKPOLY
 70
     0
  9
$TDCREATE
 40
2313843.461245845
  9
$TDUCREATE
 40
2313843.377912512
  9
$TDUPDATE
 40
2455320.668313333
  9
$TDUUPDATE
 40
2455320.584980000
  9
$TDINDWG
 40
0.0639018056
  9
$TDUSRTIMER
 40
0.0639014468
  9
$USRTIMER
 70
     1
  9
$ANGBASE
 50
0.0
  9
$ANGDIR
 70
     0
  9
$PDMODE
 70
     0
  9
$PDSIZE
 40
0.0
  9
$PLINEWID
 40
0.008
  9
$SPLFRAME
 70
     0
  9
$SPLINETYPE
 70
     6
  9
$SPLINESEGS
 70
    10
  9
$HANDSEED
  5
140
  9
$SURFTAB1
 70
     6
  9
$SURFTAB2
 70
     6
  9
$SURFTYPE
 70
     6
  9
$SURFU
 70
     6
  9
$SURFV
 70
     6
  9
$UCSBASE
  2

  9
$UCSNAME
  2

  9
$UCSORG
 10
0.0
 20
0.0
 30
0.0
  9
$UCSXDIR
 10
1.0
 20
0.0
 30
0.0
  9
$UCSYDIR
 10
0.0
 20
1.0
 30
0.0
  9
$UCSORTHOREF
  2

  9
$UCSORTHOVIEW
 70
     0
  9
$UCSORGTOP
 10
0.0
 20
0.0
 30
0.0
  9
$UCSORGBOTTOM
 10
0.0
 20
0.0
 30
0.0
  9
$UCSORGLEFT
 10
0.0
 20
0.0
 30
0.0
  9
$UCSORGRIGHT
 10
0.0
 20
0.0
 30
0.0
  9
$UCSORGFRONT
 10
0.0
 20
0.0
 30
0.0
  9
$UCSORGBACK
 10
0.0
 20
0.0
 30
0.0
  9
$PUCSBASE
  2

  9
$PUCSNAME
  2

  9
$PUCSORG
 10
0.0
 20
0.0
 30
0.0
  9
$PUCSXDIR
 10
1.0
 20
0.0
 30
0.0
  9
$PUCSYDIR
 10
0.0
 20
1.0
 30
0.0
  9
$PUCSORTHOREF
  2

  9
$PUCSORTHOVIEW
 70
     0
  9
$PUCSORGTOP
 10
0.0
 20
0.0
 30
0.0
  9
$PUCSORGBOTTOM
 10
0.0
 20
0.0
 30
0.0
  9
$PUCSORGLEFT
 10
0.0
 20
0.0
 30
0.0
  9
$PUCSORGRIGHT
 10
0.0
 20
0.0
 30
0.0
  9
$PUCSORGFRONT
 10
0.0
 20
0.0
 30
0.0
  9
$PUCSORGBACK
 10
0.0
 20
0.0
 30
0.0
  9
$USERI1
 70
     0
  9
$USERI2
 70
     0
  9
$USERI3
 70
     0
  9
$USERI4
 70
     0
  9
$USERI5
 70
     0
  9
$USERR1
 40
0.0
  9
$USERR2
 40
0.0
  9
$USERR3
 40
0.0
  9
$USERR4
 40
0.0
  9
$USERR5
 40
0.0
  9
$WORLDVIEW
 70
     1
  9
$SHADEDGE
 70
     3
  9
$SHADEDIF
 70
    70
  9
$TILEMODE
 70
     1
  9
$MAXACTVP
 70
    64
  9
$PINSBASE
 10
0.0
 20
0.0
 30
0.0
  9
$PLIMCHECK
 70
     0
  9
$PEXTMIN
 10
1.000000000000000E+20
 20
1.000000000000000E+20
 30
1.000000000000000E+20
  9
$PEXTMAX
 10
-1.000000000000000E+20
 20
-1.000000000000000E+20
 30
-1.000000000000000E+20
  9
$PLIMMIN
 10
0.0
 20
0.0
  9
$PLIMMAX
 10
12.0
 20
9.0
  9
$UNITMODE
 70
     0
  9
$VISRETAIN
 70
     1
  9
$PLINEGEN
 70
     0
  9
$PSLTSCALE
 70
     1
  9
$TREEDEPTH
 70
  3020
  9
$CMLSTYLE
  2
Standard
  9
$CMLJUST
 70
     0
  9
$CMLSCALE
 40
1.0
  9
$PROXYGRAPHICS
 70
     1
  9
$MEASUREMENT
 70
     0
  9
$CELWEIGHT
370
    -1
  9
$ENDCAPS
280
     0
  9
$JOINSTYLE
280
     0
  9
$LWDISPLAY
290
     0
  9
$INSUNITS
 70
     0
  9
$HYPERLINKBASE
  1

  9
$STYLESHEET
  1

  9
$XEDIT
290
     1
  9
$CEPSNTYPE
380
     0
  9
$PSTYLEMODE
290
     1
  9
$FINGERPRINTGUID
  2
{034C0357-4295-4FD7-A99E-C147F54A2DC5}
  9
$VERSIONGUID
  2
{CBFF0AD6-6814-4BF4-9B81-20B3D63B2229}
  9
$EXTNAMES
290
     1
  9
$PSVPSCALE
 40
0.0
  9
$OLESTARTUP
290
     0
  0
ENDSEC
  0
SECTION
  2
CLASSES
  0
CLASS
  1
ACDBDICTIONARYWDFLT
  2
AcDbDictionaryWithDefault
  3
ObjectDBX Classes
 90
        0
280
     0
281
     0
  0
CLASS
  1
MATERIAL
  2
AcDbMaterial
  3
ObjectDBX Classes
 90
     1024
280
     0
281
     0
  0
CLASS
  1
VISUALSTYLE
  2
AcDbVisualStyle
  3
ObjectDBX Classes
 90
     4095
280
     0
281
     0
  0
CLASS
  1
TABLESTYLE
  2
AcDbTableStyle
  3
ObjectDBX Classes
 90
     4095
280
     0
281
     0
  0
CLASS
  1
DICTIONARYVAR
  2
AcDbDictionaryVar
  3
ObjectDBX Classes
 90
        0
280
     0
281
     0
  0
CLASS
  1
ACDBPLACEHOLDER
  2
AcDbPlaceHolder
  3
ObjectDBX Classes
 90
        0
280
     0
281
     0
  0
CLASS
  1
LAYOUT
  2
AcDbLayout
  3
ObjectDBX Classes
 90
        0
280
     0
281
     0
  0
ENDSEC
  0
SECTION
  2
TABLES
  0
TABLE
  2
VPORT
  5
8
330
0
100
AcDbSymbolTable
 70
     1
  0
VPORT
  5
4F
330
8
100
AcDbSymbolTableRecord
100
AcDbViewportTableRecord
  2
*Active
 70
     0
 10
0.0
 20
0.0
 11
1.0
 21
1.0
 12
179.1379775169334
 22
97.62420723861252
 13
0.0
 23
0.0
 14
1.0
 24
1.0
 15
0.0
 25
0.0
 16
0.0
 26
0.0
 36
1.0
 17
0.0
 27
0.0
 37
0.0
 40
355.460481805923
 41
2.493333333333333
 42
50.0
 43
0.0
 44
0.0
 50
0.0
 51
0.0
 71
     0
 72
   100
 73
     1
 74
     1
 75
     0
 76
     1
 77
     0
 78
     0
281
     0
 65
     1
110
0.0
120
0.0
130
0.0
111
1.0
121
0.0
131
0.0
112
0.0
122
1.0
132
0.0
 79
     0
146
0.0
  0
ENDTAB
  0
TABLE
  2
LTYPE
  5
5
330
0
100
AcDbSymbolTable
 70
    12
  0
LTYPE
  5
28
330
5
100
AcDbSymbolTableRecord
100
AcDbLinetypeTableRecord
  2
ByBlock
 70
     0
  3

 72
    65
 73
     0
 40
0.0
  0
LTYPE
  5
29
330
5
100
AcDbSymbolTableRecord
100
AcDbLinetypeTableRecord
  2
ByLayer
 70
     0
  3

 72
    65
 73
     0
 40
0.0
  0
LTYPE
  5
2A
330
5
100
AcDbSymbolTableRecord
100
AcDbLinetypeTableRecord
  2
CONTINUOUS
 70
     0
  3
Solid line
 72
    65
 73
     0
 40
0.0
  0
LTYPE
  5
3B
330
5
100
AcDbSymbolTableRecord
100
AcDbLinetypeTableRecord
  2
DASHED
 70
     0
  3
__ __ __ __ __ __ __ __ __ __ __ __ __ __ __
 72
    65
 73
     2
 40
0.75
 49
0.5
 74
     0
 49
-0.25
 74
     0
  0
LTYPE
  5
3C
330
5
100
AcDbSymbolTableRecord
100
AcDbLinetypeTableRecord
  2
HIDDEN
 70
     0
  3
_ _ _ _ _ _ _ _ _ _ _ _ _ _ _ _ _ _ _ _ _ _ 
 72
    65
 73
     2
 40
0.25
 49
0.125
 74
     0
 49
-0.125
 74
     0
  0
LTYPE
  5
3D
330
5
100
AcDbSymbolTableRecord
100
AcDbLinetypeTableRecord
  2
CENTER
 70
     0
  3
____ _ ____ _ ____ _ ____ _ ____ _ ____ _ __
 72
    65
 73
     4
 40
2.0
 49
1.25
 74
     0
 49
-0.25
 74
     0
 49
0.25
 74
     0
 49
-0.25
 74
     0
  0
LTYPE
  5
3E
330
5
100
AcDbSymbolTableRecord
100
AcDbLinetypeTableRecord
  2
PHANTOM
 70
     0
  3
_____ _ _ _____ _ _ _____ _ _ _____ _ _ ____
 72
    65
 73
     6
 40
2.5
 49
1.25
 74
     0
 49
-0.25
 74
     0
 49
0.25
 74
     0
 49
-0.25
 74
     0
 49
0.25
 74
     0
 49
-0.25
 74
     0
  0
LTYPE
  5
3F
330
5
100
AcDbSymbolTableRecord
100
AcDbLinetypeTableRecord
  2
DOT
 70
     0
  3
............................................
 72
    65
 73
     2
 40
0.25
 49
0.0
 74
     0
 49
-0.25
 74
     0
  0
LTYPE
  5
40
330
5
100
AcDbSymbolTableRecord
100
AcDbLinetypeTableRecord
  2
DASHDOT
 70
     0
  3
__ . __ . __ . __ . __ . __ . __ . __ . __ .
 72
    65
 73
     4
 40
1.0
 49
0.5
 74
     0
 49
-0.25
 74
     0
 49
0.0
 74
     0
 49
-0.25
 74
     0
  0
LTYPE
  5
41
330
5
100
AcDbSymbolTableRecord
100
AcDbLinetypeTableRecord
  2
BORDER
 70
     0
  3
__ __ . __ __ . __ __ . __ __ . __ __ . __ _
 72
    65
 73
     6
 40
1.75
 49
0.5
 74
     0
 49
-0.25
 74
     0
 49
0.5
 74
     0
 49
-0.25
 74
     0
 49
0.0
 74
     0
 49
-0.25
 74
     0
  0
LTYPE
  5
42
330
5
100
AcDbSymbolTableRecord
100
AcDbLinetypeTableRecord
  2
DIVIDE
 70
     0
  3
__ . . __ . . __ . . __ . . __ . . __ . . __
 72
    65
 73
     6
 40
1.25
 49
0.5
 74
     0
 49
-0.25
 74
     0
 49
0.0
 74
     0
 49
-0.25
 74
     0
 49
0.0
 74
     0
 49
-0.25
 74
     0
  0
LTYPE
  5
43
330
5
100
AcDbSymbolTableRecord
100
AcDbLinetypeTableRecord
  2
DOTS
 70
     0
  3
close                                       
 72
    65
 73
     2
 40
0.1
 49
0.05
 74
     0
 49
-0.05
 74
     0
  0
LTYPE
  5
44
330
5
100
AcDbSymbolTableRecord
100
AcDbLinetypeTableRecord
  2
CLOSE
 70
     0
  3
                                            
 72
    65
 73
     0
 40
0.0
  0
ENDTAB
  0
TABLE
  2
LAYER
  5
2
330
0
100
AcDbSymbolTable
 70
    13
  0
LAYER
  5
25
330
2
100
AcDbSymbolTableRecord
100
AcDbLayerTableRecord
  2
0
 70
     0
 62
     7
  6
CONTINUOUS
370
    -3
390
F
  0
LAYER
  5
3A
330
2
100
AcDbSymbolTableRecord
100
AcDbLayerTableRecord
  2
LAYER01
 70
     0
 62
     7
  6
CONTINUOUS
370
    -3
390
F
  0
LAYER
  5
45
330
2
100
AcDbSymbolTableRecord
100
AcDbLayerTableRecord
  2
LAYER02
 70
     0
 62
     7
  6
CONTINUOUS
370
    -3
390
F
  0
LAYER
  5
46
330
2
100
AcDbSymbolTableRecord
100
AcDbLayerTableRecord
  2
LAYER03
 70
     0
 62
     7
  6
CONTINUOUS
370
    -3
390
F
  0
LAYER
  5
47
330
2
100
AcDbSymbolTableRecord
100
AcDbLayerTableRecord
  2
LAYER04
 70
     0
 62
     7
  6
CONTINUOUS
370
    -3
390
F
  0
LAYER
  5
48
330
2
100
AcDbSymbolTableRecord
100
AcDbLayerTableRecord
  2
LAYER05
 70
     0
 62
     7
  6
CONTINUOUS
370
    -3
390
F
  0
LAYER
  5
49
330
2
100
AcDbSymbolTableRecord
100
AcDbLayerTableRecord
  2
LAYER06
 70
     0
 62
     7
  6
CONTINUOUS
370
    -3
390
F
  0
LAYER
  5
4A
330
2
100
AcDbSymbolTableRecord
100
AcDbLayerTableRecord
  2
LAYER07
 70
     0
 62
     7
  6
CONTINUOUS
370
    -3
390
F
  0
LAYER
  5
4B
330
2
100
AcDbSymbolTableRecord
100
AcDbLayerTableRecord
  2
LAYER08
 70
     0
 62
     7
  6
CONTINUOUS
370
    -3
390
F
  0
LAYER
  5
4C
330
2
100
AcDbSymbolTableRecord
100
AcDbLayerTableRecord
  2
LAYER09
 70
     0
 62
     7
  6
CONTINUOUS
370
    -3
390
F
  0
LAYER
  5
4D
330
2
100
AcDbSymbolTableRecord
100
AcDbLayerTableRecord
  2
LAYER10
 70
     0
 62
     7
  6
CONTINUOUS
370
    -3
390
F
  0
LAYER
  5
50
330
2
100
AcDbSymbolTableRecord
100
AcDbLayerTableRecord
  2
7
 70
     0
 62
     7
  6
CONTINUOUS
370
    -3
390
F
  0
LAYER
  5
9C
330
2
100
AcDbSymbolTableRecord
100
AcDbLayerTableRecord
  2
Defpoints
 70
     0
 62
     7
  6
CONTINUOUS
290
     0
370
    -3
390
F
  0
ENDTAB
  0
TABLE
  2
STYLE
  5
3
330
0
100
AcDbSymbolTable
 70
     1
  0
STYLE
  5
26
330
3
100
AcDbSymbolTableRecord
100
AcDbTextStyleTableRecord
  2
STANDARD
 70
     0
 40
5.0
 41
1.0
 50
0.0
 71
     0
 42
0.0
  3
txt.shx
  4

  0
ENDTAB
  0
TABLE
  2
VIEW
  5
6
330
0
100
AcDbSymbolTable
 70
     0
  0
ENDTAB
  0
TABLE
  2
UCS
  5
7
330
0
100
AcDbSymbolTable
 70
     0
  0
ENDTAB
  0
TABLE
  2
APPID
  5
9
330
0
100
AcDbSymbolTable
 70
     2
  0
APPID
  5
27
330
9
100
AcDbSymbolTableRecord
100
AcDbRegAppTableRecord
  2
ACAD
 70
     0
  0
APPID
  5
B3
330
9
100
AcDbSymbolTableRecord
100
AcDbRegAppTableRecord
  2
ACAD_EXEMPT_FROM_CAD_STANDARDS
 70
     0
  0
ENDTAB
  0
TABLE
  2
DIMSTYLE
  5
A
330
0
100
AcDbSymbolTable
 70
     3
100
AcDbDimStyleTable
 71
     2
340
9A
340
98
  0
DIMSTYLE
105
98
330
A
100
AcDbSymbolTableRecord
100
AcDbDimStyleTableRecord
  2
Standard
 70
     0
340
26
  0
DIMSTYLE
105
9A
102
{ACAD_REACTORS
330
9B
330
E4
330
F8
330
106
330
114
330
122
102
}
330
A
100
AcDbSymbolTableRecord
100
AcDbDimStyleTableRecord
  2
Copia di Standard
 70
     0
 45
1.0
140
0.25
147
5.0
271
     0
272
     0
340
26
  0
ENDTAB
  0
TABLE
  2
BLOCK_RECORD
  5
1
330
0
100
AcDbSymbolTable
 70
     7
  0
BLOCK_RECORD
  5
36
330
1
100
AcDbSymbolTableRecord
100
AcDbBlockTableRecord
  2
*Model_Space
340
39
  0
BLOCK_RECORD
  5
32
330
1
100
AcDbSymbolTableRecord
100
AcDbBlockTableRecord
  2
*Paper_Space
340
35
  0
BLOCK_RECORD
  5
9D
330
1
100
AcDbSymbolTableRecord
100
AcDbBlockTableRecord
  2
*D0
340
0
  0
BLOCK_RECORD
  5
E5
330
1
100
AcDbSymbolTableRecord
100
AcDbBlockTableRecord
  2
*D2
340
0
  0
BLOCK_RECORD
  5
F9
330
1
100
AcDbSymbolTableRecord
100
AcDbBlockTableRecord
  2
*D3
340
0
  0
BLOCK_RECORD
  5
107
330
1
100
AcDbSymbolTableRecord
100
AcDbBlockTableRecord
  2
*D4
340
0
  0
BLOCK_RECORD
  5
115
330
1
100
AcDbSymbolTableRecord
100
AcDbBlockTableRecord
  2
*D5
340
0
  0
BLOCK_RECORD
  5
123
330
1
100
AcDbSymbolTableRecord
100
AcDbBlockTableRecord
  2
*D6
340
0
  0
ENDTAB
  0
ENDSEC
  0
SECTION
  2
BLOCKS
  0
BLOCK
  5
37
330
36
100
AcDbEntity
  8
0
100
AcDbBlockBegin
  2
*Model_Space
 70
     0
 10
0.0
 20
0.0
 30
0.0
  3
*Model_Space
  1

  0
ENDBLK
  5
38
330
36
100
AcDbEntity
  8
0
100
AcDbBlockEnd
  0
BLOCK
  5
33
330
32
100
AcDbEntity
 67
     1
  8
0
100
AcDbBlockBegin
  2
*Paper_Space
 70
     0
 10
0.0
 20
0.0
 30
0.0
  3
*Paper_Space
  1

  0
ENDBLK
  5
34
330
32
100
AcDbEntity
 67
     1
  8
0
100
AcDbBlockEnd
  0
BLOCK
  5
A8
330
9D
100
AcDbEntity
  8
0
 62
     7
100
AcDbBlockBegin
  2
*D0
 70
     1
 10
0.0
 20
0.0
 30
0.0
  3
*D0
  1

  0
LINE
  5
9E
330
9D
100
AcDbEntity
  8
LAYER01
  6
Continuous
 62
     0
370
    -2
100
AcDbLine
 10
513.5367973943529
 20
194.6100833613684
 30
0.0
 11
537.5905546614061
 21
194.6100833613684
 31
0.0
  0
LINE
  5
9F
330
9D
100
AcDbEntity
  8
LAYER01
  6
Continuous
 62
     0
370
    -2
100
AcDbLine
 10
513.5367973943529
 20
14.43867366226044
 30
0.0
 11
537.5905546614061
 21
14.43867366226043
 31
0.0
  0
LINE
  5
A0
330
9D
100
AcDbEntity
  8
LAYER01
  6
Continuous
 62
     0
370
    -2
100
AcDbLine
 10
537.4105546614061
 20
194.4300833613683
 30
0.0
 11
537.4105546614061
 21
112.0243785118144
 31
0.0
  0
LINE
  5
A1
330
9D
100
AcDbEntity
  8
LAYER01
  6
Continuous
 62
     0
370
    -2
100
AcDbLine
 10
537.4105546614061
 20
14.61867366226043
 30
0.0
 11
537.4105546614061
 21
97.02437851181441
 31
0.0
  0
SOLID
  5
A2
330
9D
100
AcDbEntity
  8
LAYER01
  6
Continuous
 62
     0
100
AcDbTrace
 10
537.3805546614062
 20
194.4300833613683
 30
0.0
 11
537.4405546614061
 21
194.4300833613683
 31
0.0
 12
537.4105546614061
 22
194.6100833613684
 32
0.0
 13
537.4105546614061
 23
194.6100833613684
 33
0.0
  0
SOLID
  5
A3
330
9D
100
AcDbEntity
  8
LAYER01
  6
Continuous
 62
     0
100
AcDbTrace
 10
537.3805546614062
 20
14.61867366226043
 30
0.0
 11
537.4405546614061
 21
14.61867366226043
 31
0.0
 12
537.4105546614061
 22
14.43867366226043
 32
0.0
 13
537.4105546614061
 23
14.43867366226043
 33
0.0
  0
MTEXT
  5
A4
330
9D
100
AcDbEntity
  8
LAYER01
  6
Continuous
 62
     0
100
AcDbMText
 10
537.4105546614061
 20
104.5243785118145
 30
0.0
 40
5.0
 41
0.0
 71
     5
 72
     1
  1
\A1;180
 73
     1
 44
1.0
1001
ACAD
1000
MTEXTBEGIN
1070
    73
1070
     1
1070
    44
1040
1.0
1070
    74
1070
     0
1000
MTEXTEND
  0
POINT
  5
A5
330
9D
100
AcDbEntity
  8
Defpoints
  6
Continuous
 62
     0
100
AcDbPoint
 10
513.474297394353
 20
194.6100833613684
 30
0.0
  0
POINT
  5
A6
330
9D
100
AcDbEntity
  8
Defpoints
  6
Continuous
 62
     0
100
AcDbPoint
 10
513.474297394353
 20
14.43867366226044
 30
0.0
  0
POINT
  5
A7
330
9D
100
AcDbEntity
  8
Defpoints
  6
Continuous
 62
     0
100
AcDbPoint
 10
537.4105546614061
 20
14.43867366226043
 30
0.0
  0
ENDBLK
  5
A9
330
9D
100
AcDbEntity
  8
0
 62
     7
100
AcDbBlockEnd
  0
BLOCK
  5
F0
330
E5
100
AcDbEntity
  8
0
 62
     7
100
AcDbBlockBegin
  2
*D2
 70
     1
 10
0.0
 20
0.0
 30
0.0
  3
*D2
  1

  0
LINE
  5
E6
330
E5
100
AcDbEntity
  8
LAYER01
  6
Continuous
 62
     0
370
    -2
100
AcDbLine
 10
477.1585778279054
 20
225.0713099681553
 30
0.0
 11
477.1585778279054
 21
235.325515363862
 31
0.0
  0
LINE
  5
E7
330
E5
100
AcDbEntity
  8
LAYER01
  6
Continuous
 62
     0
370
    -2
100
AcDbLine
 10
-22.81241785997986
 20
225.0713099681553
 30
0.0
 11
-22.81241785997986
 21
235.325515363862
 31
0.0
  0
LINE
  5
E8
330
E5
100
AcDbEntity
  8
LAYER01
  6
Continuous
 62
     0
370
    -2
100
AcDbLine
 10
476.9785778279054
 20
235.145515363862
 30
0.0
 11
238.0064133172961
 21
235.145515363862
 31
0.0
  0
LINE
  5
E9
330
E5
100
AcDbEntity
  8
LAYER01
  6
Continuous
 62
     0
370
    -2
100
AcDbLine
 10
-22.63241785997986
 20
235.145515363862
 30
0.0
 11
216.3397466506295
 21
235.145515363862
 31
0.0
  0
SOLID
  5
EA
330
E5
100
AcDbEntity
  8
LAYER01
  6
Continuous
 62
     0
100
AcDbTrace
 10
476.9785778279054
 20
235.175515363862
 30
0.0
 11
476.9785778279054
 21
235.115515363862
 31
0.0
 12
477.1585778279054
 22
235.145515363862
 32
0.0
 13
477.1585778279054
 23
235.145515363862
 33
0.0
  0
SOLID
  5
EB
330
E5
100
AcDbEntity
  8
LAYER01
  6
Continuous
 62
     0
100
AcDbTrace
 10
-22.63241785997986
 20
235.175515363862
 30
0.0
 11
-22.63241785997986
 21
235.115515363862
 31
0.0
 12
-22.81241785997986
 22
235.145515363862
 32
0.0
 13
-22.81241785997986
 23
235.145515363862
 33
0.0
  0
MTEXT
  5
EC
330
E5
100
AcDbEntity
  8
LAYER01
  6
Continuous
 62
     0
100
AcDbMText
 10
227.1730799839628
 20
235.145515363862
 30
0.0
 40
5.0
 41
0.0
 71
     5
 72
     1
  1
\A1;500
 73
     1
 44
1.0
1001
ACAD
1000
MTEXTBEGIN
1070
    73
1070
     1
1070
    44
1040
1.0
1070
    74
1070
     0
1000
MTEXTEND
  0
POINT
  5
ED
330
E5
100
AcDbEntity
  8
Defpoints
  6
Continuous
 62
     0
100
AcDbPoint
 10
477.1585778279054
 20
225.0088099681553
 30
0.0
  0
POINT
  5
EE
330
E5
100
AcDbEntity
  8
Defpoints
  6
Continuous
 62
     0
100
AcDbPoint
 10
-22.81241785997986
 20
225.0088099681553
 30
0.0
  0
POINT
  5
EF
330
E5
100
AcDbEntity
  8
Defpoints
  6
Continuous
 62
     0
100
AcDbPoint
 10
-22.81241785997986
 20
235.145515363862
 30
0.0
  0
ENDBLK
  5
F1
330
E5
100
AcDbEntity
  8
0
 62
     7
100
AcDbBlockEnd
  0
BLOCK
  5
104
330
F9
100
AcDbEntity
  8
0
 62
     7
100
AcDbBlockBegin
  2
*D3
 70
     1
 10
0.0
 20
0.0
 30
0.0
  3
*D3
  1

  0
LINE
  5
FA
330
F9
100
AcDbEntity
  8
LAYER01
  6
Continuous
 62
     0
370
    -2
100
AcDbLine
 10
0.8043570525360337
 20
-0.0260583527232256
 30
0.0
 11
-10.13795413106452
 21
-0.0260583527232226
 31
0.0
  0
LINE
  5
FB
330
F9
100
AcDbEntity
  8
LAYER01
  6
Continuous
 62
     0
370
    -2
100
AcDbLine
 10
0.1278073998039417
 20
-20.29947010325907
 30
0.0
 11
-10.13795413106453
 21
-20.29947010325907
 31
0.0
  0
LINE
  5
FC
330
F9
100
AcDbEntity
  8
LAYER01
  6
Continuous
 62
     0
370
    -2
100
AcDbLine
 10
-9.957954131064523
 20
0.1539416472767774
 30
0.0
 11
-9.957954131064523
 21
0.3339416472767774
 31
0.0
  0
LINE
  5
FD
330
F9
100
AcDbEntity
  8
LAYER01
  6
Continuous
 62
     0
370
    -2
100
AcDbLine
 10
-9.957954131064528
 20
-20.47947010325906
 30
0.0
 11
-9.957954131064528
 21
-20.65947010325906
 31
0.0
  0
SOLID
  5
FE
330
F9
100
AcDbEntity
  8
LAYER01
  6
Continuous
 62
     0
100
AcDbTrace
 10
-9.987954131064523
 20
0.1539416472767774
 30
0.0
 11
-9.927954131064524
 21
0.1539416472767774
 31
0.0
 12
-9.957954131064523
 22
-0.0260583527232226
 32
0.0
 13
-9.957954131064523
 23
-0.0260583527232226
 33
0.0
  0
SOLID
  5
FF
330
F9
100
AcDbEntity
  8
LAYER01
  6
Continuous
 62
     0
100
AcDbTrace
 10
-9.987954131064528
 20
-20.47947010325906
 30
0.0
 11
-9.927954131064529
 21
-20.47947010325906
 31
0.0
 12
-9.957954131064528
 22
-20.29947010325907
 32
0.0
 13
-9.957954131064528
 23
-20.29947010325907
 33
0.0
  0
MTEXT
  5
100
330
F9
100
AcDbEntity
  8
LAYER01
  6
Continuous
 62
     0
100
AcDbMText
 10
-9.957954131064523
 20
-10.16276422799115
 30
0.0
 40
5.0
 41
0.0
 71
     5
 72
     1
  1
\A1;20
 73
     1
 44
1.0
1001
ACAD
1000
MTEXTBEGIN
1070
    73
1070
     1
1070
    44
1040
1.0
1070
    74
1070
     0
1000
MTEXTEND
  0
POINT
  5
101
330
F9
100
AcDbEntity
  8
Defpoints
  6
Continuous
 62
     0
100
AcDbPoint
 10
0.8668570525360337
 20
-0.0260583527232257
 30
0.0
  0
POINT
  5
102
330
F9
100
AcDbEntity
  8
Defpoints
  6
Continuous
 62
     0
100
AcDbPoint
 10
0.1903073998039417
 20
-20.29947010325907
 30
0.0
  0
POINT
  5
103
330
F9
100
AcDbEntity
  8
Defpoints
  6
Continuous
 62
     0
100
AcDbPoint
 10
-9.957954131064528
 20
-20.29947010325907
 30
0.0
  0
ENDBLK
  5
105
330
F9
100
AcDbEntity
  8
0
 62
     7
100
AcDbBlockEnd
  0
BLOCK
  5
112
330
107
100
AcDbEntity
  8
0
 62
     7
100
AcDbBlockBegin
  2
*D4
 70
     1
 10
0.0
 20
0.0
 30
0.0
  3
*D4
  1

  0
LINE
  5
108
330
107
100
AcDbEntity
  8
LAYER01
  6
Continuous
 62
     0
370
    -2
100
AcDbLine
 10
461.6604119009427
 20
-0.0260583527232257
 30
0.0
 11
473.2792739329817
 21
-0.026058352723229
 31
0.0
  0
LINE
  5
109
330
107
100
AcDbEntity
  8
LAYER01
  6
Continuous
 62
     0
370
    -2
100
AcDbLine
 10
461.6604119009427
 20
-39.89710088663691
 30
0.0
 11
473.2792739329817
 21
-39.89710088663692
 31
0.0
  0
LINE
  5
10A
330
107
100
AcDbEntity
  8
LAYER01
  6
Continuous
 62
     0
370
    -2
100
AcDbLine
 10
473.0992739329817
 20
-0.2060583527232289
 30
0.0
 11
473.0992739329817
 21
-12.46157961968007
 31
0.0
  0
LINE
  5
10B
330
107
100
AcDbEntity
  8
LAYER01
  6
Continuous
 62
     0
370
    -2
100
AcDbLine
 10
473.0992739329817
 20
-39.71710088663691
 30
0.0
 11
473.0992739329817
 21
-27.46157961968008
 31
0.0
  0
SOLID
  5
10C
330
107
100
AcDbEntity
  8
LAYER01
  6
Continuous
 62
     0
100
AcDbTrace
 10
473.0692739329818
 20
-0.2060583527232289
 30
0.0
 11
473.1292739329817
 21
-0.2060583527232289
 31
0.0
 12
473.0992739329817
 22
-0.0260583527232289
 32
0.0
 13
473.0992739329817
 23
-0.0260583527232289
 33
0.0
  0
SOLID
  5
10D
330
107
100
AcDbEntity
  8
LAYER01
  6
Continuous
 62
     0
100
AcDbTrace
 10
473.0692739329818
 20
-39.71710088663691
 30
0.0
 11
473.1292739329817
 21
-39.71710088663691
 31
0.0
 12
473.0992739329817
 22
-39.89710088663692
 32
0.0
 13
473.0992739329817
 23
-39.89710088663692
 33
0.0
  0
MTEXT
  5
10E
330
107
100
AcDbEntity
  8
LAYER01
  6
Continuous
 62
     0
100
AcDbMText
 10
473.0992739329817
 20
-19.96157961967999
 30
0.0
 40
5.0
 41
0.0
 71
     5
 72
     1
  1
\A1;40
 73
     1
 44
1.0
1001
ACAD
1000
MTEXTBEGIN
1070
    73
1070
     1
1070
    44
1040
1.0
1070
    74
1070
     0
1000
MTEXTEND
  0
POINT
  5
10F
330
107
100
AcDbEntity
  8
Defpoints
  6
Continuous
 62
     0
100
AcDbPoint
 10
461.5979119009428
 20
-0.0260583527232257
 30
0.0
  0
POINT
  5
110
330
107
100
AcDbEntity
  8
Defpoints
  6
Continuous
 62
     0
100
AcDbPoint
 10
461.5979119009428
 20
-39.89710088663691
 30
0.0
  0
POINT
  5
111
330
107
100
AcDbEntity
  8
Defpoints
  6
Continuous
 62
     0
100
AcDbPoint
 10
473.0992739329817
 20
-39.89710088663692
 30
0.0
  0
ENDBLK
  5
113
330
107
100
AcDbEntity
  8
0
 62
     7
100
AcDbBlockEnd
  0
BLOCK
  5
120
330
115
100
AcDbEntity
  8
0
 62
     7
100
AcDbBlockBegin
  2
*D5
 70
     1
 10
0.0
 20
0.0
 30
0.0
  3
*D5
  1

  0
LINE
  5
116
330
115
100
AcDbEntity
  8
LAYER01
  6
Continuous
 62
     0
370
    -2
100
AcDbLine
 10
9.66201688652768
 20
200.0674352840032
 30
0.0
 11
9.66201688652768
 21
207.6185196884453
 31
0.0
  0
LINE
  5
117
330
115
100
AcDbEntity
  8
LAYER01
  6
Continuous
 62
     0
370
    -2
100
AcDbLine
 10
-20.78276651037106
 20
200.0674352840032
 30
0.0
 11
-20.78276651037106
 21
207.6185196884453
 31
0.0
  0
LINE
  5
118
330
115
100
AcDbEntity
  8
LAYER01
  6
Continuous
 62
     0
370
    -2
100
AcDbLine
 10
9.482016886527681
 20
207.4385196884453
 30
0.0
 11
3.189625188078309
 21
207.4385196884453
 31
0.0
  0
LINE
  5
119
330
115
100
AcDbEntity
  8
LAYER01
  6
Continuous
 62
     0
370
    -2
100
AcDbLine
 10
-20.60276651037106
 20
207.4385196884453
 30
0.0
 11
-14.31037481192169
 21
207.4385196884453
 31
0.0
  0
SOLID
  5
11A
330
115
100
AcDbEntity
  8
LAYER01
  6
Continuous
 62
     0
100
AcDbTrace
 10
9.482016886527681
 20
207.4685196884453
 30
0.0
 11
9.482016886527681
 21
207.4085196884453
 31
0.0
 12
9.66201688652768
 22
207.4385196884453
 32
0.0
 13
9.66201688652768
 23
207.4385196884453
 33
0.0
  0
SOLID
  5
11B
330
115
100
AcDbEntity
  8
LAYER01
  6
Continuous
 62
     0
100
AcDbTrace
 10
-20.60276651037106
 20
207.4685196884453
 30
0.0
 11
-20.60276651037106
 21
207.4085196884453
 31
0.0
 12
-20.78276651037106
 22
207.4385196884453
 32
0.0
 13
-20.78276651037106
 23
207.4385196884453
 33
0.0
  0
MTEXT
  5
11C
330
115
100
AcDbEntity
  8
LAYER01
  6
Continuous
 62
     0
100
AcDbMText
 10
-5.56037481192169
 20
207.4385196884453
 30
0.0
 40
5.0
 41
0.0
 71
     5
 72
     1
  1
\A1;30
 73
     1
 44
1.0
1001
ACAD
1000
MTEXTBEGIN
1070
    73
1070
     1
1070
    44
1040
1.0
1070
    74
1070
     0
1000
MTEXTEND
  0
POINT
  5
11D
330
115
100
AcDbEntity
  8
Defpoints
  6
Continuous
 62
     0
100
AcDbPoint
 10
9.66201688652768
 20
200.0049352840032
 30
0.0
  0
POINT
  5
11E
330
115
100
AcDbEntity
  8
Defpoints
  6
Continuous
 62
     0
100
AcDbPoint
 10
-20.78276651037106
 20
200.0049352840032
 30
0.0
  0
POINT
  5
11F
330
115
100
AcDbEntity
  8
Defpoints
  6
Continuous
 62
     0
100
AcDbPoint
 10
-20.78276651037106
 20
207.4385196884453
 30
0.0
  0
ENDBLK
  5
121
330
115
100
AcDbEntity
  8
0
 62
     7
100
AcDbBlockEnd
  0
BLOCK
  5
12E
330
123
100
AcDbEntity
  8
0
 62
     7
100
AcDbBlockBegin
  2
*D6
 70
     1
 10
0.0
 20
0.0
 30
0.0
  3
*D6
  1

  0
LINE
  5
124
330
123
100
AcDbEntity
  8
LAYER01
  6
Continuous
 62
     0
370
    -2
100
AcDbLine
 10
10.33856773496609
 20
210.2041411592712
 30
0.0
 11
10.33856773496609
 21
218.4310060513101
 31
0.0
  0
LINE
  5
125
330
123
100
AcDbEntity
  8
LAYER01
  6
Continuous
 62
     0
370
    -2
100
AcDbLine
 10
80.02329436275568
 20
210.2041411592712
 30
0.0
 11
80.02329436275568
 21
218.4310060513101
 31
0.0
  0
LINE
  5
126
330
123
100
AcDbEntity
  8
LAYER01
  6
Continuous
 62
     0
370
    -2
100
AcDbLine
 10
10.51856773496609
 20
218.2510060513101
 30
0.0
 11
36.43093104886089
 21
218.2510060513101
 31
0.0
  0
LINE
  5
127
330
123
100
AcDbEntity
  8
LAYER01
  6
Continuous
 62
     0
370
    -2
100
AcDbLine
 10
79.84329436275567
 20
218.2510060513101
 30
0.0
 11
53.93093104886088
 21
218.2510060513101
 31
0.0
  0
SOLID
  5
128
330
123
100
AcDbEntity
  8
LAYER01
  6
Continuous
 62
     0
100
AcDbTrace
 10
10.51856773496609
 20
218.2810060513101
 30
0.0
 11
10.51856773496609
 21
218.2210060513101
 31
0.0
 12
10.33856773496609
 22
218.2510060513101
 32
0.0
 13
10.33856773496609
 23
218.2510060513101
 33
0.0
  0
SOLID
  5
129
330
123
100
AcDbEntity
  8
LAYER01
  6
Continuous
 62
     0
100
AcDbTrace
 10
79.84329436275567
 20
218.2810060513101
 30
0.0
 11
79.84329436275567
 21
218.2210060513101
 31
0.0
 12
80.02329436275568
 22
218.2510060513101
 32
0.0
 13
80.02329436275568
 23
218.2510060513101
 33
0.0
  0
MTEXT
  5
12A
330
123
100
AcDbEntity
  8
LAYER01
  6
Continuous
 62
     0
100
AcDbMText
 10
45.18093104886088
 20
218.2510060513101
 30
0.0
 40
5.0
 41
0.0
 71
     5
 72
     1
  1
\A1;70
 73
     1
 44
1.0
1001
ACAD
1000
MTEXTBEGIN
1070
    73
1070
     1
1070
    44
1040
1.0
1070
    74
1070
     0
1000
MTEXTEND
  0
POINT
  5
12B
330
123
100
AcDbEntity
  8
Defpoints
  6
Continuous
 62
     0
100
AcDbPoint
 10
10.33856773496609
 20
210.1416411592711
 30
0.0
  0
POINT
  5
12C
330
123
100
AcDbEntity
  8
Defpoints
  6
Continuous
 62
     0
100
AcDbPoint
 10
80.02329436275568
 20
210.1416411592711
 30
0.0
  0
POINT
  5
12D
330
123
100
AcDbEntity
  8
Defpoints
  6
Continuous
 62
     0
100
AcDbPoint
 10
80.02329436275568
 20
218.2510060513101
 30
0.0
  0
ENDBLK
  5
12F
330
123
100
AcDbEntity
  8
0
 62
     7
100
AcDbBlockEnd
  0
ENDSEC
  0
SECTION
  2
ENTITIES
  0
LWPOLYLINE
  5
51
330
36
100
AcDbEntity
  8
7
  6
Continuous
100
AcDbPolyline
 90
        5
 70
     0
 43
0.0
 10
10.0
 20
193.47454
 10
480.0
 20
193.47454
 10
480.0
 20
13.47454
 10
10.0
 20
13.47454
 10
10.0
 20
193.47454
  0
LWPOLYLINE
  5
58
330
36
100
AcDbEntity
  8
7
  6
Continuous
100
AcDbPolyline
 90
        2
 70
     0
 43
0.0
 10
10.0
 20
193.47454
 10
10.0
 20
13.47454
  0
LWPOLYLINE
  5
5C
330
36
100
AcDbEntity
  8
7
  6
Continuous
100
AcDbPolyline
 90
        2
 70
     0
 43
0.0
 10
80.0
 20
193.47454
 10
80.0
 20
13.47454
  0
LWPOLYLINE
  5
60
330
36
100
AcDbEntity
  8
7
  6
Continuous
100
AcDbPolyline
 90
        2
 70
     0
 43
0.0
 10
150.0
 20
193.47454
 10
150.0
 20
13.47454
  0
LWPOLYLINE
  5
64
330
36
100
AcDbEntity
  8
7
  6
Continuous
100
AcDbPolyline
 90
        2
 70
     0
 43
0.0
 10
220.0
 20
193.47454
 10
220.0
 20
13.47454
  0
LWPOLYLINE
  5
68
330
36
100
AcDbEntity
  8
7
  6
Continuous
100
AcDbPolyline
 90
        2
 70
     0
 43
0.0
 10
290.0
 20
193.47454
 10
290.0
 20
13.47454
  0
LWPOLYLINE
  5
6C
330
36
100
AcDbEntity
  8
7
  6
Continuous
100
AcDbPolyline
 90
        2
 70
     0
 43
0.0
 10
360.0
 20
193.47454
 10
360.0
 20
13.47454
  0
LWPOLYLINE
  5
70
330
36
100
AcDbEntity
  8
7
  6
Continuous
100
AcDbPolyline
 90
        2
 70
     0
 43
0.0
 10
430.0
 20
193.47454
 10
430.0
 20
13.47454
  0
LWPOLYLINE
  5
74
330
36
100
AcDbEntity
  8
7
  6
Continuous
100
AcDbPolyline
 90
        2
 70
     0
 43
0.0
 10
480.0
 20
193.47454
 10
480.0
 20
13.47454
  0
LWPOLYLINE
  5
78
330
36
100
AcDbEntity
  8
7
  6
Continuous
100
AcDbPolyline
 90
        2
 70
     0
 43
0.0
 10
10.0
 20
194.45361
 10
480.0
 20
194.44372
  0
LWPOLYLINE
  5
7C
330
36
100
AcDbEntity
  8
7
  6
Continuous
100
AcDbPolyline
 90
        2
 70
     0
 43
0.0
 10
10.0
 20
187.51246
 10
480.0
 20
187.52236
  0
LWPOLYLINE
  5
80
330
36
100
AcDbEntity
  8
7
  6
Continuous
100
AcDbPolyline
 90
        2
 70
     0
 43
0.0
 10
10.0
 20
17.47454
 10
480.0
 20
17.47454
  0
LWPOLYLINE
  5
84
330
36
100
AcDbEntity
  8
7
  6
Continuous
100
AcDbPolyline
 90
        2
 70
     0
 43
0.0
 10
10.0
 20
17.47454
 10
480.0
 20
17.47454
  0
LWPOLYLINE
  5
88
330
36
100
AcDbEntity
  8
7
  6
Continuous
100
AcDbPolyline
 90
        2
 70
     0
 43
0.0
 10
10.0
 20
142.51454
 10
480.0
 20
141.97454
  0
LWPOLYLINE
  5
8C
330
36
100
AcDbEntity
  8
7
  6
Continuous
100
AcDbPolyline
 90
        2
 70
     0
 43
0.0
 10
10.0
 20
137.51454
 10
480.0
 20
136.97454
  0
LWPOLYLINE
  5
90
330
36
100
AcDbEntity
  8
7
  6
Continuous
100
AcDbPolyline
 90
        2
 70
     0
 43
0.0
 10
10.0
 20
142.51459
 10
480.0
 20
145.57459
  0
LWPOLYLINE
  5
94
330
36
100
AcDbEntity
  8
7
  6
Continuous
100
AcDbPolyline
 90
        2
 70
     0
 43
0.0
 10
10.0
 20
137.51449
 10
480.0
 20
140.57449
  0
DIMENSION
  5
9B
330
36
100
AcDbEntity
  8
LAYER01
  6
Continuous
 62
     7
100
AcDbDimension
  2
*D0
 10
537.4105546614061
 20
14.43867366226043
 30
0.0
 11
537.4105546614061
 21
104.5243785118145
 31
0.0
 70
    32
 71
     5
 42
180.1714096991079
  3
Copia di Standard
100
AcDbAlignedDimension
 13
513.474297394353
 23
194.6100833613684
 33
0.0
 14
513.474297394353
 24
14.43867366226044
 34
0.0
 50
90.0
100
AcDbRotatedDimension
  0
ARC
  5
D4
330
36
100
AcDbEntity
  8
LAYER01
  6
Continuous
 62
     7
100
AcDbCircle
 10
15.96339940663988
 20
153.7816348626853
 30
0.0
 40
40.86671649986931
100
AcDbArc
 50
97.80368875375648
 51
184.2206571242103
  0
ARC
  5
D5
330
36
100
AcDbEntity
  8
LAYER01
  6
Continuous
 62
     7
100
AcDbCircle
 10
302.9680951547046
 20
160.1364745314709
 30
0.0
 40
327.9368488447218
100
AcDbArc
 50
181.8786560160855
 51
206.6815606448953
  0
DIMENSION
  5
E4
330
36
100
AcDbEntity
  8
LAYER01
  6
Continuous
 62
     7
100
AcDbDimension
  2
*D2
 10
-22.81241785997986
 20
235.145515363862
 30
0.0
 11
227.1730799839628
 21
235.145515363862
 31
0.0
 70
    32
 71
     5
 42
499.9709956878852
  3
Copia di Standard
100
AcDbAlignedDimension
 13
477.1585778279054
 23
225.0088099681553
 33
0.0
 14
-22.81241785997986
 24
225.0088099681553
 34
0.0
100
AcDbRotatedDimension
  0
LINE
  5
F2
330
36
100
AcDbEntity
  8
LAYER01
  6
Continuous
 62
     7
100
AcDbLine
 10
9.66201688652768
 20
-0.0260583527232257
 30
0.0
 11
450.0965486731979
 21
-0.0260583527232257
 31
0.0
  0
LINE
  5
F4
330
36
100
AcDbEntity
  8
LAYER01
  6
Continuous
 62
     7
100
AcDbLine
 10
448.0668961278829
 20
-0.0260583527232257
 30
0.0
 11
424.387621215367
 21
-40.57288137423364
 31
0.0
  0
LINE
  5
F5
330
36
100
AcDbEntity
  8
LAYER01
  6
Continuous
 62
     7
100
AcDbLine
 10
424.387621215367
 20
-40.57288137423364
 30
0.0
 11
424.387621215367
 21
-40.57288137423364
 31
0.0
  0
LINE
  5
F6
330
36
100
AcDbEntity
  8
LAYER01
  6
Continuous
 62
     7
100
AcDbLine
 10
424.387621215367
 20
-40.57288137423364
 30
0.0
 11
21.83993096271092
 21
-17.59634815287194
 31
0.0
  0
LINE
  5
F7
330
36
100
AcDbEntity
  8
LAYER01
  6
Continuous
 62
     7
100
AcDbLine
 10
21.83993096271092
 20
-17.59634815287194
 30
0.0
 11
10.33856773496609
 21
-0.701838840320022
 31
0.0
  0
DIMENSION
  5
F8
330
36
100
AcDbEntity
  8
LAYER01
  6
Continuous
 62
     7
100
AcDbDimension
  2
*D3
 10
-9.957954131064528
 20
-20.29947010325907
 30
0.0
 11
-9.957954131064523
 21
-10.16276422799115
 31
0.0
 70
    32
 71
     5
 42
20.27341175053584
  3
Copia di Standard
100
AcDbAlignedDimension
 13
0.8668570525360337
 23
-0.0260583527232257
 33
0.0
 14
0.1903073998039417
 24
-20.29947010325907
 34
0.0
 50
90.0
100
AcDbRotatedDimension
  0
DIMENSION
  5
106
330
36
100
AcDbEntity
  8
LAYER01
  6
Continuous
 62
     7
100
AcDbDimension
  2
*D4
 10
473.0992739329817
 20
-39.89710088663692
 30
0.0
 11
473.0992739329817
 21
-19.96157961967999
 31
0.0
 70
    32
 71
     5
 42
39.87104253391368
  3
Copia di Standard
100
AcDbAlignedDimension
 13
461.5979119009428
 23
-0.0260583527232257
 33
0.0
 14
461.5979119009428
 24
-39.89710088663691
 34
0.0
 50
90.0
100
AcDbRotatedDimension
  0
DIMENSION
  5
114
330
36
100
AcDbEntity
  8
LAYER01
  6
Continuous
 62
     7
100
AcDbDimension
  2
*D5
 10
-20.78276651037106
 20
207.4385196884453
 30
0.0
 11
-5.56037481192169
 21
207.4385196884453
 31
0.0
 70
    32
 71
     5
 42
30.44478339689874
  3
Copia di Standard
100
AcDbAlignedDimension
 13
9.66201688652768
 23
200.0049352840032
 33
0.0
 14
-20.78276651037106
 24
200.0049352840032
 34
0.0
100
AcDbRotatedDimension
  0
DIMENSION
  5
122
330
36
100
AcDbEntity
  8
LAYER01
  6
Continuous
 62
     7
100
AcDbDimension
  2
*D6
 10
80.02329436275568
 20
218.2510060513101
 30
0.0
 11
45.18093104886088
 21
218.2510060513101
 31
0.0
 70
    32
 71
     5
 42
69.68472662778959
  3
Copia di Standard
100
AcDbAlignedDimension
 13
10.33856773496609
 23
210.1416411592711
 33
0.0
 14
80.02329436275568
 24
210.1416411592711
 34
0.0
100
AcDbRotatedDimension
  0
ENDSEC
  0
SECTION
  2
OBJECTS
  0
DICTIONARY
  5
C
330
0
100
AcDbDictionary
281
     1
  3
ACAD_COLOR
350
2F
  3
ACAD_GROUP
350
D
  3
ACAD_LAYOUT
350
2E
  3
ACAD_MATERIAL
350
10
  3
ACAD_MLINESTYLE
350
2B
  3
ACAD_PLOTSETTINGS
350
2D
  3
ACAD_PLOTSTYLENAME
350
E
  3
ACAD_TABLESTYLE
350
30
  3
ACAD_VISUALSTYLE
350
14
  3
AcDbVariableDictionary
350
BC
  3
DWGPROPS
350
133
  0
DICTIONARY
  5
2F
102
{ACAD_REACTORS
330
C
102
}
330
C
100
AcDbDictionary
281
     1
  0
DICTIONARY
  5
D
102
{ACAD_REACTORS
330
C
102
}
330
C
100
AcDbDictionary
281
     1
  0
DICTIONARY
  5
2E
102
{ACAD_REACTORS
330
C
102
}
330
C
100
AcDbDictionary
281
     1
  3
Layout1
350
35
  3
Model
350
39
  0
DICTIONARY
  5
10
102
{ACAD_REACTORS
330
C
102
}
330
C
100
AcDbDictionary
281
     1
  3
ByBlock
350
12
  3
ByLayer
350
11
  3
Global
350
13
  0
DICTIONARY
  5
2B
102
{ACAD_REACTORS
330
C
102
}
330
C
100
AcDbDictionary
281
     1
  3
Standard
350
2C
  0
DICTIONARY
  5
2D
102
{ACAD_REACTORS
330
C
102
}
330
C
100
AcDbDictionary
281
     1
  0
ACDBDICTIONARYWDFLT
  5
E
102
{ACAD_REACTORS
330
C
102
}
330
C
100
AcDbDictionary
281
     1
  3
Normal
350
F
100
AcDbDictionaryWithDefault
340
F
  0
DICTIONARY
  5
30
102
{ACAD_REACTORS
330
C
102
}
330
C
100
AcDbDictionary
281
     1
  3
Standard
350
31
  0
DICTIONARY
  5
14
102
{ACAD_REACTORS
330
C
102
}
330
C
100
AcDbDictionary
281
     1
  3
2dWireframe
350
1A
  3
3D Hidden
350
1C
  3
3dWireframe
350
1B
  3
Basic
350
19
  3
Brighten
350
20
  3
ColorChange
350
24
  3
Conceptual
350
1D
  3
Dim
350
1F
  3
Facepattern
350
23
  3
Flat
350
15
  3
FlatWithEdges
350
16
  3
Gouraud
350
17
  3
GouraudWithEdges
350
18
  3
Linepattern
350
22
  3
Realistic
350
1E
  3
Thicken
350
21
  0
DICTIONARY
  5
BC
102
{ACAD_REACTORS
330
C
102
}
330
C
100
AcDbDictionary
281
     1
  3
CTABLESTYLE
350
BD
  3
DIMASSOC
350
132
  3
INDEXCTL
350
131
  3
SORTENTS
350
130
  0
XRECORD
  5
133
102
{ACAD_REACTORS
330
C
102
}
330
C
100
AcDbXrecord
280
     1
  1
DWGPROPS COOKIE
  2

  3

  4

  6

  7

  8
Paolo
  9

300
=
301
=
302
=
303
=
304
=
305
=
306
=
307
=
308
=
309
=
 40
0.0639018055555556
 41
2313843.461245845
 42
2455320.668313333
  1

 90
        0
  0
LAYOUT
  5
35
102
{ACAD_XDICTIONARY
360
13C
102
}
102
{ACAD_REACTORS
330
2E
102
}
330
2E
100
AcDbPlotSettings
  1

  2
\\PC-PAOLO\HP DeskJet 970Cxi
  4

  6

 40
0.0
 41
0.0
 42
0.0
 43
0.0
 44
0.0
 45
0.0
 46
0.0
 47
0.0
 48
0.0
 49
0.0
140
0.0
141
0.0
142
1.0
143
1.0
 70
   688
 72
     0
 73
     0
 74
     5
  7

 75
    16
147
1.0
148
0.0
149
0.0
100
AcDbLayout
  1
Layout1
 70
     1
 71
     1
 10
0.0
 20
0.0
 11
12.0
 21
9.0
 12
0.0
 22
0.0
 32
0.0
 14
1.000000000000000E+20
 24
1.000000000000000E+20
 34
1.000000000000000E+20
 15
-1.000000000000000E+20
 25
-1.000000000000000E+20
 35
-1.000000000000000E+20
146
0.0
 13
0.0
 23
0.0
 33
0.0
 16
1.0
 26
0.0
 36
0.0
 17
0.0
 27
1.0
 37
0.0
 76
     0
330
32
  0
LAYOUT
  5
39
102
{ACAD_XDICTIONARY
360
13E
102
}
102
{ACAD_REACTORS
330
2E
102
}
330
2E
100
AcDbPlotSettings
  1

  2
\\PC-PAOLO\HP DeskJet 970Cxi
  4

  6

 40
0.0
 41
0.0
 42
0.0
 43
0.0
 44
0.0
 45
0.0
 46
0.0
 47
0.0
 48
0.0
 49
0.0
140
0.0
141
0.0
142
1.0
143
1.0
 70
  1712
 72
     0
 73
     0
 74
     0
  7

 75
     0
147
1.0
148
0.0
149
0.0
100
AcDbLayout
  1
Model
 70
     1
 71
     0
 10
0.0
 20
0.0
 11
12.0
 21
9.0
 12
0.0
 22
0.0
 32
0.0
 14
0.0
 24
0.0
 34
0.0
 15
0.0
 25
0.0
 35
0.0
146
0.0
 13
0.0
 23
0.0
 33
0.0
 16
1.0
 26
0.0
 36
0.0
 17
0.0
 27
1.0
 37
0.0
 76
     0
330
36
331
4F
  0
MATERIAL
  5
12
102
{ACAD_XDICTIONARY
360
136
102
}
102
{ACAD_REACTORS
330
10
102
}
330
10
100
AcDbMaterial
  1
ByBlock
  0
MATERIAL
  5
11
102
{ACAD_XDICTIONARY
360
134
102
}
102
{ACAD_REACTORS
330
10
102
}
330
10
100
AcDbMaterial
  1
ByLayer
  0
MATERIAL
  5
13
102
{ACAD_XDICTIONARY
360
138
102
}
102
{ACAD_REACTORS
330
10
102
}
330
10
100
AcDbMaterial
  1
Global
  0
MLINESTYLE
  5
2C
102
{ACAD_REACTORS
330
2B
102
}
330
2B
100
AcDbMlineStyle
  2
STANDARD
 70
     0
  3

 62
   256
 51
90.0
 52
90.0
 71
     2
 49
0.5
 62
   256
  6
BYLAYER
 49
-0.5
 62
   256
  6
BYLAYER
  0
ACDBPLACEHOLDER
  5
F
102
{ACAD_REACTORS
330
E
102
}
330
E
  0
TABLESTYLE
  5
31
102
{ACAD_XDICTIONARY
360
13A
102
}
102
{ACAD_REACTORS
330
30
102
}
330
30
100
AcDbTableStyle
  3
Standard
 70
     0
 71
     0
 40
0.06
 41
0.06
280
     0
281
     0
  7
STANDARD
140
0.18
170
     2
 62
     0
 63
     7
283
     0
274
    -2
284
     1
 64
     0
275
    -2
285
     1
 65
     0
276
    -2
286
     1
 66
     0
277
    -2
287
     1
 67
     0
278
    -2
288
     1
 68
     0
279
    -2
289
     1
 69
     0
  7
STANDARD
140
0.25
170
     5
 62
     0
 63
     7
283
     0
274
    -2
284
     1
 64
     0
275
    -2
285
     1
 65
     0
276
    -2
286
     1
 66
     0
277
    -2
287
     1
 67
     0
278
    -2
288
     1
 68
     0
279
    -2
289
     1
 69
     0
  7
STANDARD
140
0.18
170
     5
 62
     0
 63
     7
283
     0
274
    -2
284
     1
 64
     0
275
    -2
285
     1
 65
     0
276
    -2
286
     1
 66
     0
277
    -2
287
     1
 67
     0
278
    -2
288
     1
 68
     0
279
    -2
289
     1
 69
     0
  0
VISUALSTYLE
  5
1A
102
{ACAD_REACTORS
330
14
102
}
330
14
100
AcDbVisualStyle
  2
2dWireframe
 70
     4
 71
     0
 72
     2
 73
     0
 90
        0
 40
-0.6
 41
-30.0
 62
     5
 63
     7
 74
     1
 91
        4
 64
     7
 65
   257
 75
     1
175
     1
 42
1.0
 92
        0
 66
   257
 43
1.0
 76
     1
 77
     6
 78
     2
 67
     7
 79
     5
170
     0
171
     0
290
     0
174
     0
 93
        1
 44
0.0
173
     0
291
     0
 45
0.0
1001
ACAD
1000
AcDbSavedByObjectVersion
1070
     0
  0
VISUALSTYLE
  5
1C
102
{ACAD_REACTORS
330
14
102
}
330
14
100
AcDbVisualStyle
  2
3D Hidden
 70
     6
 71
     1
 72
     2
 73
     2
 90
        0
 40
-0.6
 41
-30.0
 62
     5
 63
     7
 74
     2
 91
        2
 64
     7
 65
   257
 75
     2
175
     1
 42
40.0
 92
        0
 66
   257
 43
1.0
 76
     1
 77
     6
 78
     2
 67
     7
 79
     3
170
     0
171
     0
290
     0
174
     0
 93
        1
 44
0.0
173
     0
291
     0
 45
0.0
1001
ACAD
1000
AcDbSavedByObjectVersion
1070
     0
  0
VISUALSTYLE
  5
1B
102
{ACAD_REACTORS
330
14
102
}
330
14
100
AcDbVisualStyle
  2
3dWireframe
 70
     5
 71
     0
 72
     2
 73
     0
 90
        0
 40
-0.6
 41
-30.0
 62
     5
 63
     7
 74
     1
 91
        4
 64
     7
 65
   257
 75
     1
175
     1
 42
1.0
 92
        0
 66
   257
 43
1.0
 76
     1
 77
     6
 78
     2
 67
     7
 79
     5
170
     0
171
     0
290
     0
174
     0
 93
        1
 44
0.0
173
     0
291
     0
 45
0.0
1001
ACAD
1000
AcDbSavedByObjectVersion
1070
     0
  0
VISUALSTYLE
  5
19
102
{ACAD_REACTORS
330
14
102
}
330
14
100
AcDbVisualStyle
  2
Basic
 70
     7
 71
     1
 72
     0
 73
     1
 90
        0
 40
-0.6
 41
-30.0
 62
     5
 63
     7
 74
     0
 91
        4
 64
     7
 65
   257
 75
     1
175
     1
 42
1.0
 92
        8
 66
     7
 43
1.0
 76
     1
 77
     6
 78
     2
 67
     7
 79
     5
170
     0
171
     0
290
     0
174
     0
 93
        1
 44
0.0
173
     0
291
     1
 45
0.0
1001
ACAD
1000
AcDbSavedByObjectVersion
1070
     0
  0
VISUALSTYLE
  5
20
102
{ACAD_REACTORS
330
14
102
}
330
14
100
AcDbVisualStyle
  2
Brighten
 70
    12
 71
     2
 72
     2
 73
     0
 90
        0
 40
-0.6
 41
-30.0
 62
     5
 63
     7
 74
     1
 91
        4
 64
     7
 65
   257
 75
     1
175
     1
 42
1.0
 92
        8
 66
     7
 43
1.0
 76
     1
 77
     6
 78
     2
 67
     7
 79
     5
170
     0
171
     0
290
     0
174
     0
 93
        1
 44
50.0
173
     0
291
     1
 45
0.0
1001
ACAD
1000
AcDbSavedByObjectVersion
1070
     0
  0
VISUALSTYLE
  5
24
102
{ACAD_REACTORS
330
14
102
}
330
14
100
AcDbVisualStyle
  2
ColorChange
 70
    16
 71
     2
 72
     2
 73
     3
 90
        0
 40
-0.6
 41
-30.0
 62
     5
 63
     8
 74
     1
 91
        4
 64
     7
 65
   257
 75
     1
175
     1
 42
1.0
 92
        8
 66
     8
 43
1.0
 76
     1
 77
     6
 78
     2
 67
     7
 79
     5
170
     0
171
     0
290
     0
174
     0
 93
        1
 44
0.0
173
     0
291
     1
 45
0.0
1001
ACAD
1000
AcDbSavedByObjectVersion
1070
     0
  0
VISUALSTYLE
  5
1D
102
{ACAD_REACTORS
330
14
102
}
330
14
100
AcDbVisualStyle
  2
Conceptual
 70
     9
 71
     3
 72
     2
 73
     0
 90
        0
 40
-0.6
 41
-30.0
 62
     5
 63
     7
 74
     2
 91
        2
 64
     7
 65
   257
 75
     1
175
     1
 42
40.0
 92
        8
 66
     7
 43
1.0
 76
     1
 77
     6
 78
     2
 67
     7
 79
     3
170
     0
171
     0
290
     0
174
     0
 93
        1
 44
0.0
173
     0
291
     0
 45
0.0
1001
ACAD
1000
AcDbSavedByObjectVersion
1070
     0
  0
VISUALSTYLE
  5
1F
102
{ACAD_REACTORS
330
14
102
}
330
14
100
AcDbVisualStyle
  2
Dim
 70
    11
 71
     2
 72
     2
 73
     0
 90
        0
 40
-0.6
 41
-30.0
 62
     5
 63
     7
 74
     1
 91
        4
 64
     7
 65
   257
 75
     1
175
     1
 42
1.0
 92
        8
 66
     7
 43
1.0
 76
     1
 77
     6
 78
     2
 67
     7
 79
     5
170
     0
171
     0
290
     0
174
     0
 93
        1
 44
-50.0
173
     0
291
     1
 45
0.0
1001
ACAD
1000
AcDbSavedByObjectVersion
1070
     0
  0
VISUALSTYLE
  5
23
102
{ACAD_REACTORS
330
14
102
}
330
14
100
AcDbVisualStyle
  2
Facepattern
 70
    15
 71
     2
 72
     2
 73
     0
 90
        0
 40
-0.6
 41
-30.0
 62
     5
 63
     7
 74
     1
 91
        4
 64
     7
 65
   257
 75
     1
175
     1
 42
1.0
 92
        8
 66
     7
 43
1.0
 76
     1
 77
     6
 78
     2
 67
     7
 79
     5
170
     0
171
     0
290
     0
174
     0
 93
        1
 44
0.0
173
     0
291
     1
 45
0.0
1001
ACAD
1000
AcDbSavedByObjectVersion
1070
     0
  0
VISUALSTYLE
  5
15
102
{ACAD_REACTORS
330
14
102
}
330
14
100
AcDbVisualStyle
  2
Flat
 70
     0
 71
     2
 72
     1
 73
     1
 90
        2
 40
-0.6
 41
30.0
 62
     5
 63
     7
 74
     0
 91
        4
 64
     7
 65
   257
 75
     1
175
     1
 42
1.0
 92
        8
 66
     7
 43
1.0
 76
     1
 77
     6
 78
     2
 67
     7
 79
     5
170
     0
171
     0
290
     0
174
     0
 93
       13
 44
0.0
173
     0
291
     1
 45
0.0
1001
ACAD
1000
AcDbSavedByObjectVersion
1070
     0
  0
VISUALSTYLE
  5
16
102
{ACAD_REACTORS
330
14
102
}
330
14
100
AcDbVisualStyle
  2
FlatWithEdges
 70
     1
 71
     2
 72
     1
 73
     1
 90
        2
 40
-0.6
 41
30.0
 62
     5
 63
     7
 74
     1
 91
        4
 64
     7
 65
   257
 75
     1
175
     1
 42
1.0
 92
        0
 66
   257
 43
1.0
 76
     1
 77
     6
 78
     2
 67
     7
 79
     5
170
     0
171
     0
290
     0
174
     0
 93
       13
 44
0.0
173
     0
291
     1
 45
0.0
1001
ACAD
1000
AcDbSavedByObjectVersion
1070
     0
  0
VISUALSTYLE
  5
17
102
{ACAD_REACTORS
330
14
102
}
330
14
100
AcDbVisualStyle
  2
Gouraud
 70
     2
 71
     2
 72
     2
 73
     1
 90
        2
 40
-0.6
 41
30.0
 62
     5
 63
     7
 74
     0
 91
        4
 64
     7
 65
   257
 75
     1
175
     1
 42
1.0
 92
        0
 66
     7
 43
1.0
 76
     1
 77
     6
 78
     2
 67
     7
 79
     5
170
     0
171
     0
290
     0
174
     0
 93
       13
 44
0.0
173
     0
291
     1
 45
0.0
1001
ACAD
1000
AcDbSavedByObjectVersion
1070
     0
  0
VISUALSTYLE
  5
18
102
{ACAD_REACTORS
330
14
102
}
330
14
100
AcDbVisualStyle
  2
GouraudWithEdges
 70
     3
 71
     2
 72
     2
 73
     1
 90
        2
 40
-0.6
 41
30.0
 62
     5
 63
     7
 74
     1
 91
        4
 64
     7
 65
   257
 75
     1
175
     1
 42
1.0
 92
        0
 66
   257
 43
1.0
 76
     1
 77
     6
 78
     2
 67
     7
 79
     5
170
     0
171
     0
290
     0
174
     0
 93
       13
 44
0.0
173
     0
291
     1
 45
0.0
1001
ACAD
1000
AcDbSavedByObjectVersion
1070
     0
  0
VISUALSTYLE
  5
22
102
{ACAD_REACTORS
330
14
102
}
330
14
100
AcDbVisualStyle
  2
Linepattern
 70
    14
 71
     2
 72
     2
 73
     0
 90
        0
 40
-0.6
 41
-30.0
 62
     5
 63
     7
 74
     1
 91
        4
 64
     7
 65
   257
 75
     7
175
     7
 42
1.0
 92
        8
 66
     7
 43
1.0
 76
     1
 77
     6
 78
     2
 67
     7
 79
     5
170
     0
171
     0
290
     0
174
     0
 93
        1
 44
0.0
173
     0
291
     1
 45
0.0
1001
ACAD
1000
AcDbSavedByObjectVersion
1070
     0
  0
VISUALSTYLE
  5
1E
102
{ACAD_REACTORS
330
14
102
}
330
14
100
AcDbVisualStyle
  2
Realistic
 70
     8
 71
     2
 72
     2
 73
     0
 90
        0
 40
-0.6
 41
-30.0
 62
     5
 63
     7
 74
     1
 91
        0
 64
     7
 65
   257
 75
     1
175
     1
 42
1.0
 92
        8
 66
     8
 43
1.0
 76
     1
 77
     6
 78
     2
 67
     7
 79
     5
170
     0
171
     0
290
     0
174
     0
 93
       13
 44
0.0
173
     0
291
     0
 45
0.0
1001
ACAD
1000
AcDbSavedByObjectVersion
1070
     0
  0
VISUALSTYLE
  5
21
102
{ACAD_REACTORS
330
14
102
}
330
14
100
AcDbVisualStyle
  2
Thicken
 70
    13
 71
     2
 72
     2
 73
     0
 90
        0
 40
-0.6
 41
-30.0
 62
     5
 63
     7
 74
     1
 91
        4
 64
     7
 65
   257
 75
     1
175
     1
 42
1.0
 92
       12
 66
     7
 43
1.0
 76
     1
 77
     6
 78
     2
 67
     7
 79
     5
170
     0
171
     0
290
     0
174
     0
 93
        1
 44
0.0
173
     0
291
     1
 45
0.0
1001
ACAD
1000
AcDbSavedByObjectVersion
1070
     0
  0
DICTIONARYVAR
  5
BD
102
{ACAD_REACTORS
330
BC
102
}
330
BC
100
DictionaryVariables
280
     0
  1
STANDARD
  0
DICTIONARYVAR
  5
132
102
{ACAD_REACTORS
330
BC
102
}
330
BC
100
DictionaryVariables
280
     0
  1
1
  0
DICTIONARYVAR
  5
131
102
{ACAD_REACTORS
330
BC
102
}
330
BC
100
DictionaryVariables
280
     0
  1
0
  0
DICTIONARYVAR
  5
130
102
{ACAD_REACTORS
330
BC
102
}
330
BC
100
DictionaryVariables
280
     0
  1
127
  0
DICTIONARY
  5
13C
330
35
100
AcDbDictionary
280
     1
281
     1
  3
ACAD_XREC_ROUNDTRIP
360
13D
  0
DICTIONARY
  5
13E
330
39
100
AcDbDictionary
280
     1
281
     1
  3
ACAD_XREC_ROUNDTRIP
360
13F
  0
DICTIONARY
  5
136
330
12
100
AcDbDictionary
280
     1
281
     1
  3
ACAD_XREC_ROUNDTRIP
360
137
  0
DICTIONARY
  5
134
330
11
100
AcDbDictionary
280
     1
281
     1
  3
ACAD_XREC_ROUNDTRIP
360
135
  0
DICTIONARY
  5
138
330
13
100
AcDbDictionary
280
     1
281
     1
  3
ACAD_XREC_ROUNDTRIP
360
139
  0
DICTIONARY
  5
13A
330
31
100
AcDbDictionary
280
     1
281
     1
  3
ACAD_XREC_ROUNDTRIP
360
13B
  0
XRECORD
  5
13D
102
{ACAD_REACTORS
330
13C
102
}
330
13C
100
AcDbXrecord
280
     1
102
SHADEPLOT
 70
     0
102
SHADEPLOTRESLEVEL
 70
     2
102
SHADEPLOTCUSTOMDPI
 70
   300
  0
XRECORD
  5
13F
102
{ACAD_REACTORS
330
13E
102
}
330
13E
100
AcDbXrecord
280
     1
102
SHADEPLOT
 70
     0
102
SHADEPLOTRESLEVEL
 70
     2
102
SHADEPLOTCUSTOMDPI
 70
   300
  0
XRECORD
  5
137
102
{ACAD_REACTORS
330
136
102
}
330
136
100
AcDbXrecord
280
     1
102
MATERIAL
148
0.0
149
0.0
149
0.0
 93
        0
 94
       63
282
     0
 72
     1
 77
     1
171
     1
175
     1
179
     1
273
     0
  0
XRECORD
  5
135
102
{ACAD_REACTORS
330
134
102
}
330
134
100
AcDbXrecord
280
     1
102
MATERIAL
148
0.0
149
0.0
149
0.0
 93
        0
 94
       63
282
     0
 72
     1
 77
     1
171
     1
175
     1
179
     1
273
     0
  0
XRECORD
  5
139
102
{ACAD_REACTORS
330
138
102
}
330
138
100
AcDbXrecord
280
     1
102
MATERIAL
148
0.0
149
0.0
149
0.0
 93
        0
 94
       63
282
     0
 72
     1
 77
     1
171
     1
175
     1
179
     1
273
     0
  0
XRECORD
  5
13B
102
{ACAD_REACTORS
330
13A
102
}
330
13A
100
AcDbXrecord
280
     1
102
ACAD_ROUNDTRIP_PRE2007_TABLESTYLE
 90
      512
 91
        0
  1

 92
      512
 93
        0
  2

 94
      512
 95
        0
  3

  0
ENDSEC
  0
EOF
