  0
SECTION
  2
HEADER
  9
$ACADVER
  1
AC1018
  9
$ACADMAINTVER
 70
     0
  9
$DWGCODEPAGE
  3
ANSI_1252
  9
$LASTSAVEDBY
  1
Massimo
  9
$INSBASE
 10
0.0
 20
0.0
 30
0.0
  9
$EXTMIN
 10
-63.75514704845892
 20
-199.089840321296
 30
0.0
  9
$EXTMAX
 10
552.1223364470577
 20
147.7363688185105
 30
0.0
  9
$LIMMIN
 10
0.0
 20
0.0
  9
$LIMMAX
 10
12.0
 20
9.0
  9
$ORTHOMODE
 70
     1
  9
$REGENMODE
 70
     1
  9
$FILLMODE
 70
     1
  9
$QTEXTMODE
 70
     0
  9
$MIRRTEXT
 70
     0
  9
$LTSCALE
 40
1.0
  9
$ATTMODE
 70
     1
  9
$TEXTSIZE
 40
0.2
  9
$TRACEWID
 40
0.05
  9
$TEXTSTYLE
  7
Standard
  9
$CLAYER
  8
0
  9
$CELTYPE
  6
ByLayer
  9
$CECOLOR
 62
   256
  9
$CELTSCALE
 40
1.0
  9
$DISPSILH
 70
     0
  9
$DIMSCALE
 40
1.0
  9
$DIMASZ
 40
0.18
  9
$DIMEXO
 40
0.0625
  9
$DIMDLI
 40
0.38
  9
$DIMRND
 40
0.0
  9
$DIMDLE
 40
0.0
  9
$DIMEXE
 40
0.18
  9
$DIMTP
 40
0.0
  9
$DIMTM
 40
0.0
  9
$DIMTXT
 40
0.18
  9
$DIMCEN
 40
0.09
  9
$DIMTSZ
 40
0.0
  9
$DIMTOL
 70
     0
  9
$DIMLIM
 70
     0
  9
$DIMTIH
 70
     1
  9
$DIMTOH
 70
     1
  9
$DIMSE1
 70
     0
  9
$DIMSE2
 70
     0
  9
$DIMTAD
 70
     0
  9
$DIMZIN
 70
     0
  9
$DIMBLK
  1

  9
$DIMASO
 70
     1
  9
$DIMSHO
 70
     1
  9
$DIMPOST
  1

  9
$DIMAPOST
  1

  9
$DIMALT
 70
     0
  9
$DIMALTD
 70
     2
  9
$DIMALTF
 40
25.4
  9
$DIMLFAC
 40
1.0
  9
$DIMTOFL
 70
     0
  9
$DIMTVP
 40
0.0
  9
$DIMTIX
 70
     0
  9
$DIMSOXD
 70
     0
  9
$DIMSAH
 70
     0
  9
$DIMBLK1
  1

  9
$DIMBLK2
  1

  9
$DIMSTYLE
  2
Standard
  9
$DIMCLRD
 70
     0
  9
$DIMCLRE
 70
     0
  9
$DIMCLRT
 70
     0
  9
$DIMTFAC
 40
1.0
  9
$DIMGAP
 40
0.09
  9
$DIMJUST
 70
     0
  9
$DIMSD1
 70
     0
  9
$DIMSD2
 70
     0
  9
$DIMTOLJ
 70
     1
  9
$DIMTZIN
 70
     0
  9
$DIMALTZ
 70
     0
  9
$DIMALTTZ
 70
     0
  9
$DIMUPT
 70
     0
  9
$DIMDEC
 70
     4
  9
$DIMTDEC
 70
     4
  9
$DIMALTU
 70
     2
  9
$DIMALTTD
 70
     2
  9
$DIMTXSTY
  7
Standard
  9
$DIMAUNIT
 70
     0
  9
$DIMADEC
 70
     0
  9
$DIMALTRND
 40
0.0
  9
$DIMAZIN
 70
     0
  9
$DIMDSEP
 70
    46
  9
$DIMATFIT
 70
     3
  9
$DIMFRAC
 70
     0
  9
$DIMLDRBLK
  1

  9
$DIMLUNIT
 70
     2
  9
$DIMLWD
 70
    -2
  9
$DIMLWE
 70
    -2
  9
$DIMTMOVE
 70
     0
  9
$LUNITS
 70
     2
  9
$LUPREC
 70
     4
  9
$SKETCHINC
 40
0.1
  9
$FILLETRAD
 40
0.0
  9
$AUNITS
 70
     0
  9
$AUPREC
 70
     0
  9
$MENU
  1
.
  9
$ELEVATION
 40
0.0
  9
$PELEVATION
 40
0.0
  9
$THICKNESS
 40
0.0
  9
$LIMCHECK
 70
     0
  9
$CHAMFERA
 40
0.0
  9
$CHAMFERB
 40
0.0
  9
$CHAMFERC
 40
0.0
  9
$CHAMFERD
 40
0.0
  9
$SKPOLY
 70
     0
  9
$TDCREATE
 40
2452643.146717604
  9
$TDUCREATE
 40
2452643.063384271
  9
$TDUPDATE
 40
2458951.733873287
  9
$TDUUPDATE
 40
2458951.650539954
  9
$TDINDWG
 40
0.0068616204
  9
$TDUSRTIMER
 40
0.0024799884
  9
$USRTIMER
 70
     1
  9
$ANGBASE
 50
0.0
  9
$ANGDIR
 70
     0
  9
$PDMODE
 70
     0
  9
$PDSIZE
 40
0.0
  9
$PLINEWID
 40
0.0
  9
$SPLFRAME
 70
     0
  9
$SPLINETYPE
 70
     6
  9
$SPLINESEGS
 70
     8
  9
$HANDSEED
  5
215
  9
$SURFTAB1
 70
     6
  9
$SURFTAB2
 70
     6
  9
$SURFTYPE
 70
     6
  9
$SURFU
 70
     6
  9
$SURFV
 70
     6
  9
$UCSBASE
  2

  9
$UCSNAME
  2

  9
$UCSORG
 10
0.0
 20
0.0
 30
0.0
  9
$UCSXDIR
 10
1.0
 20
0.0
 30
0.0
  9
$UCSYDIR
 10
0.0
 20
1.0
 30
0.0
  9
$UCSORTHOREF
  2

  9
$UCSORTHOVIEW
 70
     0
  9
$UCSORGTOP
 10
0.0
 20
0.0
 30
0.0
  9
$UCSORGBOTTOM
 10
0.0
 20
0.0
 30
0.0
  9
$UCSORGLEFT
 10
0.0
 20
0.0
 30
0.0
  9
$UCSORGRIGHT
 10
0.0
 20
0.0
 30
0.0
  9
$UCSORGFRONT
 10
0.0
 20
0.0
 30
0.0
  9
$UCSORGBACK
 10
0.0
 20
0.0
 30
0.0
  9
$PUCSBASE
  2

  9
$PUCSNAME
  2

  9
$PUCSORG
 10
0.0
 20
0.0
 30
0.0
  9
$PUCSXDIR
 10
1.0
 20
0.0
 30
0.0
  9
$PUCSYDIR
 10
0.0
 20
1.0
 30
0.0
  9
$PUCSORTHOREF
  2

  9
$PUCSORTHOVIEW
 70
     0
  9
$PUCSORGTOP
 10
0.0
 20
0.0
 30
0.0
  9
$PUCSORGBOTTOM
 10
0.0
 20
0.0
 30
0.0
  9
$PUCSORGLEFT
 10
0.0
 20
0.0
 30
0.0
  9
$PUCSORGRIGHT
 10
0.0
 20
0.0
 30
0.0
  9
$PUCSORGFRONT
 10
0.0
 20
0.0
 30
0.0
  9
$PUCSORGBACK
 10
0.0
 20
0.0
 30
0.0
  9
$USERI1
 70
     0
  9
$USERI2
 70
     0
  9
$USERI3
 70
     0
  9
$USERI4
 70
     0
  9
$USERI5
 70
     0
  9
$USERR1
 40
0.0
  9
$USERR2
 40
0.0
  9
$USERR3
 40
0.0
  9
$USERR4
 40
0.0
  9
$USERR5
 40
0.0
  9
$WORLDVIEW
 70
     1
  9
$SHADEDGE
 70
     3
  9
$SHADEDIF
 70
    70
  9
$TILEMODE
 70
     1
  9
$MAXACTVP
 70
    64
  9
$PINSBASE
 10
0.0
 20
0.0
 30
0.0
  9
$PLIMCHECK
 70
     0
  9
$PEXTMIN
 10
0.0
 20
0.0
 30
0.0
  9
$PEXTMAX
 10
0.0
 20
0.0
 30
0.0
  9
$PLIMMIN
 10
0.0
 20
0.0
  9
$PLIMMAX
 10
0.0
 20
0.0
  9
$UNITMODE
 70
     0
  9
$VISRETAIN
 70
     1
  9
$PLINEGEN
 70
     0
  9
$PSLTSCALE
 70
     1
  9
$TREEDEPTH
 70
  3020
  9
$CMLSTYLE
  2
Standard
  9
$CMLJUST
 70
     0
  9
$CMLSCALE
 40
1.0
  9
$PROXYGRAPHICS
 70
     1
  9
$MEASUREMENT
 70
     0
  9
$CELWEIGHT
370
    -1
  9
$ENDCAPS
280
     0
  9
$JOINSTYLE
280
     0
  9
$LWDISPLAY
290
     0
  9
$INSUNITS
 70
     1
  9
$HYPERLINKBASE
  1

  9
$STYLESHEET
  1

  9
$XEDIT
290
     1
  9
$CEPSNTYPE
380
     0
  9
$PSTYLEMODE
290
     1
  9
$FINGERPRINTGUID
  2
{FDEAD576-A652-11D2-9A35-0060089B3A3F}
  9
$VERSIONGUID
  2
{FBC2AE19-5C5C-49EC-81BC-71B1A3362A02}
  9
$EXTNAMES
290
     1
  9
$PSVPSCALE
 40
0.0
  9
$OLESTARTUP
290
     0
  9
$SORTENTS
280
   127
  9
$INDEXCTL
280
     0
  9
$HIDETEXT
280
     1
  9
$XCLIPFRAME
290
     0
  9
$HALOGAP
280
     0
  9
$OBSCOLOR
 70
   257
  9
$OBSLTYPE
280
     0
  9
$INTERSECTIONDISPLAY
280
     0
  9
$INTERSECTIONCOLOR
 70
   257
  9
$DIMASSOC
280
     2
  9
$PROJECTNAME
  1

  0
ENDSEC
  0
SECTION
  2
CLASSES
  0
CLASS
  1
ACDBDICTIONARYWDFLT
  2
AcDbDictionaryWithDefault
  3
ObjectDBX Classes
 90
        0
 91
        6
280
     0
281
     0
  0
CLASS
  1
ACDBPLACEHOLDER
  2
AcDbPlaceHolder
  3
ObjectDBX Classes
 90
        0
 91
        1
280
     0
281
     0
  0
CLASS
  1
LAYOUT
  2
AcDbLayout
  3
ObjectDBX Classes
 90
        0
 91
        1
280
     0
281
     0
  0
CLASS
  1
DICTIONARYVAR
  2
AcDbDictionaryVar
  3
ObjectDBX Classes
 90
        0
 91
        6
280
     0
281
     0
  0
CLASS
  1
TABLESTYLE
  2
AcDbTableStyle
  3
ObjectDBX Classes
 90
     4095
 91
        5
280
     0
281
     0
  0
CLASS
  1
MATERIAL
  2
AcDbMaterial
  3
ObjectDBX Classes
 90
     1153
 91
        6
280
     0
281
     0
  0
CLASS
  1
VISUALSTYLE
  2
AcDbVisualStyle
  3
ObjectDBX Classes
 90
     4095
 91
        6
280
     0
281
     0
  0
CLASS
  1
SCALE
  2
AcDbScale
  3
ObjectDBX Classes
 90
     1153
 91
        6
280
     0
281
     0
  0
CLASS
  1
CELLSTYLEMAP
  2
AcDbCellStyleMap
  3
ObjectDBX Classes
 90
     1152
 91
        5
280
     0
281
     0
  0
CLASS
  1
RASTERVARIABLES
  2
AcDbRasterVariables
  3
ISM
 90
        0
 91
        5
280
     0
281
     0
  0
CLASS
  1
SUN
  2
AcDbSun
  3
SCENEOE
 90
     1153
 91
        6
280
     0
281
     0
  0
CLASS
  1
MLEADERSTYLE
  2
AcDbMLeaderStyle
  3
ACDB_MLEADERSTYLE_CLASS
 90
     4095
 91
        5
280
     0
281
     0
  0
CLASS
  1
DIMASSOC
  2
AcDbDimAssoc
  3
"AcDbDimAssoc|Product Desc:     AcDim ARX App For Dimension|Company:          Autodesk, Inc.|WEB Address:      www.autodesk.com"
 90
        0
 91
        5
280
     0
281
     0
  0
CLASS
  1
SORTENTSTABLE
  2
AcDbSortentsTable
  3
ObjectDBX Classes
 90
        0
 91
        6
280
     0
281
     0
  0
ENDSEC
  0
SECTION
  2
TABLES
  0
TABLE
  2
VPORT
  5
8
330
0
100
AcDbSymbolTable
 70
     1
  0
VPORT
  5
94
330
8
100
AcDbSymbolTableRecord
100
AcDbViewportTableRecord
  2
*Active
 70
     0
 10
0.0
 20
0.0
 11
1.0
 21
1.0
 12
271.8531882652792
 22
-6.138032793530741
 13
0.0
 23
0.0
 14
0.5
 24
0.5
 15
0.5
 25
0.5
 16
0.0
 26
0.0
 36
1.0
 17
-27.6695935659798
 27
-19.53870295786201
 37
0.0
 40
353.7627333226026
 41
2.36986301369863
 42
50.0
 43
0.0
 44
0.0
 50
0.0
 51
0.0
 71
    16
 72
  1000
 73
     1
 74
     3
 75
     0
 76
     0
 77
     0
 78
     0
281
     0
 65
     1
110
0.0
120
0.0
130
0.0
111
1.0
121
0.0
131
0.0
112
0.0
122
1.0
132
0.0
 79
     0
146
0.0
  0
ENDTAB
  0
TABLE
  2
LTYPE
  5
5
330
0
100
AcDbSymbolTable
 70
     1
  0
LTYPE
  5
14
330
5
100
AcDbSymbolTableRecord
100
AcDbLinetypeTableRecord
  2
ByBlock
 70
     0
  3

 72
    65
 73
     0
 40
0.0
  0
LTYPE
  5
15
330
5
100
AcDbSymbolTableRecord
100
AcDbLinetypeTableRecord
  2
ByLayer
 70
     0
  3

 72
    65
 73
     0
 40
0.0
  0
LTYPE
  5
16
330
5
100
AcDbSymbolTableRecord
100
AcDbLinetypeTableRecord
  2
Continuous
 70
     0
  3
Solid line
 72
    65
 73
     0
 40
0.0
  0
ENDTAB
  0
TABLE
  2
LAYER
  5
2
330
0
100
AcDbSymbolTable
 70
     2
  0
LAYER
  5
10
330
2
100
AcDbSymbolTableRecord
100
AcDbLayerTableRecord
  2
0
 70
     0
 62
     7
  6
Continuous
370
    -3
390
F
  0
LAYER
  5
12E
330
2
100
AcDbSymbolTableRecord
100
AcDbLayerTableRecord
  2
Defpoints
 70
     0
 62
     7
  6
Continuous
290
     0
370
    -3
390
F
  0
ENDTAB
  0
TABLE
  2
STYLE
  5
3
330
0
100
AcDbSymbolTable
 70
     2
  0
STYLE
  5
11
330
3
100
AcDbSymbolTableRecord
100
AcDbTextStyleTableRecord
  2
Standard
 70
     0
 40
0.0
 41
1.0
 50
0.0
 71
     0
 42
0.2
  3
arial.ttf
  4

1001
ACAD
1000
Arial
1071
        0
  0
STYLE
  5
125
330
3
100
AcDbSymbolTableRecord
100
AcDbTextStyleTableRecord
  2
Annotative
 70
     0
 40
0.0
 41
1.0
 50
0.0
 71
     0
 42
0.2
  3
arial.ttf
  4

1001
ACAD
1000
Arial
1071
        0
1001
AcadAnnotative
1000
AnnotativeData
1002
{
1070
     1
1070
     1
1002
}
  0
ENDTAB
  0
TABLE
  2
VIEW
  5
6
330
0
100
AcDbSymbolTable
 70
     0
  0
ENDTAB
  0
TABLE
  2
UCS
  5
7
330
0
100
AcDbSymbolTable
 70
     0
  0
ENDTAB
  0
TABLE
  2
APPID
  5
9
330
0
100
AcDbSymbolTable
 70
     6
  0
APPID
  5
12
330
9
100
AcDbSymbolTableRecord
100
AcDbRegAppTableRecord
  2
ACAD
 70
     0
  0
APPID
  5
126
330
9
100
AcDbSymbolTableRecord
100
AcDbRegAppTableRecord
  2
AcadAnnotative
 70
     0
  0
APPID
  5
130
330
9
100
AcDbSymbolTableRecord
100
AcDbRegAppTableRecord
  2
ACAD_OBJECT_CHANGE_GUID
 70
     0
  0
APPID
  5
134
330
9
100
AcDbSymbolTableRecord
100
AcDbRegAppTableRecord
  2
ACAD_MLEADERVER
 70
     0
  0
APPID
  5
20F
330
9
100
AcDbSymbolTableRecord
100
AcDbRegAppTableRecord
  2
ACAD_DSTYLE_DIMFLIPARROW_SYMBOL
 70
     0
  0
APPID
  5
210
330
9
100
AcDbSymbolTableRecord
100
AcDbRegAppTableRecord
  2
ACAD_DSTYLE_DIMFLIPARROW_WHICH_SYMBOL
 70
     0
  0
ENDTAB
  0
TABLE
  2
DIMSTYLE
  5
A
330
0
100
AcDbSymbolTable
 70
     2
100
AcDbDimStyleTable
  0
DIMSTYLE
105
27
102
{ACAD_REACTORS
330
153
330
163
330
173
330
183
330
1DD
330
1FD
102
}
330
A
100
AcDbSymbolTableRecord
100
AcDbDimStyleTableRecord
  2
Standard
 70
     0
178
     0
340
11
  0
DIMSTYLE
105
127
330
A
100
AcDbSymbolTableRecord
100
AcDbDimStyleTableRecord
  2
Annotative
 70
     0
 40
0.0
178
     0
340
11
1001
AcadAnnotative
1000
AnnotativeData
1002
{
1070
     1
1070
     1
1002
}
  0
ENDTAB
  0
TABLE
  2
BLOCK_RECORD
  5
1
330
0
100
AcDbSymbolTable
 70
    10
  0
BLOCK_RECORD
  5
1F
102
{ACAD_XDICTIONARY
360
19D
102
}
330
1
100
AcDbSymbolTableRecord
100
AcDbBlockTableRecord
  2
*Model_Space
340
22
  0
BLOCK_RECORD
  5
58
330
1
100
AcDbSymbolTableRecord
100
AcDbBlockTableRecord
  2
*Paper_Space
340
59
  0
BLOCK_RECORD
  5
5D
330
1
100
AcDbSymbolTableRecord
100
AcDbBlockTableRecord
  2
*Paper_Space0
340
5E
  0
BLOCK_RECORD
  5
156
330
1
100
AcDbSymbolTableRecord
100
AcDbBlockTableRecord
  2
*D1
340
0
  0
BLOCK_RECORD
  5
166
330
1
100
AcDbSymbolTableRecord
100
AcDbBlockTableRecord
  2
*D2
340
0
  0
BLOCK_RECORD
  5
176
330
1
100
AcDbSymbolTableRecord
100
AcDbBlockTableRecord
  2
*D3
340
0
  0
BLOCK_RECORD
  5
186
330
1
100
AcDbSymbolTableRecord
100
AcDbBlockTableRecord
  2
*D4
340
0
  0
BLOCK_RECORD
  5
1E0
330
1
100
AcDbSymbolTableRecord
100
AcDbBlockTableRecord
  2
*D8
340
0
  0
BLOCK_RECORD
  5
200
330
1
100
AcDbSymbolTableRecord
100
AcDbBlockTableRecord
  2
*D9
340
0
  0
ENDTAB
  0
ENDSEC
  0
SECTION
  2
BLOCKS
  0
BLOCK
  5
20
330
1F
100
AcDbEntity
  8
0
100
AcDbBlockBegin
  2
*Model_Space
 70
     0
 10
0.0
 20
0.0
 30
0.0
  3
*Model_Space
  1

  0
ENDBLK
  5
21
330
1F
100
AcDbEntity
  8
0
100
AcDbBlockEnd
  0
BLOCK
  5
5A
330
58
100
AcDbEntity
 67
     1
  8
0
100
AcDbBlockBegin
  2
*Paper_Space
 70
     0
 10
0.0
 20
0.0
 30
0.0
  3
*Paper_Space
  1

  0
ENDBLK
  5
5B
330
58
100
AcDbEntity
 67
     1
  8
0
100
AcDbBlockEnd
  0
BLOCK
  5
5F
330
5D
100
AcDbEntity
  8
0
100
AcDbBlockBegin
  2
*Paper_Space0
 70
     0
 10
0.0
 20
0.0
 30
0.0
  3
*Paper_Space0
  1

  0
ENDBLK
  5
60
330
5D
100
AcDbEntity
  8
0
100
AcDbBlockEnd
  0
BLOCK
  5
157
330
156
100
AcDbEntity
  8
0
100
AcDbBlockBegin
  2
*D1
 70
     1
 10
0.0
 20
0.0
 30
0.0
  3
*D1
  1

  0
LINE
  5
159
330
156
100
AcDbEntity
  8
0
 62
     0
370
    -2
100
AcDbLine
 10
264.3329487124128
 20
84.9455
 30
0.0
 11
264.3329487124128
 21
145.3538688185105
 31
0.0
  0
LINE
  5
15A
330
156
100
AcDbEntity
  8
0
 62
     0
370
    -2
100
AcDbLine
 10
0.000000000648015
 20
100.0625
 30
0.0
 11
0.000000000648015
 21
145.3538688185105
 31
0.0
  0
LINE
  5
15B
330
156
100
AcDbEntity
  8
0
 62
     0
370
    -2
100
AcDbLine
 10
259.3329487124128
 20
145.1738688185105
 30
0.0
 11
146.5514743565304
 21
145.1738688185105
 31
0.0
  0
LINE
  5
15C
330
156
100
AcDbEntity
  8
0
 62
     0
370
    -2
100
AcDbLine
 10
5.000000000648015
 20
145.1738688185105
 30
0.0
 11
117.7814743565304
 21
145.1738688185105
 31
0.0
  0
SOLID
  5
15D
330
156
100
AcDbEntity
  8
0
 62
     0
100
AcDbTrace
 10
259.3329487124128
 20
144.3405354851771
 30
0.0
 11
259.3329487124128
 21
146.0072021518438
 31
0.0
 12
264.3329487124128
 22
145.1738688185105
 32
0.0
 13
264.3329487124128
 23
145.1738688185105
 33
0.0
  0
SOLID
  5
15E
330
156
100
AcDbEntity
  8
0
 62
     0
100
AcDbTrace
 10
5.000000000648015
 20
146.0072021518438
 30
0.0
 11
5.000000000648015
 21
144.3405354851771
 31
0.0
 12
0.000000000648015
 22
145.1738688185105
 32
0.0
 13
0.000000000648015
 23
145.1738688185105
 33
0.0
  0
MTEXT
  5
15F
330
156
100
AcDbEntity
  8
0
 62
     0
100
AcDbMText
 10
132.1664743565304
 20
145.1738688185105
 30
0.0
 40
5.0
 41
0.0
 71
     5
 72
     1
  1
\A1;264.3329
 73
     1
 44
1.0
  0
POINT
  5
160
330
156
100
AcDbEntity
  8
Defpoints
 62
     0
100
AcDbPoint
 10
264.3329487124128
 20
84.883
 30
0.0
  0
POINT
  5
161
330
156
100
AcDbEntity
  8
Defpoints
 62
     0
100
AcDbPoint
 10
0.000000000648015
 20
100.0
 30
0.0
  0
POINT
  5
162
330
156
100
AcDbEntity
  8
Defpoints
 62
     0
100
AcDbPoint
 10
0.000000000648015
 20
145.1738688185105
 30
0.0
  0
ENDBLK
  5
158
330
156
100
AcDbEntity
  8
0
100
AcDbBlockEnd
  0
BLOCK
  5
167
330
166
100
AcDbEntity
  8
0
100
AcDbBlockBegin
  2
*D2
 70
     1
 10
0.0
 20
0.0
 30
0.0
  3
*D2
  1

  0
LINE
  5
169
330
166
100
AcDbEntity
  8
0
 62
     0
370
    -2
100
AcDbLine
 10
264.3954487124125
 20
0.0000000000000035
 30
0.0
 11
537.5026535136792
 21
-0.0000000000000142
 31
0.0
  0
LINE
  5
16A
330
166
100
AcDbEntity
  8
0
 62
     0
370
    -2
100
AcDbLine
 10
264.3954487124128
 20
84.883
 30
0.0
 11
537.5026535136792
 21
84.88299999999998
 31
0.0
  0
LINE
  5
16B
330
166
100
AcDbEntity
  8
0
 62
     0
370
    -2
100
AcDbLine
 10
537.3226535136793
 20
9.999999999999986
 30
0.0
 11
537.3226535136793
 21
39.79899999999998
 31
0.0
  0
LINE
  5
16C
330
166
100
AcDbEntity
  8
0
 62
     0
370
    -2
100
AcDbLine
 10
537.3226535136793
 20
74.88299999999998
 30
0.0
 11
537.3226535136793
 21
45.084
 31
0.0
  0
SOLID
  5
16D
330
166
100
AcDbEntity
  8
0
 62
     0
100
AcDbTrace
 10
535.6559868470126
 20
9.999999999999986
 30
0.0
 11
538.9893201803459
 21
9.999999999999986
 31
0.0
 12
537.3226535136793
 22
-0.0000000000000142
 32
0.0
 13
537.3226535136793
 23
-0.0000000000000142
 33
0.0
  0
SOLID
  5
16E
330
166
100
AcDbEntity
  8
0
 62
     0
100
AcDbTrace
 10
538.9893201803459
 20
74.88299999999998
 30
0.0
 11
535.6559868470126
 21
74.88299999999998
 31
0.0
 12
537.3226535136793
 22
84.88299999999998
 32
0.0
 13
537.3226535136793
 23
84.88299999999998
 33
0.0
  0
MTEXT
  5
16F
330
166
100
AcDbEntity
  8
0
 62
     0
100
AcDbMText
 10
537.3226535136793
 20
42.44149999999998
 30
0.0
 40
5.0
 41
0.0
 71
     5
 72
     1
  1
\A1;84.8830
 73
     1
 44
1.0
  0
POINT
  5
170
330
166
100
AcDbEntity
  8
Defpoints
 62
     0
100
AcDbPoint
 10
264.3329487124125
 20
0.0000000000000036
 30
0.0
  0
POINT
  5
171
330
166
100
AcDbEntity
  8
Defpoints
 62
     0
100
AcDbPoint
 10
264.3329487124128
 20
84.883
 30
0.0
  0
POINT
  5
172
330
166
100
AcDbEntity
  8
Defpoints
 62
     0
100
AcDbPoint
 10
537.3226535136793
 20
84.88299999999998
 30
0.0
  0
ENDBLK
  5
168
330
166
100
AcDbEntity
  8
0
100
AcDbBlockEnd
  0
BLOCK
  5
177
330
176
100
AcDbEntity
  8
0
100
AcDbBlockBegin
  2
*D3
 70
     1
 10
0.0
 20
0.0
 30
0.0
  3
*D3
  1

  0
LINE
  5
179
330
176
100
AcDbEntity
  8
0
 62
     0
370
    -2
100
AcDbLine
 10
-0.062499999351985
 20
100.0
 30
0.0
 11
-49.93264704845889
 21
100.0
 31
0.0
  0
LINE
  5
17A
330
176
100
AcDbEntity
  8
0
 62
     0
370
    -2
100
AcDbLine
 10
-0.0625000000018758
 20
0.0000000000000036
 30
0.0
 11
-49.9326470484589
 21
0.0000000000000066
 31
0.0
  0
LINE
  5
17B
330
176
100
AcDbEntity
  8
0
 62
     0
370
    -2
100
AcDbLine
 10
-49.75264704845889
 20
90.00000000000001
 30
0.0
 11
-49.75264704845889
 21
52.64250000000003
 31
0.0
  0
LINE
  5
17C
330
176
100
AcDbEntity
  8
0
 62
     0
370
    -2
100
AcDbLine
 10
-49.7526470484589
 20
10.00000000000001
 30
0.0
 11
-49.7526470484589
 21
47.3575
 31
0.0
  0
SOLID
  5
17D
330
176
100
AcDbEntity
  8
0
 62
     0
100
AcDbTrace
 10
-48.08598038179223
 20
90.00000000000001
 30
0.0
 11
-51.41931371512555
 21
90.00000000000001
 31
0.0
 12
-49.75264704845889
 22
100.0
 32
0.0
 13
-49.75264704845889
 23
100.0
 33
0.0
  0
SOLID
  5
17E
330
176
100
AcDbEntity
  8
0
 62
     0
100
AcDbTrace
 10
-51.41931371512556
 20
10.00000000000001
 30
0.0
 11
-48.08598038179223
 21
10.00000000000001
 31
0.0
 12
-49.7526470484589
 22
0.0000000000000066
 32
0.0
 13
-49.7526470484589
 23
0.0000000000000066
 33
0.0
  0
MTEXT
  5
17F
330
176
100
AcDbEntity
  8
0
 62
     0
100
AcDbMText
 10
-49.7526470484589
 20
50.00000000000001
 30
0.0
 40
5.0
 41
0.0
 71
     5
 72
     1
  1
\A1;100.0000
 73
     1
 44
1.0
  0
POINT
  5
180
330
176
100
AcDbEntity
  8
Defpoints
 62
     0
100
AcDbPoint
 10
0.000000000648015
 20
100.0
 30
0.0
  0
POINT
  5
181
330
176
100
AcDbEntity
  8
Defpoints
 62
     0
100
AcDbPoint
 10
-0.0000000000018758
 20
0.0000000000000036
 30
0.0
  0
POINT
  5
182
330
176
100
AcDbEntity
  8
Defpoints
 62
     0
100
AcDbPoint
 10
-49.7526470484589
 20
0.0000000000000066
 30
0.0
  0
ENDBLK
  5
178
330
176
100
AcDbEntity
  8
0
100
AcDbBlockEnd
  0
BLOCK
  5
187
330
186
100
AcDbEntity
  8
0
100
AcDbBlockBegin
  2
*D4
 70
     1
 10
0.0
 20
0.0
 30
0.0
  3
*D4
  1

  0
LINE
  5
189
330
186
100
AcDbEntity
  8
0
 62
     0
370
    -2
100
AcDbLine
 10
0.0
 20
-0.0625
 30
0.0
 11
0.0
 21
-54.10427352686515
 31
0.0
  0
LINE
  5
18A
330
186
100
AcDbEntity
  8
0
 62
     0
370
    -2
100
AcDbLine
 10
499.9999999999981
 20
-0.0624999999999964
 30
0.0
 11
499.9999999999981
 21
-54.10427352686515
 31
0.0
  0
LINE
  5
18B
330
186
100
AcDbEntity
  8
0
 62
     0
370
    -2
100
AcDbLine
 10
10.0
 20
-53.92427352686515
 30
0.0
 11
235.672499999999
 21
-53.92427352686515
 31
0.0
  0
LINE
  5
18C
330
186
100
AcDbEntity
  8
0
 62
     0
370
    -2
100
AcDbLine
 10
489.9999999999981
 20
-53.92427352686515
 30
0.0
 11
264.327499999999
 21
-53.92427352686515
 31
0.0
  0
SOLID
  5
18D
330
186
100
AcDbEntity
  8
0
 62
     0
100
AcDbTrace
 10
10.0
 20
-52.25760686019849
 30
0.0
 11
10.0
 21
-55.59094019353181
 31
0.0
 12
0.0
 22
-53.92427352686515
 32
0.0
 13
0.0
 23
-53.92427352686515
 33
0.0
  0
SOLID
  5
18E
330
186
100
AcDbEntity
  8
0
 62
     0
100
AcDbTrace
 10
489.9999999999981
 20
-55.59094019353181
 30
0.0
 11
489.9999999999981
 21
-52.25760686019849
 31
0.0
 12
499.9999999999981
 22
-53.92427352686515
 32
0.0
 13
499.9999999999981
 23
-53.92427352686515
 33
0.0
  0
MTEXT
  5
18F
330
186
100
AcDbEntity
  8
0
 62
     0
100
AcDbMText
 10
249.999999999999
 20
-53.92427352686515
 30
0.0
 40
5.0
 41
0.0
 71
     5
 72
     1
  1
\A1;500.0000
 73
     1
 44
1.0
  0
POINT
  5
190
330
186
100
AcDbEntity
  8
Defpoints
 62
     0
100
AcDbPoint
 10
0.0
 20
0.0
 30
0.0
  0
POINT
  5
191
330
186
100
AcDbEntity
  8
Defpoints
 62
     0
100
AcDbPoint
 10
499.9999999999981
 20
0.0000000000000036
 30
0.0
  0
POINT
  5
192
330
186
100
AcDbEntity
  8
Defpoints
 62
     0
100
AcDbPoint
 10
499.9999999999981
 20
-53.92427352686515
 30
0.0
  0
ENDBLK
  5
188
330
186
100
AcDbEntity
  8
0
100
AcDbBlockEnd
  0
BLOCK
  5
1E1
330
1E0
100
AcDbEntity
  8
0
100
AcDbBlockBegin
  2
*D8
 70
     1
 10
0.0
 20
0.0
 30
0.0
  3
*D8
  1

  0
LINE
  5
1E3
330
1E0
100
AcDbEntity
  8
0
 62
     0
370
    -2
100
AcDbLine
 10
212.2066
 20
42.5038
 30
0.0
 11
212.2066
 21
120.7156884352394
 31
0.0
  0
LINE
  5
1E4
330
1E0
100
AcDbEntity
  8
0
 62
     0
370
    -2
100
AcDbLine
 10
0.0
 20
100.0625
 30
0.0
 11
0.0
 21
120.7156884352394
 31
0.0
  0
LINE
  5
1E5
330
1E0
100
AcDbEntity
  8
0
 62
     0
370
    -2
100
AcDbLine
 10
202.2066
 20
120.5356884352394
 30
0.0
 11
120.4833
 21
120.5356884352394
 31
0.0
  0
LINE
  5
1E6
330
1E0
100
AcDbEntity
  8
0
 62
     0
370
    -2
100
AcDbLine
 10
10.0
 20
120.5356884352394
 30
0.0
 11
91.7233
 21
120.5356884352394
 31
0.0
  0
SOLID
  5
1E7
330
1E0
100
AcDbEntity
  8
0
 62
     0
100
AcDbTrace
 10
202.2066
 20
118.8690217685727
 30
0.0
 11
202.2066
 21
122.202355101906
 31
0.0
 12
212.2066
 22
120.5356884352394
 32
0.0
 13
212.2066
 23
120.5356884352394
 33
0.0
  0
SOLID
  5
1E8
330
1E0
100
AcDbEntity
  8
0
 62
     0
100
AcDbTrace
 10
10.0
 20
122.202355101906
 30
0.0
 11
10.0
 21
118.8690217685727
 31
0.0
 12
0.0
 22
120.5356884352394
 32
0.0
 13
0.0
 23
120.5356884352394
 33
0.0
  0
MTEXT
  5
1E9
330
1E0
100
AcDbEntity
  8
0
 62
     0
100
AcDbMText
 10
106.1033
 20
120.5356884352394
 30
0.0
 40
5.0
 41
0.0
 71
     5
 72
     1
  1
\A1;212.2066
 73
     1
 44
1.0
  0
POINT
  5
1EA
330
1E0
100
AcDbEntity
  8
Defpoints
 62
     0
100
AcDbPoint
 10
212.2066
 20
42.4413
 30
0.0
  0
POINT
  5
1EB
330
1E0
100
AcDbEntity
  8
Defpoints
 62
     0
100
AcDbPoint
 10
0.0
 20
100.0
 30
0.0
  0
POINT
  5
1EC
330
1E0
100
AcDbEntity
  8
Defpoints
 62
     0
100
AcDbPoint
 10
0.0
 20
120.5356884352394
 30
0.0
  0
ENDBLK
  5
1E2
330
1E0
100
AcDbEntity
  8
0
100
AcDbBlockEnd
  0
BLOCK
  5
201
330
200
100
AcDbEntity
  8
0
100
AcDbBlockBegin
  2
*D9
 70
     1
 10
0.0
 20
0.0
 30
0.0
  3
*D9
  1

  0
LINE
  5
203
330
200
100
AcDbEntity
  8
0
 62
     0
370
    -2
100
AcDbLine
 10
212.1441
 20
42.4413
 30
0.0
 11
-20.01028144390868
 21
42.44130000000001
 31
0.0
  0
LINE
  5
204
330
200
100
AcDbEntity
  8
0
 62
     0
370
    -2
100
AcDbLine
 10
-0.0625
 20
0.0
 30
0.0
 11
-20.01028144390869
 21
0.0
 31
0.0
  0
LINE
  5
205
330
200
100
AcDbEntity
  8
0
 62
     0
370
    -2
100
AcDbLine
 10
-19.83028144390869
 20
42.44130000000001
 30
0.0
 11
-19.83028144390869
 21
23.86314999999995
 31
0.0
  0
LINE
  5
206
330
200
100
AcDbEntity
  8
0
 62
     0
370
    -2
100
AcDbLine
 10
-19.83028144390869
 20
0.0
 30
0.0
 11
-19.83028144390869
 21
18.57814999999995
 31
0.0
  0
LINE
  5
207
330
200
100
AcDbEntity
  8
0
 62
     0
370
    -2
100
AcDbLine
 10
-19.83028144390869
 20
52.44130000000001
 30
0.0
 11
-19.83028144390869
 21
62.44130000000001
 31
0.0
  0
LINE
  5
208
330
200
100
AcDbEntity
  8
0
 62
     0
370
    -2
100
AcDbLine
 10
-19.83028144390869
 20
-10.0
 30
0.0
 11
-19.83028144390869
 21
-20.0
 31
0.0
  0
SOLID
  5
209
330
200
100
AcDbEntity
  8
0
 62
     0
100
AcDbTrace
 10
-21.49694811057535
 20
52.44130000000001
 30
0.0
 11
-18.16361477724202
 21
52.44130000000001
 31
0.0
 12
-19.83028144390869
 22
42.44130000000001
 32
0.0
 13
-19.83028144390869
 23
42.44130000000001
 33
0.0
  0
SOLID
  5
20A
330
200
100
AcDbEntity
  8
0
 62
     0
100
AcDbTrace
 10
-18.16361477724202
 20
-10.0
 30
0.0
 11
-21.49694811057536
 21
-10.0
 31
0.0
 12
-19.83028144390869
 22
0.0
 32
0.0
 13
-19.83028144390869
 23
0.0
 33
0.0
  0
MTEXT
  5
20B
330
200
100
AcDbEntity
  8
0
 62
     0
100
AcDbMText
 10
-19.83028144390869
 20
21.22064999999995
 30
0.0
 40
5.0
 41
0.0
 71
     5
 72
     1
  1
\A1;42.4413
 73
     1
 44
1.0
  0
POINT
  5
20C
330
200
100
AcDbEntity
  8
Defpoints
 62
     0
100
AcDbPoint
 10
212.2066
 20
42.4413
 30
0.0
  0
POINT
  5
20D
330
200
100
AcDbEntity
  8
Defpoints
 62
     0
100
AcDbPoint
 10
0.0
 20
0.0
 30
0.0
  0
POINT
  5
20E
330
200
100
AcDbEntity
  8
Defpoints
 62
     0
100
AcDbPoint
 10
-19.83028144390869
 20
0.0000000000000012
 30
0.0
  0
ENDBLK
  5
202
330
200
100
AcDbEntity
  8
0
100
AcDbBlockEnd
  0
ENDSEC
  0
SECTION
  2
ENTITIES
  0
ELLIPSE
  5
12A
102
{ACAD_REACTORS
330
155
330
165
330
175
330
185
330
1DF
102
}
330
1F
100
AcDbEntity
  8
0
100
AcDbEllipse
 10
-0.0000000000018758
 20
0.0000000000000036
 30
0.0
 11
500.0
 21
0.0
 31
0.0
210
0.0
220
0.0
230
1.0
 40
0.2
 41
6.283185307179586
 42
7.853981633974483
  0
LINE
  5
12B
102
{ACAD_REACTORS
330
185
102
}
330
1F
100
AcDbEntity
  8
0
100
AcDbLine
 10
-0.0000000000018758
 20
0.0000000000000036
 30
0.0
 11
-0.0000000000018758
 21
100.0
 31
0.0
  0
LINE
  5
12C
102
{ACAD_REACTORS
330
165
330
185
102
}
330
1F
100
AcDbEntity
  8
0
100
AcDbLine
 10
-0.0000000000018758
 20
0.0000000000000036
 30
0.0
 11
499.9999999999981
 21
0.0000000000000293
 31
0.0
  0
REGION
  5
12D
102
{ACAD_REACTORS
330
175
102
}
330
1F
100
AcDbEntity
  8
0
100
AcDbModelerGeometry
 70
     1
  1
mogoo ml m o 
  1
_ll P/:1 [:,681 ^ 336>1<: ^ \VL ]*63;:- _nk ^ \VL mogqoo QK _mk L>+ ^ /- nn nhelieki momo 
  1
n fqfffffffffffffffj:roog n:rono 
  1
>,27:>;:- {rn rn _nm mogqoqkqhoof |
  1
=0;& {rn rn {rn {mn {rn {mm |
  1
/061+ {rn rn {rn noolqkghmhfgklkkkm kqihjgfoknofjgghgk o |
  1
):-+:' {rn rn {rn {nj {m |
  1
/061+ {rn rn {rn jolqkghmhfgkkofknl nokqihjgfoknofjgfn o |
  1
):-+:' {rn rn {rn {nm {k |
  1
/061+ {rn rn {rn jolqkghmhfgklkkkmk kqihjgfoknofjgfolm o |
  1
):-+:' {rn rn {rn {nj {i |
  1
:336/,:r<*-): {rn rn {rn jolqkghmhfgklkkkmk kqihjgfoknofjgfolm o o o n joo o o oqmooooooooooooooon V V |
  1
:;8: {rn rn {rn {l o {j nqjhohfilmihfljfhm {no {g 90-(>-; _h *1410(1 |
  1
<0:;8: {rn rn {rn {nl {ni {rn {f 90-(>-; {nh {rn |
  1
,+->687+r<*-): {rn rn {rn jolqkghmhfgkkofknl nokqihjgfoknofjgfn o riqkgonkfhjonlmnnlh:ronm rn o V V |
  1
:;8: {rn rn {rn {j o {h nooqooooooooooooon {nl {nn 90-(>-; _h *1410(1 |
  1
<0:;8: {rn rn {rn {ni {no {rn {nm 90-(>-; {nh {rn |
  1
,+->687+r<*-): {rn rn {rn jolqkghmhfgklkkkmk kqihjgfoknofjgfolm o n o o V V |
  1
:;8: {rn rn {rn {h o {l kffqfffffffffffffk {ni {nk 90-(>-; _h *1410(1 |
  1
<0:;8: {rn rn {rn {no {nl {rn {nj 90-(>-; {nh {rn |
  1
300/ {rn rn {rn {rn {no {nf |
  1
/3>1:r,*-9><: {rn rn {rn hjlqkghmhfgklkkkng kqihjgfoknofjggfog o o o n n o o 90-(>-;@) V V V V |
  1
9><: {rn rn {rn {rn {nh {mo {rn {ng 90-(>-; ;0*=3: 0*+ |
  1
,7:33 {rn rn {rn {rn {rn {nf {rn {mn |
  1
3*2/ {rn rn {rn {rn {mo {n |
  1
+->1,90-2 {rn rn n o o o n o o o n rjolqkghmhfgklkkinm rkqihjgfoknofjggffh o n 10@-0+>+: 10@-:93:<+ 10@,7:>- |
  1
Z1;r09r^ \VLr;>+> 
1001
ACAD_OBJECT_CHANGE_GUID
1070
     0
1071
        0
1070
     0
1070
     0
1070
     0
1070
     0
1070
     0
1070
     0
1070
     0
1070
     0
1070
     0
1070
     0
  0
LINE
  5
152
102
{ACAD_REACTORS
330
155
330
165
102
}
330
1F
100
AcDbEntity
  8
0
100
AcDbLine
 10
264.3329487124128
 20
84.883
 30
0.0
 11
264.3329487124125
 21
0.0
 31
0.0
  0
DIMENSION
  5
153
102
{ACAD_REACTORS
330
155
102
}
102
{ACAD_XDICTIONARY
360
154
102
}
330
1F
100
AcDbEntity
  8
0
100
AcDbDimension
  2
*D1
 10
0.000000000648015
 20
145.1738688185105
 30
0.0
 11
132.1664743565304
 21
145.1738688185105
 31
0.0
 70
    32
 71
     5
 42
264.3329487117647
  3
Standard
100
AcDbAlignedDimension
 13
264.3329487124128
 23
84.883
 33
0.0
 14
0.000000000648015
 24
100.0
 34
0.0
100
AcDbRotatedDimension
1001
ACAD
1000
DSTYLE
1002
{
1070
    41
1040
5.0
1070
   140
1040
5.0
1002
}
  0
DIMENSION
  5
163
102
{ACAD_REACTORS
330
165
102
}
102
{ACAD_XDICTIONARY
360
164
102
}
330
1F
100
AcDbEntity
  8
0
100
AcDbDimension
  2
*D2
 10
537.3226535136793
 20
84.88299999999998
 30
0.0
 11
537.3226535136793
 21
42.44149999999998
 31
0.0
 70
    32
 71
     5
 42
84.883
  3
Standard
100
AcDbAlignedDimension
 13
264.3329487124125
 23
0.0000000000000036
 33
0.0
 14
264.3329487124128
 24
84.883
 34
0.0
 50
90.0
100
AcDbRotatedDimension
1001
ACAD
1000
DSTYLE
1002
{
1070
    41
1040
10.0
1070
   140
1040
5.0
1002
}
  0
DIMENSION
  5
173
102
{ACAD_REACTORS
330
175
102
}
102
{ACAD_XDICTIONARY
360
174
102
}
330
1F
100
AcDbEntity
  8
0
100
AcDbDimension
  2
*D3
 10
-49.7526470484589
 20
0.0000000000000066
 30
0.0
 11
-49.7526470484589
 21
50.00000000000001
 31
0.0
 70
    32
 71
     5
 42
100.0
  3
Standard
100
AcDbAlignedDimension
 13
0.000000000648015
 23
100.0
 33
0.0
 14
-0.0000000000018758
 24
0.0000000000000036
 34
0.0
 50
90.0
100
AcDbRotatedDimension
1001
ACAD
1000
DSTYLE
1002
{
1070
   140
1040
5.0
1070
    41
1040
10.0
1002
}
  0
DIMENSION
  5
183
102
{ACAD_REACTORS
330
185
102
}
102
{ACAD_XDICTIONARY
360
184
102
}
330
1F
100
AcDbEntity
  8
0
100
AcDbDimension
  2
*D4
 10
499.9999999999981
 20
-53.92427352686515
 30
0.0
 11
249.999999999999
 21
-53.92427352686515
 31
0.0
 70
    32
 71
     5
 42
499.9999999999981
  3
Standard
100
AcDbAlignedDimension
 13
0.0
 23
0.0
 33
0.0
 14
499.9999999999981
 24
0.0000000000000036
 34
0.0
100
AcDbRotatedDimension
1001
ACAD
1000
DSTYLE
1002
{
1070
   140
1040
5.0
1070
    41
1040
10.0
1002
}
  0
TEXT
  5
193
330
1F
100
AcDbEntity
  8
0
100
AcDbText
 10
29.65233644705793
 20
-87.37027738824227
 30
0.0
 40
10.0
  1
Le proprietà di massa della regione che ho creato usando la funzione specifica sono:
100
AcDbText
  0
TEXT
  5
194
330
1F
100
AcDbEntity
  8
0
100
AcDbText
 10
29.65233644705793
 20
-102.3702773882423
 30
0.0
 40
10.0
  1
-Superficie 39269.9082 mmq
100
AcDbText
  0
TEXT
  5
195
330
1F
100
AcDbEntity
  8
0
100
AcDbText
 10
29.65233644705793
 20
-117.3702773882423
 30
0.0
 40
10.0
  1
-Baricentro x=212.2066  y=42.4413
100
AcDbText
  0
LINE
  5
198
102
{ACAD_REACTORS
330
1A5
102
}
330
1F
100
AcDbEntity
  8
0
100
AcDbLine
 10
212.2066
 20
52.4413
 30
0.0
 11
212.2066
 21
32.4413
 31
0.0
  0
LINE
  5
199
102
{ACAD_REACTORS
330
1A5
330
1DF
330
1FF
102
}
330
1F
100
AcDbEntity
  8
0
100
AcDbLine
 10
222.2066
 20
42.4413
 30
0.0
 11
202.2066
 21
42.4413
 31
0.0
  0
CIRCLE
  5
19A
102
{ACAD_REACTORS
330
1A5
102
}
330
1F
100
AcDbEntity
  8
0
100
AcDbCircle
 10
212.2066
 20
42.4413
 30
0.0
 40
10.0
  0
HATCH
  5
1A5
330
1F
100
AcDbEntity
  8
0
100
AcDbHatch
 10
0.0
 20
0.0
 30
0.0
210
0.0
220
0.0
230
1.0
  2
ANSI31
 70
     0
 71
     1
 91
        2
 92
        7
 72
     1
 73
     1
 93
        3
 10
212.2066
 20
32.4413
 42
0.4142135623730951
 10
222.2066
 20
42.4413
 42
0.0
 10
212.2066
 20
42.4413
 42
0.0
 97
        3
330
19A
330
199
330
198
 92
        7
 72
     1
 73
     1
 93
        3
 10
212.2066
 20
42.4413
 42
0.0
 10
212.2066
 20
52.44129999999999
 42
0.4142135623730956
 10
202.2066
 20
42.4413
 42
0.0
 97
        3
330
198
330
19A
330
199
 75
     0
 76
     1
 52
0.0
 41
1.0
 77
     0
 78
     1
 53
45.0
 43
0.0
 44
0.0
 45
-0.0883883476483184
 46
0.0883883476483184
 79
     0
 47
0.0
 98
        2
 10
212.2700524768883
 20
42.157044002777
 10
210.2024256630299
 20
45.60308869254085
1001
ACAD
1010
0.0
1020
0.0
1030
0.0
  0
TEXT
  5
1A6
330
1F
100
AcDbEntity
  8
0
100
AcDbText
 10
31.88558185279078
 20
-144.679604677069
 30
0.0
 40
10.0
  1
Mi pare che usando le formule di Ehsti i risultati siano identici 
100
AcDbText
  0
TEXT
  5
1B8
330
1F
100
AcDbEntity
  8
0
100
AcDbText
 10
31.21252624932129
 20
-162.8521059707456
 30
0.0
 40
10.0
  1
Anche se si calcola la cma con la formula 8/(3*pigreco) che ho riportato sul disegno
100
AcDbText
  0
TEXT
  5
1CA
330
1F
100
AcDbEntity
  8
0
100
AcDbText
 10
32.29732124699748
 20
-180.3246204447193
 30
0.0
 40
10.0
  1
la corrispondente posizione che poi si ritrova sulla semiala (anch'essa riportata)
100
AcDbText
  0
TEXT
  5
1DC
330
1F
100
AcDbEntity
  8
0
100
AcDbText
 10
32.96058872010761
 20
-196.149840321296
 30
0.0
 40
10.0
  1
mi pare che corrisponda praticamente a 500*cos(arcsen(8/(3*pigreco))) 
100
AcDbText
  0
DIMENSION
  5
1DD
102
{ACAD_REACTORS
330
1DF
102
}
102
{ACAD_XDICTIONARY
360
1DE
102
}
330
1F
100
AcDbEntity
  8
0
100
AcDbDimension
  2
*D8
 10
0.0
 20
120.5356884352394
 30
0.0
 11
106.1033
 21
120.5356884352394
 31
0.0
 70
    32
 71
     5
 42
212.2066
  3
Standard
100
AcDbAlignedDimension
 13
212.2066
 23
42.4413
 33
0.0
 14
0.0
 24
100.0
 34
0.0
100
AcDbRotatedDimension
1001
ACAD
1000
DSTYLE
1002
{
1070
    41
1040
10.0
1070
   140
1040
5.0
1002
}
  0
DIMENSION
  5
1FD
102
{ACAD_REACTORS
330
1FF
102
}
102
{ACAD_XDICTIONARY
360
1FE
102
}
330
1F
100
AcDbEntity
  8
0
100
AcDbDimension
  2
*D9
 10
-19.83028144390869
 20
0.0
 30
0.0
 11
-19.83028144390869
 21
21.22064999999995
 31
0.0
 70
   160
 71
     5
 42
42.44130000000001
  3
Standard
100
AcDbAlignedDimension
 13
212.2066
 23
42.4413
 33
0.0
 14
0.0
 24
0.0
 34
0.0
 50
90.0
100
AcDbRotatedDimension
1001
ACAD
1000
DSTYLE
1002
{
1070
    41
1040
10.0
1070
   140
1040
5.0
1002
}
1001
ACAD_DSTYLE_DIMFLIPARROW_SYMBOL
1070
   385
1070
     0
1001
ACAD_DSTYLE_DIMFLIPARROW_WHICH_SYMBOL
1070
   386
1070
     3
  0
ENDSEC
  0
SECTION
  2
OBJECTS
  0
DICTIONARY
  5
C
330
0
100
AcDbDictionary
281
     1
  3
ACAD_COLOR
350
73
  3
ACAD_DETAILVIEWSTYLE
350
122
  3
ACAD_GROUP
350
D
  3
ACAD_IMAGE_VARS
350
DC
  3
ACAD_LAYOUT
350
1A
  3
ACAD_MATERIAL
350
72
  3
ACAD_MLEADERSTYLE
350
B5
  3
ACAD_MLINESTYLE
350
17
  3
ACAD_PLOTSETTINGS
350
19
  3
ACAD_PLOTSTYLENAME
350
E
  3
ACAD_SCALELIST
350
B6
  3
ACAD_SECTIONVIEWSTYLE
350
123
  3
ACAD_TABLESTYLE
350
86
  3
ACDB_RECOMPOSE_DATA
350
214
  3
AcDbVariableDictionary
350
66
  3
APPDATA
350
E1
  0
DICTIONARY
  5
19D
330
1F
100
AcDbDictionary
280
     1
281
     1
  3
ACAD_SORTENTS
360
19E
  0
DICTIONARY
  5
154
330
153
100
AcDbDictionary
280
     1
281
     1
  3
ACAD_DIMASSOC
360
155
  0
DICTIONARY
  5
164
330
163
100
AcDbDictionary
280
     1
281
     1
  3
ACAD_DIMASSOC
360
165
  0
DICTIONARY
  5
174
330
173
100
AcDbDictionary
280
     1
281
     1
  3
ACAD_DIMASSOC
360
175
  0
DICTIONARY
  5
184
330
183
100
AcDbDictionary
280
     1
281
     1
  3
ACAD_DIMASSOC
360
185
  0
DICTIONARY
  5
1DE
330
1DD
100
AcDbDictionary
280
     1
281
     1
  3
ACAD_DIMASSOC
360
1DF
  0
DICTIONARY
  5
1FE
330
1FD
100
AcDbDictionary
280
     1
281
     1
  3
ACAD_DIMASSOC
360
1FF
  0
DICTIONARY
  5
73
102
{ACAD_REACTORS
330
C
102
}
330
C
100
AcDbDictionary
281
     1
  0
DICTIONARY
  5
122
102
{ACAD_REACTORS
330
C
102
}
330
C
100
AcDbDictionary
281
     1
  0
DICTIONARY
  5
D
102
{ACAD_REACTORS
330
C
102
}
330
C
100
AcDbDictionary
281
     1
  0
RASTERVARIABLES
  5
DC
102
{ACAD_REACTORS
330
C
102
}
330
C
100
AcDbRasterVariables
 90
        0
 70
     1
 71
     1
 72
     5
  0
DICTIONARY
  5
1A
102
{ACAD_REACTORS
330
C
102
}
330
C
100
AcDbDictionary
281
     1
  3
Model
350
22
  3
Sheet1
350
59
  3
Sheet2
350
5E
  0
DICTIONARY
  5
72
102
{ACAD_REACTORS
330
C
102
}
330
C
100
AcDbDictionary
281
     1
  3
ByBlock
350
E2
  3
ByLayer
350
96
  3
Global
350
98
  0
DICTIONARY
  5
B5
102
{ACAD_REACTORS
330
C
102
}
330
C
100
AcDbDictionary
281
     1
  3
Annotative
350
129
  3
Standard
350
124
  0
DICTIONARY
  5
17
102
{ACAD_REACTORS
330
C
102
}
330
C
100
AcDbDictionary
281
     1
  3
Standard
350
18
  0
DICTIONARY
  5
19
102
{ACAD_REACTORS
330
C
102
}
330
C
100
AcDbDictionary
281
     1
  0
ACDBDICTIONARYWDFLT
  5
E
102
{ACAD_REACTORS
330
C
102
}
330
C
100
AcDbDictionary
281
     1
  3
Normal
350
F
100
AcDbDictionaryWithDefault
340
F
  0
DICTIONARY
  5
B6
102
{ACAD_REACTORS
330
C
102
}
330
C
100
AcDbDictionary
281
     1
  3
A0
350
B7
  3
A1
350
B8
  3
A2
350
B9
  3
A3
350
BA
  3
A4
350
BB
  3
A5
350
BC
  3
A6
350
BD
  3
A7
350
BE
  3
A8
350
BF
  3
A9
350
C0
  3
B0
350
C1
  3
B1
350
C2
  3
B2
350
C3
  3
B3
350
C4
  3
B4
350
C5
  3
B5
350
C6
  3
B6
350
C7
  3
B7
350
C8
  3
B8
350
C9
  3
B9
350
CA
  3
C0
350
CB
  3
C1
350
CC
  3
C2
350
CD
  3
C3
350
CE
  3
C4
350
CF
  3
C5
350
D0
  3
C6
350
D1
  3
C7
350
D2
  3
C8
350
D3
  3
C9
350
D4
  3
D0
350
D5
  3
D1
350
D6
  3
D2
350
D7
  0
DICTIONARY
  5
123
102
{ACAD_REACTORS
330
C
102
}
330
C
100
AcDbDictionary
281
     1
  0
DICTIONARY
  5
86
102
{ACAD_REACTORS
330
C
102
}
330
C
100
AcDbDictionary
281
     1
  3
Standard
350
87
  0
XRECORD
  5
214
102
{ACAD_REACTORS
330
C
102
}
330
C
100
AcDbXrecord
280
     1
 90
        1
330
87
  0
DICTIONARY
  5
66
102
{ACAD_REACTORS
330
C
102
}
330
C
100
AcDbDictionary
281
     1
  3
CANNOSCALE
350
D8
  3
CMLEADERSTYLE
350
128
  3
CTABLESTYLE
350
89
  3
DIMASSOC
350
67
  3
HIDETEXT
350
6B
  3
LIGHTSINBLOCKS
350
DF
  3
MSLTSCALE
350
14F
  3
XCLIPFRAME
350
E0
  0
DICTIONARY
  5
E1
102
{ACAD_REACTORS
330
C
102
}
330
C
100
AcDbDictionary
281
     1
  0
SORTENTSTABLE
  5
19E
102
{ACAD_REACTORS
330
19D
102
}
330
19D
100
AcDbSortentsTable
330
1F
331
12B
  5
12C
331
12C
  5
12D
331
12D
  5
150
331
0
  5
151
331
0
  5
152
331
152
  5
153
331
153
  5
163
331
163
  5
173
331
173
  5
183
331
183
  5
193
331
193
  5
194
331
194
  5
195
331
195
  5
196
331
0
  5
197
331
0
  5
198
331
198
  5
1A2
331
199
  5
1A3
331
19A
  5
1A4
331
0
  5
1A5
331
0
  5
199
331
0
  5
19A
331
0
  5
19B
331
0
  5
19C
331
0
  5
19F
331
0
  5
12B
331
0
  5
1A0
331
1A5
  5
1A1
  0
DIMASSOC
  5
155
102
{ACAD_REACTORS
330
154
102
}
330
154
100
AcDbDimAssoc
330
153
 90
        1
 70
     0
 71
     1
  1
AcDbOsnapPointRef
 72
     6
331
12A
 73
     0
 91
        0
 40
7.296953535118719
 10
0.0
 20
0.0
 30
0.0
332
152
 74
     0
 92
        0
 75
     0
  0
DIMASSOC
  5
165
102
{ACAD_REACTORS
330
164
102
}
330
164
100
AcDbDimAssoc
330
163
 90
        3
 70
     0
 71
     1
  1
AcDbOsnapPointRef
 72
     6
331
12C
 73
     0
 91
        0
 40
0.5286658974248288
 10
0.0
 20
0.0
 30
0.0
332
152
 74
     0
 92
        0
 75
     0
  1
AcDbOsnapPointRef
 72
     6
331
12A
 73
     0
 91
        0
 40
7.296953535118719
 10
0.0
 20
0.0
 30
0.0
332
152
 74
     0
 92
        0
 75
     0
  0
DIMASSOC
  5
175
102
{ACAD_REACTORS
330
174
102
}
330
174
100
AcDbDimAssoc
330
173
 90
        2
 70
     0
 71
     1
  1
AcDbOsnapPointRef
 72
     3
331
12D
 73
     0
 91
        0
 40
0.0
 10
0.0
 20
0.0
 30
0.0
 75
     0
  0
DIMASSOC
  5
185
102
{ACAD_REACTORS
330
184
102
}
330
184
100
AcDbDimAssoc
330
183
 90
        3
 70
     0
 71
     1
  1
AcDbOsnapPointRef
 72
     6
331
12B
 73
     0
 91
        0
 40
0.0
 10
0.0
 20
0.0
 30
0.0
332
12C
 74
     0
 92
        0
 75
     0
  1
AcDbOsnapPointRef
 72
     6
331
12A
 73
     0
 91
        0
 40
6.283185307179586
 10
0.0
 20
0.0
 30
0.0
332
12C
 74
     0
 92
        0
 75
     0
  0
DIMASSOC
  5
1DF
102
{ACAD_REACTORS
330
1DE
102
}
330
1DE
100
AcDbDimAssoc
330
1DD
 90
        1
 70
     0
 71
     1
  1
AcDbOsnapPointRef
 72
     2
331
199
 73
     0
 91
        0
 40
0.5
 10
0.0
 20
0.0
 30
0.0
 75
     0
  0
DIMASSOC
  5
1FF
102
{ACAD_REACTORS
330
1FE
102
}
330
1FE
100
AcDbDimAssoc
330
1FD
 90
        1
 70
     0
 71
     1
  1
AcDbOsnapPointRef
 72
     2
331
199
 73
     0
 91
        0
 40
0.5
 10
0.0
 20
0.0
 30
0.0
 75
     0
  0
LAYOUT
  5
22
102
{ACAD_REACTORS
330
1A
102
}
330
1A
100
AcDbPlotSettings
  1

  2
none_device
  4
ANSI_A_(8.50_x_11.00_Inches)
  6

 40
6.35
 41
19.05
 42
6.35
 43
19.05
 44
215.9
 45
279.4
 46
11.11250000000003
 47
0.0000000000000142
 48
0.0
 49
0.0
140
0.0
141
0.0
142
1.0
143
1.263157894736842
 70
 11444
 72
     0
 73
     1
 74
     1
  7
monochrome.ctb
 75
     0
 76
     0
 77
     2
 78
   300
147
0.7916666666666665
148
-702.8076765758875
149
-496.2830551296954
100
AcDbLayout
  1
Model
 70
     1
 71
     0
 10
0.0
 20
0.0
 11
12.0
 21
9.0
 12
0.0
 22
0.0
 32
0.0
 14
-63.75514704845892
 24
-199.089840321296
 34
0.0
 15
552.1223364470577
 25
147.7363688185105
 35
0.0
146
0.0
 13
0.0
 23
0.0
 33
0.0
 16
1.0
 26
0.0
 36
0.0
 17
0.0
 27
1.0
 37
0.0
 76
     0
330
1F
331
94
  0
LAYOUT
  5
59
102
{ACAD_REACTORS
330
1A
102
}
330
1A
100
AcDbPlotSettings
  1

  2
None
  4

  6

 40
0.0
 41
0.0
 42
0.0
 43
0.0
 44
0.0
 45
0.0
 46
0.0
 47
0.0
 48
0.0
 49
0.0
140
0.0
141
0.0
142
1.0
143
1.0
 70
   688
 72
     0
 73
     0
 74
     5
  7

 75
    16
 76
     0
 77
     2
 78
   300
147
1.0
148
0.0
149
0.0
100
AcDbLayout
  1
Sheet1
 70
     1
 71
     1
 10
0.0
 20
0.0
 11
12.0
 21
9.0
 12
0.0
 22
0.0
 32
0.0
 14
0.0
 24
0.0
 34
0.0
 15
0.0
 25
0.0
 35
0.0
146
0.0
 13
0.0
 23
0.0
 33
0.0
 16
1.0
 26
0.0
 36
0.0
 17
0.0
 27
1.0
 37
0.0
 76
     0
330
58
  0
LAYOUT
  5
5E
102
{ACAD_REACTORS
330
1A
102
}
330
1A
100
AcDbPlotSettings
  1

  2
None
  4

  6

 40
0.0
 41
0.0
 42
0.0
 43
0.0
 44
0.0
 45
0.0
 46
0.0
 47
0.0
 48
0.0
 49
0.0
140
0.0
141
0.0
142
1.0
143
1.0
 70
   688
 72
     0
 73
     0
 74
     5
  7

 75
    16
 76
     0
 77
     2
 78
   300
147
1.0
148
0.0
149
0.0
100
AcDbLayout
  1
Sheet2
 70
     1
 71
     2
 10
0.0
 20
0.0
 11
12.0
 21
9.0
 12
0.0
 22
0.0
 32
0.0
 14
0.0
 24
0.0
 34
0.0
 15
0.0
 25
0.0
 35
0.0
146
0.0
 13
0.0
 23
0.0
 33
0.0
 16
1.0
 26
0.0
 36
0.0
 17
0.0
 27
1.0
 37
0.0
 76
     0
330
5D
  0
MATERIAL
  5
E2
102
{ACAD_REACTORS
330
72
102
}
330
72
100
AcDbMaterial
  1
ByBlock
  0
MATERIAL
  5
96
102
{ACAD_REACTORS
330
72
102
}
330
72
100
AcDbMaterial
  1
ByLayer
  0
MATERIAL
  5
98
102
{ACAD_REACTORS
330
72
102
}
330
72
100
AcDbMaterial
  1
Global
  0
MLEADERSTYLE
  5
129
102
{ACAD_REACTORS
330
B5
102
}
330
B5
100
AcDbMLeaderStyle
170
     2
171
     1
172
     0
 90
        2
 40
0.0
 41
0.0
173
     1
 91
-1056964608
340
14
 92
       -2
290
     1
 42
0.09
291
     1
 43
0.36
  3
Annotative
341
0
 44
0.18
300

342
11
174
     1
178
     1
175
     1
176
     0
 93
-1056964608
 45
0.18
292
     0
297
     0
 46
0.18
343
0
 94
-1056964608
 47
1.0
 49
1.0
140
1.0
293
     1
141
0.0
294
     1
177
     0
142
1.0
295
     0
296
     1
143
0.125
1001
ACAD_MLEADERVER
1070
     2
  0
MLEADERSTYLE
  5
124
102
{ACAD_REACTORS
330
B5
102
}
330
B5
100
AcDbMLeaderStyle
170
     2
171
     1
172
     0
 90
        2
 40
0.0
 41
0.0
173
     1
 91
-1056964608
340
14
 92
       -2
290
     1
 42
0.09
291
     1
 43
0.36
  3
Standard
341
0
 44
0.18
300

342
11
174
     1
178
     6
175
     1
176
     0
 93
-1056964608
 45
0.18
292
     0
297
     0
 46
0.18
343
0
 94
-1056964608
 47
1.0
 49
1.0
140
1.0
293
     1
141
0.0
294
     1
177
     0
142
1.0
295
     0
296
     0
143
0.125
1001
ACAD_MLEADERVER
1070
     2
  0
MLINESTYLE
  5
18
102
{ACAD_REACTORS
330
17
102
}
330
17
100
AcDbMlineStyle
  2
STANDARD
 70
     0
  3

 62
   256
 51
90.0
 52
90.0
 71
     2
 49
0.5
 62
   256
  6
BYLAYER
 49
-0.5
 62
   256
  6
BYLAYER
  0
ACDBPLACEHOLDER
  5
F
102
{ACAD_REACTORS
330
E
102
}
330
E
  0
SCALE
  5
B7
102
{ACAD_REACTORS
330
B6
102
}
330
B6
100
AcDbScale
 70
     0
300
1:1
140
1.0
141
1.0
290
     1
  0
SCALE
  5
B8
102
{ACAD_REACTORS
330
B6
102
}
330
B6
100
AcDbScale
 70
     0
300
1:2
140
1.0
141
2.0
290
     0
  0
SCALE
  5
B9
102
{ACAD_REACTORS
330
B6
102
}
330
B6
100
AcDbScale
 70
     0
300
1:4
140
1.0
141
4.0
290
     0
  0
SCALE
  5
BA
102
{ACAD_REACTORS
330
B6
102
}
330
B6
100
AcDbScale
 70
     0
300
1:5
140
1.0
141
5.0
290
     0
  0
SCALE
  5
BB
102
{ACAD_REACTORS
330
B6
102
}
330
B6
100
AcDbScale
 70
     0
300
1:8
140
1.0
141
8.0
290
     0
  0
SCALE
  5
BC
102
{ACAD_REACTORS
330
B6
102
}
330
B6
100
AcDbScale
 70
     0
300
1:10
140
1.0
141
10.0
290
     0
  0
SCALE
  5
BD
102
{ACAD_REACTORS
330
B6
102
}
330
B6
100
AcDbScale
 70
     0
300
1:16
140
1.0
141
16.0
290
     0
  0
SCALE
  5
BE
102
{ACAD_REACTORS
330
B6
102
}
330
B6
100
AcDbScale
 70
     0
300
1:20
140
1.0
141
20.0
290
     0
  0
SCALE
  5
BF
102
{ACAD_REACTORS
330
B6
102
}
330
B6
100
AcDbScale
 70
     0
300
1:30
140
1.0
141
30.0
290
     0
  0
SCALE
  5
C0
102
{ACAD_REACTORS
330
B6
102
}
330
B6
100
AcDbScale
 70
     0
300
1:40
140
1.0
141
40.0
290
     0
  0
SCALE
  5
C1
102
{ACAD_REACTORS
330
B6
102
}
330
B6
100
AcDbScale
 70
     0
300
1:50
140
1.0
141
50.0
290
     0
  0
SCALE
  5
C2
102
{ACAD_REACTORS
330
B6
102
}
330
B6
100
AcDbScale
 70
     0
300
1:100
140
1.0
141
100.0
290
     0
  0
SCALE
  5
C3
102
{ACAD_REACTORS
330
B6
102
}
330
B6
100
AcDbScale
 70
     0
300
2:1
140
2.0
141
1.0
290
     0
  0
SCALE
  5
C4
102
{ACAD_REACTORS
330
B6
102
}
330
B6
100
AcDbScale
 70
     0
300
4:1
140
4.0
141
1.0
290
     0
  0
SCALE
  5
C5
102
{ACAD_REACTORS
330
B6
102
}
330
B6
100
AcDbScale
 70
     0
300
8:1
140
8.0
141
1.0
290
     0
  0
SCALE
  5
C6
102
{ACAD_REACTORS
330
B6
102
}
330
B6
100
AcDbScale
 70
     0
300
10:1
140
10.0
141
1.0
290
     0
  0
SCALE
  5
C7
102
{ACAD_REACTORS
330
B6
102
}
330
B6
100
AcDbScale
 70
     0
300
100:1
140
100.0
141
1.0
290
     0
  0
SCALE
  5
C8
102
{ACAD_REACTORS
330
B6
102
}
330
B6
100
AcDbScale
 70
     0
300
1/128" = 1'-0"
140
0.0078125
141
12.0
290
     0
  0
SCALE
  5
C9
102
{ACAD_REACTORS
330
B6
102
}
330
B6
100
AcDbScale
 70
     0
300
1/64" = 1'-0"
140
0.015625
141
12.0
290
     0
  0
SCALE
  5
CA
102
{ACAD_REACTORS
330
B6
102
}
330
B6
100
AcDbScale
 70
     0
300
1/32" = 1'-0"
140
0.03125
141
12.0
290
     0
  0
SCALE
  5
CB
102
{ACAD_REACTORS
330
B6
102
}
330
B6
100
AcDbScale
 70
     0
300
1/16" = 1'-0"
140
0.0625
141
12.0
290
     0
  0
SCALE
  5
CC
102
{ACAD_REACTORS
330
B6
102
}
330
B6
100
AcDbScale
 70
     0
300
3/32" = 1'-0"
140
0.09375
141
12.0
290
     0
  0
SCALE
  5
CD
102
{ACAD_REACTORS
330
B6
102
}
330
B6
100
AcDbScale
 70
     0
300
1/8" = 1'-0"
140
0.125
141
12.0
290
     0
  0
SCALE
  5
CE
102
{ACAD_REACTORS
330
B6
102
}
330
B6
100
AcDbScale
 70
     0
300
3/16" = 1'-0"
140
0.1875
141
12.0
290
     0
  0
SCALE
  5
CF
102
{ACAD_REACTORS
330
B6
102
}
330
B6
100
AcDbScale
 70
     0
300
1/4" = 1'-0"
140
0.25
141
12.0
290
     0
  0
SCALE
  5
D0
102
{ACAD_REACTORS
330
B6
102
}
330
B6
100
AcDbScale
 70
     0
300
3/8" = 1'-0"
140
0.375
141
12.0
290
     0
  0
SCALE
  5
D1
102
{ACAD_REACTORS
330
B6
102
}
330
B6
100
AcDbScale
 70
     0
300
1/2" = 1'-0"
140
0.5
141
12.0
290
     0
  0
SCALE
  5
D2
102
{ACAD_REACTORS
330
B6
102
}
330
B6
100
AcDbScale
 70
     0
300
3/4" = 1'-0"
140
0.75
141
12.0
290
     0
  0
SCALE
  5
D3
102
{ACAD_REACTORS
330
B6
102
}
330
B6
100
AcDbScale
 70
     0
300
1" = 1'-0"
140
1.0
141
12.0
290
     0
  0
SCALE
  5
D4
102
{ACAD_REACTORS
330
B6
102
}
330
B6
100
AcDbScale
 70
     0
300
1-1/2" = 1'-0"
140
1.5
141
12.0
290
     0
  0
SCALE
  5
D5
102
{ACAD_REACTORS
330
B6
102
}
330
B6
100
AcDbScale
 70
     0
300
3" = 1'-0"
140
3.0
141
12.0
290
     0
  0
SCALE
  5
D6
102
{ACAD_REACTORS
330
B6
102
}
330
B6
100
AcDbScale
 70
     0
300
6" = 1'-0"
140
6.0
141
12.0
290
     0
  0
SCALE
  5
D7
102
{ACAD_REACTORS
330
B6
102
}
330
B6
100
AcDbScale
 70
     0
300
1'-0" = 1'-0"
140
12.0
141
12.0
290
     0
  0
TABLESTYLE
  5
87
102
{ACAD_REACTORS
330
86
102
}
102
{ACAD_XDICTIONARY
360
211
102
}
330
86
100
AcDbTableStyle
  3
Standard
 70
     0
 71
     0
 40
0.06
 41
0.06
280
     0
281
     0
  7
Standard
140
0.18
170
     2
 62
     0
 63
   257
283
     0
274
    -2
284
     1
 64
     0
275
    -2
285
     1
 65
     0
276
    -2
286
     1
 66
     0
277
    -2
287
     1
 67
     0
278
    -2
288
     1
 68
     0
279
    -2
289
     1
 69
     0
  7
Standard
140
0.25
170
     5
 62
     0
 63
   257
283
     0
274
    -2
284
     1
 64
     0
275
    -2
285
     1
 65
     0
276
    -2
286
     1
 66
     0
277
    -2
287
     1
 67
     0
278
    -2
288
     1
 68
     0
279
    -2
289
     1
 69
     0
  7
Standard
140
0.18
170
     5
 62
     0
 63
   257
283
     0
274
    -2
284
     1
 64
     0
275
    -2
285
     1
 65
     0
276
    -2
286
     1
 66
     0
277
    -2
287
     1
 67
     0
278
    -2
288
     1
 68
     0
279
    -2
289
     1
 69
     0
  0
DICTIONARYVAR
  5
D8
102
{ACAD_REACTORS
330
66
102
}
330
66
100
DictionaryVariables
280
     0
  1
1:1
  0
DICTIONARYVAR
  5
128
102
{ACAD_REACTORS
330
66
102
}
330
66
100
DictionaryVariables
280
     0
  1
Standard
  0
DICTIONARYVAR
  5
89
102
{ACAD_REACTORS
330
66
102
}
330
66
100
DictionaryVariables
280
     0
  1
Standard
  0
DICTIONARYVAR
  5
67
102
{ACAD_REACTORS
330
66
102
}
330
66
100
DictionaryVariables
280
     0
  1
2
  0
DICTIONARYVAR
  5
6B
102
{ACAD_REACTORS
330
66
102
}
330
66
100
DictionaryVariables
280
     0
  1
1
  0
DICTIONARYVAR
  5
DF
102
{ACAD_REACTORS
330
66
102
}
330
66
100
DictionaryVariables
280
     0
  1
0
  0
DICTIONARYVAR
  5
14F
102
{ACAD_REACTORS
330
66
102
}
330
66
100
DictionaryVariables
280
     0
  1
0
  0
DICTIONARYVAR
  5
E0
102
{ACAD_REACTORS
330
66
102
}
330
66
100
DictionaryVariables
280
     0
  1
0
  0
DICTIONARY
  5
211
330
87
100
AcDbDictionary
280
     1
281
     1
  3
ACAD_ROUNDTRIP_2008_TABLESTYLE_CELLSTYLEMAP
360
213
  3
ACAD_XREC_ROUNDTRIP
360
212
  0
CELLSTYLEMAP
  5
213
102
{ACAD_REACTORS
330
211
102
}
330
211
100
AcDbCellStyleMap
 90
        3
300
CELLSTYLE
  1
TABLEFORMAT_BEGIN
 90
        5
170
     1
 91
        0
 92
    32768
 62
   257
 93
        1
300
CONTENTFORMAT
  1
CONTENTFORMAT_BEGIN
 90
        0
 91
        0
 92
      512
 93
        0
300

 40
0.0
140
1.0
 94
        5
 62
     0
340
11
144
0.25
309
CONTENTFORMAT_END
171
     0
 94
        6
 95
        1
302
GRIDFORMAT
  1
GRIDFORMAT_BEGIN
 90
        0
 91
        1
 62
     0
 92
       -2
340
0
 93
        0
 40
0.045
309
GRIDFORMAT_END
 95
        2
302
GRIDFORMAT
  1
GRIDFORMAT_BEGIN
 90
        0
 91
        1
 62
     0
 92
       -2
340
0
 93
        0
 40
0.045
309
GRIDFORMAT_END
 95
        4
302
GRIDFORMAT
  1
GRIDFORMAT_BEGIN
 90
        0
 91
        1
 62
     0
 92
       -2
340
0
 93
        0
 40
0.045
309
GRIDFORMAT_END
 95
        8
302
GRIDFORMAT
  1
GRIDFORMAT_BEGIN
 90
        0
 91
        1
 62
     0
 92
       -2
340
0
 93
        0
 40
0.045
309
GRIDFORMAT_END
 95
       16
302
GRIDFORMAT
  1
GRIDFORMAT_BEGIN
 90
        0
 91
        1
 62
     0
 92
       -2
340
0
 93
        0
 40
0.045
309
GRIDFORMAT_END
 95
       32
302
GRIDFORMAT
  1
GRIDFORMAT_BEGIN
 90
        0
 91
        1
 62
     0
 92
       -2
340
0
 93
        0
 40
0.045
309
GRIDFORMAT_END
309
TABLEFORMAT_END
  1
CELLSTYLE_BEGIN
 90
        1
 91
        1
300
_TITLE
309
CELLSTYLE_END
300
CELLSTYLE
  1
TABLEFORMAT_BEGIN
 90
        5
170
     1
 91
        0
 92
        0
 62
   257
 93
        1
300
CONTENTFORMAT
  1
CONTENTFORMAT_BEGIN
 90
        0
 91
        0
 92
      512
 93
        0
300

 40
0.0
140
1.0
 94
        5
 62
     0
340
11
144
0.18
309
CONTENTFORMAT_END
171
     0
 94
        6
 95
        1
302
GRIDFORMAT
  1
GRIDFORMAT_BEGIN
 90
        0
 91
        1
 62
     0
 92
       -2
340
0
 93
        0
 40
0.045
309
GRIDFORMAT_END
 95
        2
302
GRIDFORMAT
  1
GRIDFORMAT_BEGIN
 90
        0
 91
        1
 62
     0
 92
       -2
340
0
 93
        0
 40
0.045
309
GRIDFORMAT_END
 95
        4
302
GRIDFORMAT
  1
GRIDFORMAT_BEGIN
 90
        0
 91
        1
 62
     0
 92
       -2
340
0
 93
        0
 40
0.045
309
GRIDFORMAT_END
 95
        8
302
GRIDFORMAT
  1
GRIDFORMAT_BEGIN
 90
        0
 91
        1
 62
     0
 92
       -2
340
0
 93
        0
 40
0.045
309
GRIDFORMAT_END
 95
       16
302
GRIDFORMAT
  1
GRIDFORMAT_BEGIN
 90
        0
 91
        1
 62
     0
 92
       -2
340
0
 93
        0
 40
0.045
309
GRIDFORMAT_END
 95
       32
302
GRIDFORMAT
  1
GRIDFORMAT_BEGIN
 90
        0
 91
        1
 62
     0
 92
       -2
340
0
 93
        0
 40
0.045
309
GRIDFORMAT_END
309
TABLEFORMAT_END
  1
CELLSTYLE_BEGIN
 90
        2
 91
        1
300
_HEADER
309
CELLSTYLE_END
300
CELLSTYLE
  1
TABLEFORMAT_BEGIN
 90
        5
170
     1
 91
        0
 92
        0
 62
   257
 93
        1
300
CONTENTFORMAT
  1
CONTENTFORMAT_BEGIN
 90
        0
 91
        0
 92
      512
 93
        0
300

 40
0.0
140
1.0
 94
        2
 62
     0
340
11
144
0.18
309
CONTENTFORMAT_END
171
     0
 94
        6
 95
        1
302
GRIDFORMAT
  1
GRIDFORMAT_BEGIN
 90
        0
 91
        1
 62
     0
 92
       -2
340
0
 93
        0
 40
0.045
309
GRIDFORMAT_END
 95
        2
302
GRIDFORMAT
  1
GRIDFORMAT_BEGIN
 90
        0
 91
        1
 62
     0
 92
       -2
340
0
 93
        0
 40
0.045
309
GRIDFORMAT_END
 95
        4
302
GRIDFORMAT
  1
GRIDFORMAT_BEGIN
 90
        0
 91
        1
 62
     0
 92
       -2
340
0
 93
        0
 40
0.045
309
GRIDFORMAT_END
 95
        8
302
GRIDFORMAT
  1
GRIDFORMAT_BEGIN
 90
        0
 91
        1
 62
     0
 92
       -2
340
0
 93
        0
 40
0.045
309
GRIDFORMAT_END
 95
       16
302
GRIDFORMAT
  1
GRIDFORMAT_BEGIN
 90
        0
 91
        1
 62
     0
 92
       -2
340
0
 93
        0
 40
0.045
309
GRIDFORMAT_END
 95
       32
302
GRIDFORMAT
  1
GRIDFORMAT_BEGIN
 90
        0
 91
        1
 62
     0
 92
       -2
340
0
 93
        0
 40
0.045
309
GRIDFORMAT_END
309
TABLEFORMAT_END
  1
CELLSTYLE_BEGIN
 90
        3
 91
        2
300
_DATA
309
CELLSTYLE_END
  0
XRECORD
  5
212
102
{ACAD_REACTORS
330
211
102
}
330
211
100
AcDbXrecord
280
     1
102
ACAD_ROUNDTRIP_PRE2007_TABLESTYLE
 90
      512
 91
        0
  1

 92
      512
 93
        0
  2

 94
      512
 95
        0
  3

  0
ENDSEC
  0
EOF
